#TITLE:Freeway Shuffle;
#SUBTITLE:~Summer Contest Edit~;
#ARTIST:dj TAKA;
#TITLETRANSLIT:;
#SUBTITLETRANSLIT:;
#ARTISTTRANSLIT:;
#GENRE:;
#CREDIT:;
#MENUCOLOR:;
#METERTYPE:DDR;
#BANNER:Freeway Shuffle.png;
#BACKGROUND:Freeway Shuffle-bg.png;
#LYRICSPATH:;
#CDTITLE:Summer Contest 2010.png;
#MUSIC:Freeway Shuffle.mp3;
#OFFSET:-0.479;
#SAMPLESTART:28.581;
#SAMPLELENGTH:15.000;
#SELECTABLE:YES;
#LISTSORT:;
#BPMS:0.000=145.000;
#STOPS:;
#BGCHANGES:0.000=Freeway Shuffle.avi=1.000=1=0=0,
99999=-nosongbg-=1.000=0=0=0 // don't automatically add -songbackground-
;
#ATTACKS:;

//---------------dance-single - C. Clinton----------------
#NOTES:
     dance-single:
     C. Clinton:
     Hard:
     10:
     0.745,0.723,0.104,0.207,0.749:
0000
0000
0000
0000
,
0001
0000
1000
0001
0000
0010
0000
0100
0000
0100
0000
1000
0001
0000
0100
0000
,
0010
0000
1000
0100
0000
0010
0000
0001
0000
0001
0000
1000
0010
0000
0100
0000
,
0001
0000
1000
0100
0000
1000
0000
0010
0000
0010
0000
0100
0001
0000
1000
0000
,
0100
0000
0010
0100
0000
1000
0000
0001
0000
0001
0000
0100
0010
0000
1010
0000
,
1001
0000
0001
0010
0000
0100
0000
1000
0000
1000
0000
0001
0100
0000
0010
0000
,
0100
0000
0001
0010
0000
0100
0000
1000
0000
1000
0000
0001
0100
0000
0001
0000
,
1000
0000
0010
0100
0000
0001
0000
0010
0000
0010
0000
0100
1000
0000
0010
0000
,
0100
0000
0001
1000
0000
0100
0000
1000
0000
1000
0000
0001
1000
0000
0010
0000
,
0100
0001
0100
0010
1000
0100
0010
0001
0000
0001
0000
1000
0010
0000
0100
0000
,
0010
1000
0001
1000
0100
0010
0001
1000
0000
1000
0000
0001
0100
0000
0020
0000
,
0000
0000
1030
0000
1100
0000
0100
0010
0000
0010
0000
0001
1000
0000
0010
0000
,
0100
0000
0001
1000
0000
0100
0000
1000
0000
1000
0000
0001
0010
0000
0100
0000
,
1100
0000
1000
0010
0000
0100
0000
0001
0000
0001
0000
1000
0001
0000
0010
0000
,
0100
0000
1000
0001
0000
0100
0000
0010
0000
0010
0000
1000
0010
0000
0100
0000
,
0001
0000
0010
0100
0000
1000
0000
0100
0000
0100
0000
0010
0001
0000
1000
0000
,
0010
0000
0100
0000
0100
0000
0100
0000
0010
1000
0100
0000
0020
0000
0000
0000
,
0031
0000
1000
0010
1000
0001
0100
0001
1000
0000
0100
0000
0010
0000
0100
1000
,
0100
0010
0001
0000
1000
0000
0020
0000
0000
0000
1030
0000
0100
0000
0010
0000
,
0001
0000
1000
0001
0100
0001
1000
0010
0100
0001
1000
0000
0100
0000
1000
0000
,
0010
0100
0001
1000
0010
0000
0200
0000
0000
0000
0301
0000
0010
0000
0100
0000
,
1100
1000
0001
0200
0000
0310
1000
0001
,
0001
0000
0010
0000
0001
0000
1000
0000
0010
0100
0001
0000
1000
0000
0100
0000
,
0010
0100
1000
0000
0001
0000
0010
0100
1000
0000
0001
0000
1000
0000
0010
0000
,
0100
0001
0100
0000
0010
0000
1000
0000
0001
1000
0010
0000
1000
0000
0001
0000
,
1001
0000
1000
0010
1000
0001
0010
0100
1000
0000
0100
0000
0010
0000
0001
1000
,
0001
0100
0001
0000
1000
0000
0020
0000
0000
0000
0130
0000
0001
0000
1000
0000
,
0100
0000
0010
0001
0010
0100
1000
0001
0100
0010
0100
0000
0010
0000
1000
0000
,
0001
0010
0100
1000
0001
0000
0020
0000
0000
0000
0031
0000
1000
0000
0010
0000
,
0110
0100
0001
2000
0000
3100
0010
0001
,
0011
0000
0001
0000
1000
0000
0010
0000
0100
0001
0100
0000
0010
0000
1000
0000
,
0001
0100
0010
0000
1000
0000
0001
0100
0010
0000
1000
0000
0001
0000
0010
0000
,
0100
0000
0001
0000
0100
0000
1000
0000
0001
1000
0001
0000
0100
0000
0010
0000
,
1000
0100
0010
0001
1000
0000
0010
0000
0100
0000
0010
0000
1000
0000
0001
0010
,
0100
1000
0001
0200
0000
0310
1000
0001
,
0100
0010
1000
0001
0100
0000
0001
1000
0100
0000
0010
0100
1000
0001
1000
0010
,
0100
0001
0100
0010
1000
0000
0010
0100
0001
0010
0100
1000
0001
0000
1000
0000
,
1100
0100
0010
0002
0000
1003
0010
0100
,
0001
1000
0100
2000
0000
3010
0100
0001
,
1000
0100
0010
0001
1000
0001
0100
0010
1000
0001
0010
0100
1000
0010
0100
0001
,
0020
0001
0230
1000
,
1300
0010
0001
0010
,
0100
0000
0001
0000
1000
0000
0100
0010
,
0002
0000
0100
0000
0000
0000
0000
0000
1000
0000
0000
0000
1003
0000
0001
0100
,
0010
1000
0100
0010
0100
0010
0001
1000
,
0010
0100
0001
0100
0000
0020
0000
0000
,
1030
0100
0010
0001
0000
1000
0010
0100
,
0001
0000
0000
0000
1000
0000
0000
0000
0010
0100
0001
1000
0100
0010
0001
1000
,
0100
0000
0001
0100
0010
0000
0001
0000
1000
0001
1000
0001
0200
0000
0000
0000
,
0310
1000
0001
1000
0100
0000
0010
0000
0001
0000
1000
0000
0010
0000
0100
0001
,
0010
0100
1000
0002
0000
1003
0010
0100
,
0001
0100
0001
1000
0001
0000
0010
0100
1000
0000
0100
0010
0001
1000
0001
0100
,
0001
1000
0100
0010
0001
0000
0010
0100
1000
0001
1000
0010
0100
0000
0001
0000
,
0011
0010
0100
2000
0000
3001
0100
0010
,
1010
1000
0001
0020
0000
0130
1000
0001
,
1000
0010
0100
0001
1000
0001
0010
0100
1000
0001
0100
0010
1000
0100
0010
0001
,
0200
0010
1000
0010
,
0302
0010
1000
0100
,
2003
0000
0000
0000
,
3100
0000
0000
0000
;

//---------------dance-single - C. Clinton----------------
#NOTES:
     dance-single:
     C. Clinton:
     Medium:
     6:
     0.403,0.361,0.104,0.085,0.000:
0000
0000
0000
0000
,
1000
0000
0001
0000
0100
0010
0100
0000
,
0010
0000
1000
0000
0001
0010
0001
0000
,
1000
0000
0001
0000
0100
0010
0100
0000
,
0010
0000
1000
0000
0100
0010
0200
0000
,
1300
0000
0001
0000
1000
0010
0100
0000
,
0010
0000
1000
0000
0001
0010
0100
0000
,
1000
0000
0001
0000
0100
0010
1000
0000
,
0010
0000
0100
0000
0001
1000
0100
0100
,
0010
0001
0010
0000
0100
0000
1000
0000
,
0001
1000
0001
0000
0100
0000
0020
0000
,
0000
0000
0130
0001
1000
0000
0100
0000
,
0010
0000
0100
0000
1000
0001
0100
0000
,
0010
0000
1000
0000
0010
0100
0001
0000
,
1000
0000
0100
0000
0010
0001
1000
0000
,
0001
0000
0100
0000
0010
1000
0100
0000
,
1000
0010
1000
0000
0001
0010
0200
0000
,
1300
0000
0001
0000
1000
0010
0100
0000
,
0010
0000
1000
0000
0001
0010
0001
1000
,
0010
0100
0010
1000
,
0001
0010
0001
1000
0010
0000
0100
0000
,
0101
0001
1000
0100
,
1000
0000
0001
0000
0100
0010
0100
0000
,
0001
1000
0001
1000
0100
0000
0010
0000
,
0001
0000
1000
0000
0010
0100
0010
1000
,
0001
0000
0010
0000
0100
1000
0100
0000
,
1000
0000
0001
0000
0100
0010
1000
0010
,
0100
0001
1000
0100
,
0010
0001
0010
0000
0001
0000
1000
0000
,
1010
0010
0100
0001
,
1001
0000
1000
0000
0010
0100
0010
0000
,
0100
0000
0001
0000
1000
0100
1000
0001
,
1000
0010
0100
0001
,
0010
0000
0110
0000
0100
0000
1000
0001
,
0100
0010
0100
0001
,
1000
0100
1000
0001
,
0100
0010
1000
0000
0001
0010
0001
0000
,
0101
0100
0010
1000
,
0100
0000
0010
0000
0001
0000
1000
0001
,
1000
0010
1000
0100
,
0020
0001
0032
1000
,
1003
0000
0010
0000
0100
0000
0010
1000
,
0100
0000
0010
0000
0100
0000
1000
0001
,
0000
0101
0000
0000
0000
0000
0100
0010
,
1000
0000
0010
0100
0000
0100
0002
0000
,
0013
0100
0010
0000
0001
1000
0001
0100
,
0000
0100
0010
0000
1000
0000
0001
0010
,
0000
0011
0000
0001
0000
1001
0000
1000
,
0000
0010
0000
0100
0001
0000
1001
0000
,
1000
0000
0100
0000
1000
0000
0001
0100
,
0010
1000
0100
1000
,
0001
0100
0010
1000
,
0001
0010
0001
0000
0100
0010
1000
0000
,
1001
0001
0010
0100
,
1100
1000
0010
0100
,
0001
1000
0100
0000
1000
0001
0100
0000
,
0020
1000
0100
1000
,
0230
0001
0010
0001
,
0302
0000
0000
0000
,
0013
0000
0000
0000
;

//---------------dance-single - C. Clinton----------------
#NOTES:
     dance-single:
     C. Clinton:
     Easy:
     3:
     0.257,0.278,0.019,0.047,0.000:
0000
0000
0000
0000
,
1000
0010
1000
0000
,
0001
0100
0001
0000
,
1000
0100
1000
0000
,
0001
0010
0001
0000
,
1000
0010
0100
0000
,
0010
1000
0100
0000
,
0010
0001
0100
0000
,
0001
0010
0100
0000
,
1000
0001
1000
0000
,
0010
0100
0010
0000
,
0000
1000
0100
1000
,
0001
0100
0001
1000
,
0010
0100
0001
0000
,
1000
0001
0010
0000
,
0100
0010
0001
0000
,
1000
0001
1000
0001
,
0100
0010
1000
0001
,
0010
0000
0100
0000
,
1000
0001
0100
0001
,
1000
0100
0010
0000
,
0001
1000
0001
0000
,
0100
0010
0100
0000
,
0010
1000
0100
0010
,
0001
0010
0100
0000
,
1000
0001
0100
0001
,
0010
0000
0100
0000
,
1000
0100
0010
0001
,
1000
0010
0100
0000
,
0001
1000
0001
0000
,
1000
0100
1000
0000
,
0001
0100
0010
0100
,
0001
0001
0001
1001
,
1000
0100
0010
0001
,
1000
0000
0010
0000
,
0100
0001
0100
0010
,
1000
0001
0010
0100
,
1000
0001
1000
0000
,
0001
0100
0001
0000
,
0010
0100
1000
0100
,
0020
0000
0032
0000
,
1003
0000
0010
0000
,
0100
0000
0001
0000
,
1000
0000
0001
1000
,
0010
0100
0010
1000
,
0100
1000
0001
0000
,
0100
0010
1000
0000
,
0001
0010
0001
1000
,
0010
0100
0010
0110
,
0100
0001
0010
0100
,
1000
0000
0001
0000
,
1000
0001
0100
0010
,
0100
0001
1000
0100
,
0010
0001
0010
0000
,
0001
1000
0001
0000
,
0100
0010
1000
0100
,
0020
0000
0001
0000
,
0032
0000
0100
0000
,
0203
0000
0000
0000
,
0310
0000
0000
0000
;

//---------------dance-single - C. Clinton----------------
#NOTES:
     dance-single:
     C. Clinton:
     Beginner:
     2:
     0.174,0.195,0.085,0.000,0.000: // measure 1
0000
0000
0000
0000
,  // measure 2
1001
0000
0001
0000
,  // measure 3
1000
0000
0010
0000
,  // measure 4
0100
0000
0010
0000
,  // measure 5
1000
0000
0000
0000
,  // measure 6
1001
0000
0001
0000
,  // measure 7
0010
0000
0001
0000
,  // measure 8
0100
0000
0001
0000
,  // measure 9
1000
0000
0000
0000
,  // measure 10
1001
0000
0001
0000
,  // measure 11
0100
0000
0010
0000
,  // measure 12
0000
0000
0100
0000
,  // measure 13
0010
0000
1000
0000
,  // measure 14
1001
0000
0001
0000
,  // measure 15
0010
0000
0001
0000
,  // measure 16
1000
0000
0010
0000
,  // measure 17
1000
1000
1000
0000
,  // measure 18
0001
0001
0001
0000
,  // measure 19
0100
0000
0010
0000
,  // measure 20
1000
0000
0100
0000
,  // measure 21
0010
0000
0001
0000
,  // measure 22
1001
0000
1000
0000
,  // measure 23
0001
0000
0010
0000
,  // measure 24
0001
0001
0001
0000
,  // measure 25
0100
0000
0010
0000
,  // measure 26
1000
1000
1000
0000
,  // measure 27
0010
0000
0100
0000
,  // measure 28
0001
0000
1000
0000
,  // measure 29
0100
0000
1000
0000
,  // measure 30
1001
0000
0001
0000
,  // measure 31
1001
0000
1000
0000
,  // measure 32
0010
0010
0010
0000
,  // measure 33
0100
0000
0001
0000
,  // measure 34
1000
0000
0100
0000
,  // measure 35
1000
1000
1000
0000
,  // measure 36
0010
0000
0100
0000
,  // measure 37
0010
0000
1000
1000
,  // measure 38
1000
0000
0001
0000
,  // measure 39
0100
0000
0010
0000
,  // measure 40
1000
1000
1000
0000
,  // measure 41
0001
0000
1000
0000
,  // measure 42
1001
0000
0000
0000
,  // measure 43
0001
0000
0000
0000
,  // measure 44
0010
0000
0000
0000
,  // measure 45
0100
0000
1000
0000
,  // measure 46
0001
0000
0000
0000
,  // measure 47
0100
0000
0000
0000
,  // measure 48
0010
0000
1000
0000
,  // measure 49
0001
0000
0010
0000
,  // measure 50
0100
0100
0100
0000
,  // measure 51
1000
0000
0001
0000
,  // measure 52
1000
0000
0010
0000
,  // measure 53
0100
0100
0100
0000
,  // measure 54
0001
0000
1000
0000
,  // measure 55
0100
0000
1000
0000
,  // measure 56
0010
0010
0010
0010
,  // measure 57
0010
0000
1000
0000
,  // measure 58
0001
0000
0010
0000
,  // measure 59
0001
0000
0000
0000
,  // measure 60
1001
0000
0000
0000
;
