#TITLE:Fascination MAXX;
#SUBTITLE:;
#ARTIST:100-200-400;
#TITLETRANSLIT:;
#SUBTITLETRANSLIT:;
#ARTISTTRANSLIT:;
#CREDIT:;
#BANNER:Fascination MAXX.png;
#BACKGROUND:Fascination MAXX-bg.png;
#LYRICSPATH:;
#CDTITLE:./CDTITLES/Dancing Stage SuperNOVA.png;
#MUSIC:Fascination MAXX.mp3;
#OFFSET:-0.044;
#SAMPLESTART:19.810;
#SAMPLELENGTH:15.000;
#SELECTABLE:YES;
#BPMS:0.000=100.000,16.000=400.000,80.000=200.000,82.000=400.000,98.000=200.000,99.000=399.190,110.000=201.490,111.500=399.480,128.500=200.000,129.500=400.000,138.500=100.000,154.500=200.000,250.500=198.910,258.167=200.000,265.083=400.000,377.125=100.001,381.125=200.002,389.125=400.000;
#STOPS:250.500=2.400
,258.167=0.400
;
#BGCHANGES:;

//---------------dance-single - ----------------
#NOTES:
     dance-single:
     :
     Hard:
     8:
     0.534,0.705,0.205,0.000,0.010:
0000
0000
0000
0000
,
0000
0000
0000
0000
,
0000
0000
0000
0000
,
0000
0000
0000
0000
,
1000
0001
0000
0100
0000
0000
0010
0000
,
1000
0001
0100
0010
,
1000
0001
0100
0010
,
1000
0001
0100
0010
,
1000
0001
0100
0010
,
1000
0001
0100
0010
,
1000
0001
0100
0010
,
1000
0001
0100
0010
,
1000
0001
0100
0010
,
1000
0001
0100
0010
,
1000
0001
0100
0010
,
0000
1000
0001
0000
,
0100
0010
0000
1000
,
0000
0000
0001
0000
0000
0100
0000
0000
,
0010
0000
1000
0001
0000
0100
0000
0000
,
0010
1000
0000
0001
0000
0100
0000
0000
,
0100
1000
0001
0100
,
0010
1000
0001
0100
,
0010
1000
0001
0100
,
0010
1000
0001
0100
,
0100
0010
0010
1000
,
0001
0100
0010
1000
,
0001
0100
0010
1000
,
0001
0000
0100
0000
0010
0000
0000
1000
,
0000
0001
0000
0100
0000
0010
0000
1000
,
0000
0001
0000
0100
0000
0010
0000
1000
,
0000
0001
0000
0100
0000
0010
0000
1000
,
0000
0001
0000
0100
0000
0010
0000
1000
,
0000
0001
0000
0100
0000
0000
0010
0000
,
1000
0001
0100
0010
,
1000
0000
0001
0000
0000
0001
0100
0010
,
1000
0001
0100
1010
0000
0101
0010
1000
,
0000
0101
1010
0010
,
0000
1000
0001
0100
0000
0011
0000
1100
,
0000
0011
0000
0000
0000
1000
0000
0001
,
0000
0100
0000
0010
0000
1000
0000
0001
,
0000
0100
0000
0010
0000
0000
0000
1000
,
0000
0001
0000
0100
0000
0010
0000
0000
,
0000
1000
0000
0001
0000
0100
0010
0000
,
0000
1000
0000
0001
0000
0001
0000
0001
,
0000
1000
0000
0001
0100
0010
0000
1000
,
0000
0001
0000
0100
0000
0010
0000
1000
,
0000
0001
0000
0100
0000
0010
0000
1000
,
0000
0001
0000
0100
0000
0010
0000
1000
,
0000
0001
0000
0100
0000
0010
0000
1000
,
0000
0001
0000
0100
0000
0010
0000
1000
,
0001
0100
0010
1000
0001
0100
0000
0010
,
0000
1000
0000
0001
0000
0100
0000
0010
,
0000
1100
0000
0011
0000
0000
0000
1000
,
0000
0100
0000
0010
0000
0010
0000
1000
,
0001
0000
0100
0010
0000
1000
0001
0100
,
0000
0010
0000
1000
0001
0000
0100
0010
,
0000
1000
0000
0001
0000
0100
0000
0010
,
1000
0001
0000
0100
0000
0010
0000
1000
,
0001
0100
0000
0010
0000
1001
0000
0100
,
0000
0010
0000
1000
0000
0001
0000
0100
,
0000
0000
0010
0010
0000
1000
0000
0001
,
0000
0100
0000
0010
0000
1000
0000
0001
,
0000
1001
0000
1001
0000
1001
0000
0000
,
0001
0000
0100
0000
0010
0000
0000
1000
,
0000
0001
0000
0100
0000
0010
0000
1000
,
0000
0001
0000
0100
0000
0010
0000
1000
,
0000
0001
0000
0100
0000
0010
0000
1000
,
0000
0000
0000
0001
0100
0000
0000
0010
,
0000
1000
0001
0100
,
0000
0010
1000
0001
,
0000
0100
0000
0010
,
0000
1000
0001
0100
,
0000
0010
1000
0001
,
0000
0100
0010
1000
,
0000
0001
0100
0000
,
0010
1000
0000
0001
,
0100
0000
0000
0010
0000
1000
0000
0001
,
0000
0000
0100
0000
0000
0010
0000
0000
,
1000
0001
0000
0100
,
0010
1000
0001
0100
,
0000
0010
1000
0000
,
0001
0100
0010
0000
,
0000
1000
0000
0001
0000
0100
0000
0000
,
0010
1000
0000
0001
,
0000
0100
0000
0000
0000
0010
0000
0000
,
1000
0001
0101
0010
,
0000
1000
0000
0001
0000
0000
0100
0000
,
0000
0010
0000
1000
0000
0000
0001
0000
,
0100
0010
1000
0001
,
0000
0000
0100
0000
0000
0010
0000
0000
,
1000
0001
0000
0100
,
0010
1000
0001
0100
,
0000
0000
0010
0000
1000
0000
0000
0001
,
0000
0100
0000
0000
0010
0000
0000
0000
,
0000
1000
0001
0100
,
0010
0000
1000
0000
0000
1100
0000
1100
,
0000
0000
1100
0000
0000
0000
0000
0000
0000
0000
0011
0000
0000
0011
0000
0000
,
0011
1000
0001
0100
,
0000
0010
1000
0000
,
0001
0100
0000
0010
,
0010
0010
0010
0010
,
1000
0000
0000
0000
,
0000
0001
0001
0001
,
0000
0000
0000
0000
0000
0000
0000
1001
0000
0000
0000
0000
0000
0000
0000
0000
0000
0000
0000
0000
0000
0000
0000
0000
0000
0000
0000
0000
0000
0000
0000
0000
0000
0000
0000
0000
0000
0000
0000
0000
0000
0000
0000
0000
0000
0000
0000
0000
0000
0000
0000
0000
0000
0000
0000
0000
0000
0000
0000
0000
0000
0000
0000
0000
0000
0000
0000
0000
0000
0000
0000
0000
0000
0000
0000
0000
0000
0000
0000
0000
0000
0000
0000
0000
0000
0000
0000
0000
0000
0000
0000
0000
0000
0000
0000
0000
0000
0000
0000
0000
0000
0000
0000
0000
0000
0000
0000
0000
0000
0000
0000
0000
0000
0000
0000
0000
0000
0000
0000
0000
0000
0000
0000
0000
0000
0000
0000
0000
0000
0000
0000
0000
0000
0000
0000
0000
0000
0000
0000
0000
0000
0000
0000
0000
0000
0000
0000
0000
0000
0000
0000
0000
0000
0000
0000
0000
0000
0000
0000
0000
0000
0000
0000
0000
0000
0000
0000
0000
0000
0000
0000
0000
0000
0000
0000
0000
0000
0000
0000
0000
0000
0000
0000
0000
0000
0000
0000
0000
0000
0000
0000
0000
;

//---------------dance-single - ----------------
#NOTES:
     dance-single:
     :
     Medium:
     8:
     0.487,0.605,0.117,0.020,0.000:
1001
0000
0000
0000
0000
0100
1000
0001
,
0000
0100
0000
0010
0000
1000
0110
0001
,
1000
0000
0000
0001
0000
0100
0000
0010
,
0000
1000
0000
0001
0000
0100
0000
0010
,
1000
0000
0000
0001
0000
0100
0000
0000
,
0010
1000
0001
0000
,
0100
0010
1000
0000
,
0001
0100
0000
0010
0000
1000
0000
0001
,
0000
0100
0000
0010
0000
1000
0000
0001
,
0000
0000
0000
0100
0000
0000
0000
0000
,
0010
0000
1000
0000
0001
0100
0000
0000
,
0010
0000
0000
0000
1000
0000
0000
0001
,
0000
0000
0000
0100
0000
0000
0000
0010
,
0000
0000
0000
1000
0000
0000
0001
0000
,
0000
0000
0100
0000
0000
0010
0000
0000
,
1000
0001
0100
0000
,
0010
0000
0000
1000
0000
0000
0000
0001
,
0000
0000
0000
0100
0000
0000
0000
0010
,
0000
0000
0000
1000
0000
0000
0000
0001
,
0000
0100
0000
0000
0010
0000
0000
1000
,
0000
0001
0100
0010
,
1000
0000
0001
0100
,
0010
0000
1000
0001
,
0100
0010
1000
0001
,
0100
0010
1000
0001
,
0100
0010
1000
0001
,
0100
0010
1000
0001
,
0100
0000
0010
0000
1000
0000
0000
0001
,
0100
0000
0010
0000
0000
1000
0000
0001
,
0000
0100
0000
0010
0000
1000
0000
0001
,
0000
0100
0000
0010
0000
1000
0000
0001
,
0000
0100
0000
0010
0000
1000
0000
0001
,
0000
0100
0000
0010
0000
1000
0000
0001
,
0000
0100
0000
0010
0000
1000
0000
0001
,
0100
0000
0000
0010
0000
1000
0000
0000
,
0001
0100
0000
0010
0000
1000
0100
0010
,
0000
0000
0001
0000
0100
0000
0000
0010
,
0000
1000
0100
0010
0000
1000
0000
0001
,
0000
0100
0000
0000
0000
0010
1000
0000
,
0000
0001
0000
0100
0000
0010
0000
1000
,
0000
0001
0000
0100
0000
0000
0000
0010
,
0000
1000
0000
0001
0000
0100
0000
0010
,
0000
1000
0000
0000
0000
0001
0000
0100
,
0000
0010
0000
1000
0000
0001
0000
0101
,
0000
1100
0000
0000
0000
0011
0000
0000
,
0000
0100
0000
0010
0000
1000
0000
0001
,
0000
0100
0000
0010
0000
1000
0000
0001
,
0000
0100
0000
0010
0000
1000
0000
0000
,
0000
0001
0000
0100
0000
0010
0000
1000
,
0000
0001
0000
0100
0000
0010
0000
1000
,
0000
0000
0000
0000
0000
0001
0000
0100
,
0000
0010
0000
1000
0000
0001
0000
0100
,
0000
0010
0000
1000
0000
0000
0000
0001
,
0000
0100
0000
0010
0000
1000
0000
0001
,
0000
0100
0000
0000
0000
0010
0000
1000
,
0000
0001
0000
0100
0010
0000
0000
1000
,
0000
0001
0000
0100
0000
0010
0000
1000
,
0000
0000
0000
0001
0000
0100
0000
0000
,
0000
0010
0000
0000
0000
0000
0000
1000
,
0000
0001
0000
0100
0000
0010
0000
0000
,
0000
0000
0000
0000
0000
0001
0000
0100
,
0000
0010
0000
1000
0000
0000
0000
0001
,
0000
0000
0000
0000
0000
1110
0000
0001
,
0000
0000
0100
0000
0010
0000
0000
1000
,
0000
0000
0001
0000
0100
0010
0000
0000
,
1000
0000
0100
0000
0010
0000
0000
1000
,
0000
0001
0100
0010
,
0000
0000
0000
1000
0000
0001
0000
0100
,
0000
0000
0000
0010
0000
1000
0000
0001
,
0000
0000
0100
0000
0000
0010
1000
0000
,
0000
0001
0100
0010
,
0000
1000
0001
0100
,
0000
0010
1000
0001
,
0000
0000
0100
0000
0010
0000
0000
1000
,
0000
0001
0100
0010
,
0000
1000
0001
0100
,
0000
0010
1000
0001
,
0000
0100
0010
1000
,
0000
0001
0100
0010
,
0000
0010
1000
0001
,
0000
0100
0010
1000
,
0000
0001
0000
0100
0000
0010
0000
0000
,
0000
1000
0000
0001
0000
0100
0000
0000
,
0000
0010
0000
1000
0000
0001
0000
0100
,
0000
0000
0000
0010
0000
1000
0000
0001
,
0000
0100
0000
0010
1000
0000
0001
0000
,
0000
0100
0010
1000
,
0000
0001
0000
0100
0000
0010
0000
0000
,
0000
1000
0001
0100
,
0000
0010
1000
0001
,
0000
0100
0000
0000
0010
0000
1000
0000
,
0000
0001
0100
0010
,
0000
1000
0000
0000
0001
0100
0000
0000
,
0000
0010
0000
0000
,
0000
1000
0001
0100
,
0010
0000
1000
0000
0000
0001
0000
0100
,
0000
0010
0000
0000
1000
0000
0001
0000
,
0100
0010
1000
1000
,
0000
0001
0100
0000
,
0010
0000
1000
0000
0000
0000
0000
0001
,
0100
0010
1000
1001
,
1001
0000
0000
0000
,
0000
0110
0110
0110
,
2002
3003
0000
0000
0000
0000
0000
0000
0000
0000
0000
0000
0000
0000
0000
0000
0000
0000
0000
0000
0000
0000
0000
0000
;

//---------------dance-single - ----------------
#NOTES:
     dance-single:
     :
     Easy:
     5:
     0.381,0.554,0.117,0.000,0.000: // measure 1
0000
0000
0000
0000
,  // measure 2
0000
0000
0000
0000
,  // measure 3
0000
0000
0000
0000
,  // measure 4
0000
0000
0000
0000
,  // measure 5
1000
0000
0001
0000
,  // measure 6
0100
0000
0010
0000
,  // measure 7
1000
0000
0001
0000
,  // measure 8
0100
0000
0010
0000
,  // measure 9
1000
0000
0001
0000
,  // measure 10
0100
0000
0010
0000
,  // measure 11
1000
0000
0001
0000
,  // measure 12
0100
0000
0010
0000
,  // measure 13
1000
0000
0000
0000
0001
0000
0000
0100
,  // measure 14
0000
0000
0010
0000
,  // measure 15
1000
0000
0001
0000
,  // measure 16
0100
0000
0010
0000
,  // measure 17
1000
0000
0001
0000
,  // measure 18
0100
0000
0010
0000
,  // measure 19
1000
0000
0000
0001
0000
0000
0000
0100
,  // measure 20
0000
0000
0000
0000
0000
0000
0000
0110
,  // measure 21
0000
0000
0000
0000
1001
0000
0000
1000
,  // measure 22
0000
0000
0000
0000
0100
0000
0000
0010
,  // measure 23
0000
0000
0000
0100
0000
0000
0000
0000
,  // measure 24
1000
0000
0001
0000
,  // measure 25
0100
0000
0010
1000
0000
0000
0001
0000
,  // measure 26
0000
0100
0000
0010
,  // measure 27
0000
1000
0000
0001
,  // measure 28
0000
0000
0100
0000
0010
0000
0000
1000
,  // measure 29
0000
0000
0001
0000
0000
0000
0000
0100
,  // measure 30
0000
0000
0000
0010
0000
0000
0000
0000
,  // measure 31
1000
0000
0000
0001
0000
0000
0000
0100
,  // measure 32
0000
0000
0000
0010
0000
0000
0000
1000
,  // measure 33
0000
0001
0000
0000
0100
0000
0000
0010
,  // measure 34
0000
0000
0000
1000
0000
0000
0000
0001
,  // measure 35
0000
0000
0100
0000
0000
0010
0000
1000
,  // measure 36
0000
0001
0000
0000
0100
0010
0000
1000
,  // measure 37
0000
0100
0000
0001
0000
0010
0000
1000
,  // measure 38
0000
0100
0000
0010
0000
1000
0000
0001
,  // measure 39
0000
0100
0000
0110
0000
1001
1000
0000
,  // measure 40
0000
0100
0000
0010
0000
1000
0000
0001
,  // measure 41
0100
0000
0000
0010
0000
1000
0000
0001
,  // measure 42
0000
0100
0000
0010
0000
1000
0000
0001
,  // measure 43
0000
0001
0000
0100
0000
0010
0000
1000
,  // measure 44
0000
0001
0000
0100
0000
0010
0000
1000
,  // measure 45
0000
0001
0000
0100
0000
0010
0000
1000
,  // measure 46
0000
0001
0000
0100
0000
0010
0000
1000
,  // measure 47
0000
0001
0000
0100
0000
0010
0000
0010
,  // measure 48
0000
0110
0000
0010
0000
1000
0000
0001
,  // measure 49
0000
0100
0000
0010
0000
0010
0000
0000
,  // measure 50
0000
1000
0000
0000
0000
0001
0000
0100
,  // measure 51
0000
0010
0000
1000
0000
0001
0000
0100
,  // measure 52
0000
0000
0000
0010
0000
0000
0000
1000
,  // measure 53
0000
0000
0000
0001
0000
0000
0000
0100
,  // measure 54
0000
0000
0000
0010
0000
1000
0000
0001
,  // measure 55
0100
0000
0010
1000
0000
0001
0000
0100
,  // measure 56
0000
0010
0000
1000
0000
0001
0000
0100
,  // measure 57
0000
0010
0000
1000
0000
0001
0000
0000
,  // measure 58
0000
0000
0000
0100
0000
0000
0000
0000
,  // measure 59
0000
0010
0000
0000
0000
0000
0000
1000
,  // measure 60
0000
0001
0000
0100
0000
0010
0000
0000
,  // measure 61
0000
0000
0000
0000
0000
1000
0000
0000
,  // measure 62
1000
0000
0000
0000
0000
0000
0000
1000
,  // measure 63
0000
0001
0000
0110
0000
1010
0000
0001
,  // measure 64
0100
0000
0010
1000
0000
0001
0000
0100
,  // measure 65
0000
0010
0000
1000
0001
0100
0000
0010
,  // measure 66
0000
1000
0000
0001
0000
0100
0000
0010
,  // measure 67
0000
1000
0000
0001
0000
0100
0000
0010
,  // measure 68
0000
0000
0000
1000
0000
0001
0000
0100
,  // measure 69
0000
0010
0000
1000
,  // measure 70
0000
0001
0000
0100
,  // measure 71
0000
0000
0010
0000
0000
1000
0000
0000
,  // measure 72
0000
0001
0000
0100
,  // measure 73
0000
0010
0000
1000
,  // measure 74
0000
0001
0000
0100
,  // measure 75
0000
0010
0000
1000
,  // measure 76
0000
0000
0001
0000
0000
0100
0000
0000
,  // measure 77
0000
1000
0000
0001
,  // measure 78
0000
0000
0100
0000
0000
0000
0000
1000
,  // measure 79
0000
0100
0000
0010
,  // measure 80
0000
0000
1000
0000
0000
0001
0000
0000
,  // measure 81
0000
0100
0000
0000
0000
0000
0010
0000
,  // measure 82
0000
1000
0000
0001
,  // measure 83
0000
0100
0000
0010
,  // measure 84
0000
1000
0000
0001
,  // measure 85
0000
0100
0000
0010
,  // measure 86
0000
0000
1000
0000
0000
0001
0000
0000
,  // measure 87
0000
0100
0000
0010
,  // measure 88
0000
0000
1000
0000
0000
0000
0000
0001
,  // measure 89
0000
0000
0000
0010
0000
0000
0000
0100
,  // measure 90
0000
0001
0000
0100
,  // measure 91
0000
0010
0000
0000
0000
0010
0000
0000
,  // measure 92
0010
0000
0000
0000
0000
1000
0000
0000
,  // measure 93
0000
1000
0000
0000
0001
0000
0000
0000
,  // measure 94
0000
0100
0000
0000
0010
0000
0000
0000
,  // measure 95
1000
0000
0001
0100
,  // measure 96
0010
0000
1000
0000
0000
0000
0001
0100
,  // measure 97
0000
0010
0000
0000
0000
1000
0000
0001
,  // measure 98
0000
0100
0010
0000
1000
0000
1000
0000
,  // measure 99
0000
0001
0100
0000
,  // measure 100
0010
1000
0000
0001
,  // measure 101
0100
0100
0100
0100
,  // measure 102
0110
0000
0000
0000
,  // measure 103
0000
1001
0000
1001
0000
1001
0000
0000
,  // measure 104
0110
0000
0000
0000
;
