#TITLE:Diving;
#SUBTITLE:;
#ARTIST:4 Strings;
#TITLETRANSLIT:;
#SUBTITLETRANSLIT:;
#ARTISTTRANSLIT:;
#CREDIT:;
#BANNER:Diving.png;
#BACKGROUND:Diving-bg.png;
#LYRICSPATH:;
#CDTITLE:./CDTITLES/DANCE DANCE REVOLUTION HOME VERSION.PNG;
#MUSIC:Diving.mp3;
#OFFSET:-2.049;
#SAMPLESTART:8.900;
#SAMPLELENGTH:12.000;
#SELECTABLE:YES;
#DISPLAYBPM:140.000;
#BPMS:0.000=140.000,80.000=70.000,104.000=140.000;
#STOPS:;
#BGCHANGES:;

//---------------dance-single - Pandy ITG style----------------
#NOTES:
     dance-single:
     Pandy ITG style:
     Hard:
     7:
     0.428,0.400,0.109,0.217,0.175:
1000
0001
0100
0001
,
0010
0001
0100
0010
,
1000
0100
1000
0001
,
0010
0001
1000
0100
0010
0100
1000
0001
,
0010
0000
0011
0000
0001
0100
0001
0010
,
0001
0000
1100
0000
1000
0001
0100
0001
,
0010
0000
0100
1000
0001
0100
0001
0010
,
0002
0013
2000
3100
,
1000
0000
1001
0000
0001
0100
0001
0010
,
0001
0100
0010
1000
0100
0010
0100
1000
,
0001
0100
0010
1000
0100
1000
0001
0100
,
0020
0130
0200
0310
,
1000
0000
0000
0001
0000
0000
0010
0000
0001
0100
0000
0000
0000
0000
0000
0000
,
0010
0000
0000
1000
0000
0000
0001
0000
1000
0100
0000
0000
0000
0000
0000
0000
,
1000
0000
0000
0001
0000
0000
0010
0000
0001
0010
0000
0000
0000
0000
0002
0000
,
0010
0000
0013
0000
0000
0000
0001
0000
1000
0100
0000
0000
0000
0000
0000
0000
,
1000
0000
0001
0100
0000
0000
0010
0000
1000
0001
0000
0000
0000
0000
0000
0000
,
1000
0000
0001
0100
0000
0000
0010
0000
1000
0100
0000
0000
0000
0000
0000
0000
,
1000
0000
0001
1000
0000
1000
0100
0000
0010
0001
0000
0000
0000
0000
0000
0000
,
0001
0100
0010
1000
0100
0010
0001
0100
,
0020
0000
0000
0030
0200
0000
0000
0300
,
0020
0000
2000
3030
,
2210
0000
0000
3300
0000
0000
0000
0000
0000
0000
0000
0000
0000
0000
0000
0000
,
0001
1000
0000
0001
0000
0010
0000
0001
0000
1000
0000
0100
0000
2000
0000
0000
,
0002
0010
3003
0000
,
1001
0000
0000
0101
0000
0000
0011
0000
0000
1100
0000
0000
2002
0000
0000
3003
,
0001
0100
0001
1000
0001
0010
0001
0100
,
0001
1000
0001
1000
0001
1000
0100
1000
,
0001
0100
0001
0010
0001
0100
0010
1000
,
0001
0100
0001
0010
0001
0100
0010
1000
,
0100
1000
0001
0100
0001
0010
0001
0100
,
0010
1000
0100
1000
0001
0100
0001
0010
,
0001
0100
0010
1000
0100
1000
0001
0100
,
0010
0100
1000
0001
0010
0200
0000
0000
,
0310
0000
0010
0001
0000
0000
1000
0000
0001
0100
0000
0000
0000
0000
0000
0000
,
1000
0000
0001
0010
0000
0000
0001
0000
1000
0001
0000
0000
0000
0000
0000
0000
,
0001
0000
0001
0100
0000
0000
1000
0000
0100
1000
0000
0000
0000
0000
0000
0000
,
2000
0000
0000
0002
0000
0000
0010
0000
,
0000
0000
0000
0000
,
3003
0000
0000
0000
;

//---------------dance-single - Pandy ITG Style----------------
#NOTES:
     dance-single:
     Pandy ITG Style:
     Challenge:
     10:
     0.654,0.634,0.097,0.242,0.700:
1000
0000
1000
0001
0100
0000
0001
0000
0010
0000
0001
0010
0001
0000
1000
0000
,
0001
0000
1000
0001
0100
0000
0010
0000
1000
0000
0010
1000
0100
0000
1000
0000
,
0001
0000
0010
0001
0100
0000
0010
0000
0100
0000
0010
1000
0001
0000
1000
0000
,
0100
1000
0100
1000
0001
0010
0001
0100
0001
0000
1M1M
0000
0100
1000
0100
1000
,
0100
0010
0000
0001
1000
0000
0001
0000
0100
0001
0000
0010
1000
0000
0001
0000
,
0010
0001
0000
1000
0100
0000
1000
0000
0001
0000
0100
0000
0001
0000
0010
0000
,
0001
1000
0000
0001
0100
0000
0001
0000
0001
0010
0000
1000
0100
0000
1000
0000
,
0001
0100
0000
0010
1000
0000
0001
0000
1000
0100
0000
0001
0010
0000
0001
0000
,
1000
0100
1000
0000
0001
0100
0001
0000
1000
0000
0001
0000
0100
0000
0010
0000
,
0100
0010
0100
0000
0010
1000
0010
0000
0001
0010
0001
0000
1000
0001
1000
0000
,
1000
0001
0010
0001
0100
0010
1000
0100
,
1000
0100
0000
1000
0100
0000
1100
0000
0001
0010
0000
0001
0010
0000
0011
0000
,
1000
0000
0001
0100
0010
0000
0010
0000
0010
1000
0001
0000
0000
0000
0000
0000
,
1000
0000
0001
0010
0001
0000
0001
0000
0001
0100
0010
0000
0000
0000
0000
0000
,
0010
0000
0010
1000
0001
0000
0010
0000
0001
0100
0010
0000
0100
0000
0010
0000
,
2000
0100
0000
0200
0000
0000
3300
0000
,
1000
0000
0001
0010
0000
0001
0100
0000
0010
1000
0001
0010
0000
0000
0000
0000
,
0001
0000
1000
0100
0000
0001
0100
0000
0010
1000
0001
1000
0000
0000
0000
0000
,
1000
0000
0001
0010
0000
1000
0100
0000
1000
0001
0100
0010
0000
0000
0000
0000
,
1000
0001
1000
0001
0100
0001
0010
0001
0100
0010
1000
0100
0010
0100
1000
0001
,
0020
MM0M
0000
0000
0200
0000
M000
M030
,
0002
00M0
M0M0
0300
M2M0
03M3
0000
0000
,
1222
0000
0000
1000
0000
0000
0000
0000
0333
0000
0000
0000
0000
0000
0000
0000
,
0001
0200
0000
100M
0000
M001
0000
100M
0000
M001
0000
100M
0000
M301
0000
0000
,
0202
0000
0020
0030
00M0
0303
0000
0000
,
2000
0000
0000
0200
0000
0000
0020
0000
0000
0002
0000
3333
1111
0000
0000
0000
,
0001
1000
0001
0000
1000
0100
1000
0000
0001
0100
0001
0000
0010
0001
0010
0000
,
1000
0100
1000
0000
0001
0100
0001
0000
1000
0001
1000
0000
1000
0001
0010
0001
,
0100
0010
1000
0000
0001
1000
0100
0000
1000
0001
0100
0000
0001
0010
0001
0100
,
0010
0100
1000
0001
0010
0001
0100
0010
,
1000
0001
0100
0000
0100
0010
1000
0000
1000
0001
0010
0000
0010
0001
0100
0010
,
1000
0001
0100
0000
0100
0001
0010
0000
0010
0001
0100
0000
0010
1000
0001
0010
,
0001
1000
0001
0000
1000
0100
1000
0000
0001
0100
0010
0000
0010
1000
0001
0000
,
0010
0001
0010
0000
1000
0100
1000
0000
1001
0000
0110
0000
1000
0001
0100
0001
,
0010
0000
0001
0010
0000
1000
0100
0000
1000
0001
0100
0010
0100
0000
0010
0000
,
1000
0000
0001
0100
0000
0010
1000
0000
1000
0001
0010
0001
0100
0000
0010
0000
,
1000
0000
1000
0100
0000
0001
0010
0000
0001
0100
0010
1000
0100
0000
0000
0000
,
0020
0000
0000
0200
0000
0000
2000
0000
,
000M
000M
0000
000M
0000
000M
0000
333M
;

//---------------dance-single - PANDY ITG STYLE----------------
#NOTES:
     dance-single:
     PANDY ITG STYLE:
     Medium:
     5:
     0.298,0.330,0.060,0.338,0.060:
1000
0001
1000
0100
,
1000
0001
1000
0001
,
0001
1000
0001
0100
,
0010
0010
0010
0010
,
1001
0000
0000
0000
1000
0001
0100
0001
,
0000
0001
0000
1000
0000
1000
0000
0000
,
0001
0000
0000
1000
0000
0200
0000
2000
,
0000
0000
0000
3300
0000
0000
0000
0000
,
0000
0000
0000
0000
1000
0001
0100
0001
,
0000
0010
0000
0010
0000
0020
0000
0000
,
0030
0000
0001
2000
0000
0100
0000
0200
,
0000
0000
0000
3300
,
0000
0000
0000
0000
1000
0001
0000
0100
,
0000
0001
0000
0020
0000
0002
0000
0000
,
0033
0000
0000
0000
0001
2000
0000
3100
,
1000
0020
0000
2000
0000
0000
0000
0000
,
3030
0000
0000
0000
1000
0001
0000
0100
,
0000
0010
0000
2000
0000
0200
0000
0000
,
3300
0000
0000
0000
,
1010
0000
0000
0101
0000
0000
0001
0000
,
0220
0000
0000
0300
0200
0000
0000
0030
,
0020
0000
0000
0300
0200
0000
0330
0000
,
1002
0000
0000
0020
0000
0000
0033
0000
0000
0000
0000
0000
0000
0000
0000
0000
,
0001
1000
0000
0001
0000
0100
0000
0001
0000
0010
0000
0001
0000
0100
0000
0000
,
0020
0200
0330
0000
,
2000
0000
0000
0001
0000
0000
0010
0000
0000
0100
0000
0000
0020
0000
3030
0000
,
1000
0001
0000
0100
0000
0001
0000
0010
,
0000
0001
0000
0100
0000
0010
1000
0001
,
0000
1000
0000
0001
0000
0100
0000
0001
,
0100
0000
0010
1000
0000
0010
0100
0010
,
0000
0100
0000
0100
0000
0010
1000
0001
,
0000
1000
0000
0001
0000
0001
0100
0010
,
0000
0100
0000
0010
0000
1000
0000
0001
,
0000
1000
0000
0001
0000
0100
0000
0001
,
0200
0000
0310
0000
0010
1000
0001
0000
,
2000
0000
3100
0000
0001
0100
0010
0000
,
2000
0000
3100
0000
0001
1000
0010
0000
,
1000
0000
0001
0100
0000
0010
2000
0000
,
0200
0000
0000
0000
,
3300
0000
0000
0000
;

//---------------dance-single - Pandy ITG Style----------------
#NOTES:
     dance-single:
     Pandy ITG Style:
     Easy:
     4:
     0.228,0.252,0.097,0.338,0.000:
1000
0000
0000
0000
,
0001
0000
0000
0000
,
0100
0000
0010
0000
,
0010
1000
0001
1000
,
1100
0000
1000
0001
,
0200
0300
0200
0300
,
0001
1000
0001
0100
,
0020
0030
0020
0030
,
0000
0000
1000
0001
,
1000
0100
2000
3000
,
2000
3001
1000
0001
,
0200
0300
0200
0300
,
0001
2000
0200
3300
,
0001
2000
0020
3030
,
0010
0200
0002
0303
,
2000
0000
0002
3003
,
1000
0200
2000
3300
,
1000
0002
0200
0303
,
0002
1000
0020
0033
,
0001
0000
0000
1000
0000
0000
0100
0000
,
2200
0000
3300
0000
,
0000
0000
0000
0000
,
1110
0000
0000
0000
,
0001
1000
0001
0100
,
0002
0200
0000
0000
,
0010
0000
1000
0303
,
1000
0000
1000
0000
,
0001
0000
0001
1000
,
0100
0000
1000
0000
,
1000
0000
0001
1000
0000
0002
0000
0200
,
0000
0000
0000
0000
0000
0000
0000
0303
,
0000
0001
0000
0001
0000
0001
0000
1000
,
0000
0001
0000
0100
0000
0010
0000
1000
,
0000
0100
0000
1000
0000
0010
0000
0000
,
1000
0000
0001
0000
,
1001
0000
0110
0000
,
1010
0000
0101
0000
,
0000
0000
0000
0000
,
1111
0000
0000
0000
;

//---------------dance-single - Pandy ITG style----------------
#NOTES:
     dance-single:
     Pandy ITG style:
     Beginner:
     1:
     0.083,0.115,0.060,0.000,0.000: // measure 1
0010
0000
0000
0000
,  // measure 2
0010
0000
0000
0000
,  // measure 3
0010
0000
0000
0000
,  // measure 4
1000
0000
0001
0000
,  // measure 5
1001
0000
0000
0000
,  // measure 6
0000
0000
0000
0000
,  // measure 7
0010
0000
0010
0000
,  // measure 8
0010
0000
0000
0000
,  // measure 9
0000
0000
1000
0000
,  // measure 10
1000
0000
1000
0000
,  // measure 11
0000
0001
0000
0000
,  // measure 12
0001
0000
0000
0000
,  // measure 13
0100
0000
0000
0000
,  // measure 14
0010
0000
0000
0000
,  // measure 15
1000
0000
0000
0000
,  // measure 16
0001
0000
0000
0000
,  // measure 17
1000
0000
0000
0000
,  // measure 18
0010
0000
0000
0000
,  // measure 19
0100
0000
0000
0000
,  // measure 20
0001
0000
1000
0000
,  // measure 21
1001
0000
0000
0000
,  // measure 22
0000
0000
0000
0000
,  // measure 23
0110
0000
0000
0000
,  // measure 24
0010
0000
0000
0000
,  // measure 25
1000
1000
0000
0000
,  // measure 26
0001
0000
0000
0000
,  // measure 27
0001
0000
0000
0000
,  // measure 28
1000
0000
0000
0000
,  // measure 29
0010
0000
0000
0000
,  // measure 30
0100
0000
0100
0000
,  // measure 31
0100
0000
0000
0000
,  // measure 32
0010
0000
0000
0000
,  // measure 33
1000
0000
0000
0000
,  // measure 34
0001
0000
0000
0000
,  // measure 35
0110
0000
0000
0000
,  // measure 36
0010
0000
0000
0000
,  // measure 37
1000
0000
0000
0000
,  // measure 38
0001
0000
0000
0000
,  // measure 39
1001
0000
0000
0000
;
