#TITLE:Disabled the FLAW;
#SUBTITLE:~Summer Contest Edit~;
#ARTIST:D-crew;
#TITLETRANSLIT:;
#SUBTITLETRANSLIT:;
#ARTISTTRANSLIT:;
#GENRE:;
#CREDIT:;
#MENUCOLOR:;
#METERTYPE:DDR;
#BANNER:Disabled the FLAW.png;
#BACKGROUND:Disabled the FLAW-bg.png;
#LYRICSPATH:;
#CDTITLE:Summer Contest 2010.png;
#MUSIC:Disabled the FLAW.mp3;
#OFFSET:-1.521;
#SAMPLESTART:15.510;
#SAMPLELENGTH:15.000;
#SELECTABLE:YES;
#LISTSORT:;
#DISPLAYBPM:144.000:171.000;
#BPMS:0.000=171.021,12.000=171.066,48.000=145.161,52.000=170.997;
#STOPS:;
#BGCHANGES:;
#ATTACKS:;

//---------------dance-single - C. Clinton----------------
#NOTES:
     dance-single:
     C. Clinton:
     Hard:
     9:
     0.724,0.686,0.157,0.129,0.350: // measure 1
0000
0000
0000
0000
,  // measure 2
0M00
0000
0000
0000
,  // measure 3
0000
0000
0000
0000
,  // measure 4
10M1
0000
0010
0000
,  // measure 5
1001
0000
0100
0000
,  // measure 6
1M01
1000
1100
1001
,  // measure 7
1010
0000
0010
0000
0100
0000
0000
0001
1000
0000
0100
0000
0010
0000
0001
0000
,  // measure 8
1000
0000
0010
0000
0200
0000
0000
0301
0010
0000
0100
0000
1000
0000
0010
0000
,  // measure 9
M100
0000
01M1
1M10
,  // measure 10
01M1
0000
0001
0010
0001
0000
1000
0100
1000
0000
0010
0000
1000
0001
1000
0000
,  // measure 11
0001
0000
0010
0000
0001
0000
0000
0100
0010
0000
0010
1000
0001
0000
0010
0000
,  // measure 12
0100
0000
1000
0000
0001
0000
0000
0010
0100
1000
0100
0000
0010
0000
0001
0000
,  // measure 13
0200
0000
0000
0000
0000
0000
0000
0000
0300
M0MM
0000
0000
0000
0000
0000
0000
0000
0000
0000
0000
0000
0000
0000
0000
0000
0000
0000
0000
0000
0000
0000
0000
,  // measure 14
0010
0000
1000
0000
0001
0000
0010
0100
0010
0000
0100
0000
1000
0000
0001
0000
,  // measure 15
0100
0000
0010
0000
1000
0000
0001
0010
0001
0000
0100
0000
0010
0000
1000
0000
,  // measure 16
0001
0000
0100
0000
0010
0000
1000
0100
1000
0000
0001
0000
0000
0000
0100
0000
,  // measure 17
0010
0000
0100
0000
0001
0000
0010
0000
0100
1000
0100
0010
010M
0000
100M
0000
,  // measure 18
0010
0000
0100
0000
0001
0000
1000
0100
0010
0000
0001
0000
1000
0000
0010
0000
,  // measure 19
0100
0000
0001
0000
1000
0000
0010
0100
0001
0000
0010
0000
0100
0000
1000
0000
,  // measure 20
0001
0000
0100
0000
0001
0000
1000
0001
0010
0000
0100
0000
0000
0000
1000
0000
,  // measure 21
0010
0000
1000
0000
0100
0000
1000
0000
0010
0100
0001
0100
0010
0000
100M
0000
,  // measure 22
0010
0100
M001
0010
0100
100M
0010
0000
,  // measure 23
1000
0M01
0010
0001
1M00
0010
0100
0000
,  // measure 24
0001
0100
001M
1000
0100
M010
0001
0000
,  // measure 25
M010
0000
0100
0000
1000
0000
0001
0010
0001
1000
00M1
0100
0001
0000
1000
0000
,  // measure 26
0020
0000
0000
0030
M100
0000
0001
0000
1000
0000
010M
0000
0010
0000
0002
0000
,  // measure 27
0000
0003
1M00
0000
0010
0000
0100
0000
00M1
0000
1000
0000
0100
0000
0000
0000
,  // measure 28
2000
0000
0000
3000
00M1
0000
0100
0000
0010
0000
100M
0000
0100
0000
0020
0000
,  // measure 29
0000
0030
010M
0000
1000
0000
0001
1000
0001
1000
00M1
0000
0100
0000
0010
0000
,  // measure 30
1010
0000
0000
1000
0100
0000
0020
0000
0000
0030
0100
0000
0000
0000
1000
0000
,  // measure 31
0001
0000
0000
0000
0100
0000
1000
0000
0100
M000
0001
0000
0100
000M
1000
0000
,  // measure 32
0100
M000
0000
0001
0010
0000
0200
0000
0000
0300
1000
0000
0100
0000
0010
0000
,  // measure 33
0001
0100
1000
0100
0001
0010
1000
0010
,  // measure 34
0001
0100
1000
0100
0001
0010
0100
0001
,  // measure 35
0100
0000
1000
0000
0010
0000
0001
0000
0010
000M
1000
0000
0010
M000
0001
0000
,  // measure 36
0010
000M
1000
0000
0100
M000
0001
0000
0100
0000
1000
0000
0010
0000
0100
0000
,  // measure 37
1000
0100
0001
1000
0100
0010
0001
1000
,  // measure 38
0010
0100
0001
0010
0100
1000
0010
0100
,  // measure 39
1000
0000
0100
0000
0010
0000
1000
0000
0010
M000
0001
0000
0010
000M
1000
0000
,  // measure 40
0100
M000
0001
0000
0100
000M
1000
0000
0010
0000
0100
0000
0001
0000
0010
0000
,  // measure 41
1000
0000
0010
0000
0001
0000
1000
0000
0010
0100
0001
0000
0010
0000
0100
0000
,  // measure 42
1000
0001
0100
0001
1000
0100
0010
0001
,  // measure 43
0100
0000
0010
0000
0100
0000
1000
0000
0100
M000
0001
0000
0100
000M
1000
0000
,  // measure 44
0100
M000
0001
0000
0010
000M
0100
0000
0001
0000
0100
0000
1000
0000
0010
0000
,  // measure 45
0100
0001
0010
1000
0010
0100
0001
0100
,  // measure 46
1000
0000
0001
0000
1000
0000
0000
0010
0100
0000
0100
0001
1000
0000
0100
0000
,  // measure 47
1000
0000
0001
0000
0100
0000
0000
0001
0100
0010
1000
0000
0001
0000
0010
0000
,  // measure 48
0200
0000
0000
0000
0000
0000
0000
0000
0300
M0MM
0000
0000
0000
0000
0000
0000
0000
0000
0000
0000
0000
0000
0000
0000
0000
0000
0000
0000
0000
0000
0000
0000
,  // measure 49
0000
1001
0000
0000
0000
0000
0000
0000
0000
0000
0000
0000
0000
0000
0000
0000
;

//---------------dance-single - C. Clinton----------------
#NOTES:
     dance-single:
     C. Clinton:
     Medium:
     6:
     0.467,0.436,0.100,0.086,0.000:
0000
0000
0000
0000
,
0000
0000
0000
0000
,
0000
0000
0000
0000
,
1000
0000
0100
0000
,
1000
0000
0100
0000
,
1000
0001
1000
0001
,
0100
0010
1000
0000
0100
0010
0001
0010
,
0100
0000
1000
0000
0001
0100
0010
0000
,
2000
3000
1000
1000
,
1000
0001
0010
0001
0100
0010
1000
0000
,
0100
0010
0100
0000
1000
0000
0001
0000
,
0100
0010
1000
0000
0001
0000
0010
0000
,
1001
0000
0000
0000
,
1000
0000
0010
0000
0100
0001
1000
0000
,
0100
0000
0010
0000
0100
1000
0001
0000
,
0100
0000
0010
0000
1000
0100
0000
0010
,
0100
1000
0100
0010
0001
0000
1000
0000
,
0010
0000
0100
0000
0001
1000
0001
0000
,
0010
0000
0100
0000
1000
0100
1000
0000
,
0001
0000
0100
0000
0010
1000
0000
0001
,
1000
0010
1000
0001
0010
0000
0100
0000
,
1000
0000
0010
0100
0000
0101
0000
0001
,
1000
0100
0000
0010
0001
0000
1000
0000
,
0001
0000
0010
0100
0000
1100
0000
1000
,
0001
0000
0100
0000
0010
1000
0100
0000
,
0020
0000
0031
0100
0000
1010
0000
0200
,
0000
0301
1000
0000
0100
0010
0001
0000
,
2000
0000
3010
0100
0000
0101
0000
0002
,
0000
1003
0200
0000
0310
0001
1000
0000
,
0010
0000
0100
0001
0000
0011
0000
0100
,
1000
0010
0001
0010
,
1000
0000
0001
0100
0000
0100
0010
0000
,
1000
0001
0010
0100
,
1000
0000
0010
0000
1000
0100
0010
0000
,
0001
0100
1000
0100
,
0001
0000
0010
0000
0100
0010
0001
0000
,
0100
0000
0010
0000
1000
0001
1000
0000
,
0001
0000
0010
0100
1000
0100
0010
0001
,
1000
0010
0001
0010
,
1000
0000
0001
0010
0100
0010
0001
1000
,
0001
0100
0010
0100
,
0001
0000
1000
0100
0010
0100
1000
0001
,
0100
0010
0001
0010
,
0100
0000
0001
1000
0100
1000
0001
0100
,
0010
0000
1000
0000
0001
0010
0001
0000
,
1000
0001
1000
0000
0010
0000
0100
0000
,
0001
1000
0100
0000
0010
0000
0001
0000
,
1001
0000
0000
0000
;

//---------------dance-single - C. Clinton----------------
#NOTES:
     dance-single:
     C. Clinton:
     Easy:
     4:
     0.282,0.302,0.014,0.000,0.000:
0000
0000
0000
0000
,
0000
0000
0000
0000
,
0000
0000
0000
0000
,
1000
0000
0001
0000
,
1000
0000
0010
0000
,
0100
0000
0001
1000
,
0100
0000
1000
0001
,
0100
0001
1000
0100
,
0010
0000
0010
0010
,
0010
0001
1000
0001
,
0100
0000
0010
0000
,
1000
0000
0100
0000
,
0010
0000
0000
0000
,
0001
1000
0001
0000
,
0100
0010
0100
0000
,
0010
1000
0010
0000
,
0100
0001
1000
0100
,
0010
0001
0010
0000
,
0001
0100
0001
0000
,
1000
0100
1000
0000
,
0001
0010
0100
1000
,
0001
0100
0001
0000
,
1000
0001
1000
0000
,
0001
0100
0001
0000
,
1000
0100
0010
0100
,
1000
0010
1000
0000
,
0010
0100
0010
0000
,
0100
0001
0100
0000
,
0001
0010
0100
0010
,
0001
0000
1000
0000
,
0010
0100
0001
1000
,
0100
0000
0010
0000
,
0100
1000
0001
0010
,
0001
0100
0010
0100
,
0001
0000
1000
0000
,
0100
0010
0100
1000
,
0001
0100
0010
0100
,
0001
1000
0100
0010
,
0100
0000
1000
0000
,
0001
1000
0001
0100
,
0010
1000
0010
0100
,
0001
1000
0100
1000
,
0001
0000
0010
0000
,
0100
1000
0001
0100
,
0010
1000
0001
0010
,
0100
0000
1000
0000
,
0010
0000
0100
0000
,
1001
0000
0000
0000
;

//---------------dance-single - C. Clinton----------------
#NOTES:
     dance-single:
     C. Clinton:
     Beginner:
     2:
     0.196,0.235,0.029,0.000,0.000:
0000
0000
0000
0000
,
0000
0000
0000
0000
,
0000
0000
0000
0000
,
1000
0000
0000
0000
,
0001
0000
0000
0000
,
0100
0000
0010
0010
,
0010
0000
1000
0000
,
0001
0000
0010
0000
,
0001
0000
0001
0001
,
0001
0000
1000
0000
,
0010
0000
0000
0000
,
0100
0000
0000
0000
,
1001
0000
0000
0000
,
1000
1000
1000
0000
,
0001
0001
0001
0000
,
0100
0100
0100
0000
,
0010
0000
0100
0000
,
0001
0001
0001
0000
,
0010
0010
0010
0000
,
0001
0001
0001
0000
,
1000
0000
0100
0000
,
1000
1000
1000
0000
,
0001
0001
0001
0000
,
0100
0100
0100
0000
,
0010
0000
1000
0000
,
0010
0010
0010
0000
,
1000
1000
1000
0000
,
0001
0001
0001
0000
,
1000
0000
0100
0000
,
0010
0000
0000
0000
,
0001
0000
1000
0000
,
0001
0000
0000
0000
,
0100
0000
0010
0000
,
0100
0000
0001
0000
,
1000
0000
0100
0000
,
0010
0000
0100
0000
,
1000
0000
0001
0000
,
0100
0000
0001
0000
,
1000
0000
0001
0000
,
0010
0000
0100
0000
,
1000
0000
0001
0000
,
1000
0000
0010
0000
,
1000
0000
0100
0000
,
1000
0000
0001
0000
,
0100
0000
0001
0000
,
0010
0000
0000
0000
,
0100
0000
0000
0000
,
1001
0000
0000
0000
;
