#TITLE:Disabled the FLAW;
#SUBTITLE:;
#ARTIST:D-crew;
#TITLETRANSLIT:;
#SUBTITLETRANSLIT:;
#ARTISTTRANSLIT:;
#GENRE:;
#CREDIT:;
#BANNER:Disabled the FLAW.png;
#BACKGROUND:Disabled the FLAW-bg.png;
#LYRICSPATH:;
#CDTITLE:./CDTITLES/Song Pack 9.png;
#MUSIC:Disabled the FLAW.mp3;
#OFFSET:-1.521;
#SAMPLESTART:15.510;
#SAMPLELENGTH:15.000;
#SELECTABLE:YES;
#DISPLAYBPM:72.000:171.000;
#BPMS:0.000=171.021,12.000=171.066,48.000=72.580,50.000=170.997,146.000=341.994,178.000=170.997;
#STOPS:146.000=0.088
,146.500=0.088
,147.000=0.088
,147.500=0.088
,148.000=0.088
,148.500=0.088
,149.000=0.088
,149.500=0.088
,150.000=0.088
,150.500=0.088
,151.000=0.088
,151.500=0.088
,152.000=0.088
,152.500=0.088
,153.000=0.088
,153.500=0.088
,154.000=0.088
,154.500=0.088
,155.000=0.088
,155.500=0.088
,156.000=0.088
,156.500=0.088
,157.000=0.088
,157.500=0.088
,158.000=0.088
,158.500=0.088
,159.000=0.088
,159.500=0.088
,160.000=0.088
,160.500=0.088
,161.000=0.088
,161.500=0.088
,162.000=0.088
,162.500=0.088
,163.000=0.088
,163.500=0.088
,164.000=0.088
,164.500=0.088
,165.000=0.088
,165.500=0.088
,166.000=0.088
,166.500=0.088
,167.000=0.088
,167.500=0.088
,168.000=0.088
,168.500=0.088
,169.000=0.088
,169.500=0.088
,170.000=0.088
,170.500=0.088
,171.000=0.088
,171.500=0.088
,172.000=0.088
,172.500=0.088
,173.000=0.088
,173.500=0.088
,174.000=0.088
,174.500=0.088
,175.000=0.088
,175.500=0.088
,176.000=0.088
,176.500=0.088
,177.000=0.088
,177.500=0.088
;
#BGCHANGES:;
#KEYSOUNDS:;

//---------------dance-single - Blank----------------
#NOTES:
     dance-single:
     Blank:
     Easy:
     5:
     0.375,0.398,0.271,0.029,0.000,163.000,19.000,2.000,0.000,0.000,0.000,0.375,0.398,0.271,0.029,0.000,163.000,19.000,2.000,0.000,0.000,0.000:
0000
0000
0000
0000
,
0000
0000
0000
0000
,
0000
0000
0000
0000
,
1010
0000
0100
0000
,
0011
0000
0100
0000
,
0001
1000
0001
1000
,
0010
0010
0100
0001
,
1000
1000
0100
1000
,
0020
0000
0230
0000
,
0301
0010
0100
1000
,
0001
0001
1000
0010
,
0100
0100
0010
0100
,
0001
0000
1000
1000
,
0100
0100
1000
1000
,
0001
0001
0100
0010
,
0100
0010
1000
0001
,
0001
1000
0100
0100
,
0010
0010
0100
0100
,
1000
1000
0001
0100
,
0001
0100
0010
1000
,
1000
0010
0100
0101
,
0100
0101
0010
1010
,
1010
0100
0010
0011
,
0010
0011
0100
0110
,
0110
1000
0100
1100
,
0100
1100
0001
0011
,
0011
0100
0010
1010
,
0010
1010
1000
1100
,
1100
0010
0001
0000
,
0001
0100
0010
0000
,
0010
1000
0100
0000
,
0100
0010
0001
0000
,
0001
1000
0010
0000
,
0010
0100
0001
0000
,
0001
1000
0100
0000
,
0100
1000
0010
0000
,
0010
0100
0001
0001
,
1000
1000
0001
0001
,
0010
0000
0100
1000
0100
0000
0100
0000
,
0010
0010
0001
0001
,
1000
0000
0010
0100
0010
0000
0010
0000
,
1000
1000
0100
0100
,
0010
0000
0001
0100
0001
0000
0001
0000
,
0010
0010
0100
0100
,
0010
0010
0001
0001
,
1000
0010
0100
0100
,
0001
1000
1001
0000
;

//---------------dance-single - Blank----------------
#NOTES:
     dance-single:
     Blank:
     Medium:
     7:
     0.539,0.531,0.086,0.200,0.000,244.000,6.000,14.000,0.000,0.000,0.000,0.539,0.531,0.086,0.200,0.000,244.000,6.000,14.000,0.000,0.000,0.000:
0000
0000
0000
0000
,
0000
0000
0000
0000
,
0000
0000
0000
0000
,
0101
0000
1000
0000
,
1010
0000
0001
0000
,
1100
0010
0110
0001
,
1000
0100
0010
0000
0010
0100
1000
1000
,
0001
0100
0010
0000
0010
0100
0001
0001
,
2000
3020
0032
0203
,
1300
0001
0100
0000
0100
0001
0010
0100
,
1000
1000
1000
0000
0010
0100
0001
1000
,
0100
0100
0100
0000
0010
0001
1000
0010
,
1001
0000
0100
0100
,
0100
0010
1000
0100
0010
0000
0010
0000
,
0010
0001
0100
0010
1000
0000
0001
0000
,
1000
0000
0001
0000
0010
0000
0100
1000
,
0100
1000
0010
0000
0100
0000
0100
0000
,
0100
0001
0010
0100
1000
0000
1000
0000
,
1000
0100
0010
0001
0100
0000
0010
0000
,
1000
0000
0001
0000
0010
0000
0100
1000
,
0001
1000
0001
0000
1000
0000
0010
0000
,
0100
0001
0100
0000
0010
1000
0010
0000
,
1000
0001
0010
0100
,
1000
0010
1000
0000
0001
0000
0010
0000
,
0100
1000
0100
0000
2000
0000
3001
0000
,
0100
0010
0100
0002
1000
0013
0100
0000
,
1000
0010
0200
0301
,
1000
0100
1000
0020
0100
1030
0200
0000
,
0310
0001
0200
0000
0320
0000
0130
0002
,
0000
1003
0000
0100
0010
0000
0002
0010
,
1003
0010
0001
0010
2000
0000
3010
0100
,
0000
0001
1000
0001
1000
0100
0010
0001
,
1000
0010
0001
0010
0100
0001
0001
0100
,
0001
0001
1000
0100
0100
1000
0100
0100
,
0010
0000
0001
0000
0100
0010
0010
0100
,
0010
0010
1000
0100
0100
1000
0100
0100
,
0010
0001
0001
0001
,
1000
1000
0010
0010
,
0100
0001
0010
0100
1000
0000
1000
0000
,
0010
0010
0100
0100
,
0001
1000
0001
1000
0010
0000
0010
0000
,
0100
0100
0001
0001
,
0010
0100
1000
0100
0010
0000
0010
0000
,
0001
0001
1000
1000
,
0010
0100
0001
1000
0001
0100
0010
0000
,
1000
0001
0100
0100
0010
1000
0100
0000
,
0010
0001
0100
0100
1001
0000
0000
0000
;

//---------------dance-single - Blank----------------
#NOTES:
     dance-single:
     Blank:
     Hard:
     9:
     0.794,0.713,0.743,0.029,0.164,335.000,52.000,2.000,0.000,0.000,0.000,0.794,0.713,0.743,0.029,0.164,335.000,52.000,2.000,0.000,0.000,0.000: // measure 1
0000
0000
0000
0000
,  // measure 2
0000
0000
0000
0000
,  // measure 3
0000
0000
0000
0000
,  // measure 4
1001
0000
0100
0000
,  // measure 5
0011
0000
1000
0000
,  // measure 6
0101
1000
0110
1000
,  // measure 7
0001
0000
0100
0000
0010
0000
0000
0010
0100
0000
0001
0000
0010
0000
0100
0000
,  // measure 8
1000
0000
0001
0000
0010
0000
0000
0010
0001
0000
0100
0000
0010
0000
1000
0000
,  // measure 9
0002
0100
0010
0100
0103
1000
0100
0001
,  // measure 10
0200
0010
1000
0010
0310
0001
0010
1000
,  // measure 11
1100
0000
0100
0000
0100
0000
0000
0100
0010
0000
0010
0001
0100
0000
0010
0000
,  // measure 12
0110
0000
0100
0000
0100
0000
0000
0100
0001
0000
0001
0010
0100
0000
1000
0000
,  // measure 13
1010
0000
0000
0000
0000
0100
0000
0000
0100
0000
0000
0100
0000
0000
0000
0000
0001
0000
0000
0000
0100
0000
0000
0000
0100
0000
0000
0000
0001
0000
0000
0000
,  // measure 14
1000
0100
1100
0010
0001
0100
0100
0010
,  // measure 15
1000
0001
1001
0010
0100
0100
0001
0001
,  // measure 16
1000
0000
1000
0000
0010
0000
0010
0000
0100
0000
0001
1000
0001
1000
0010
0100
,  // measure 17
0001
1000
0001
1000
0001
0000
0010
0000
0100
0000
1000
0000
1000
0000
0010
0000
,  // measure 18
0100
0001
0101
0010
1000
0100
0100
0010
,  // measure 19
0001
0010
0011
0100
0010
0010
1000
1000
,  // measure 20
0001
0000
0001
0000
0010
0000
0010
0000
0100
0000
1000
0010
1000
0010
0100
0001
,  // measure 21
1000
0010
1000
0010
1000
0000
0100
0000
0010
0000
1000
0000
1010
0000
1000
0000
,  // measure 22
0100
0110
0010
0001
0010
0011
0100
0010
,  // measure 23
0110
1000
0001
1000
0100
0010
0110
0010
,  // measure 24
0001
0011
0001
0100
0101
0010
1000
0010
,  // measure 25
0100
1010
0100
0000
0101
0000
0011
0001
,  // measure 26
0100
0101
0010
1100
0000
1010
1000
0100
,  // measure 27
1100
0010
0001
0100
0110
0000
1010
1000
,  // measure 28
0100
1100
0001
0101
0000
0110
0101
0000
,  // measure 29
1000
0011
0101
0000
0101
0000
0010
1000
,  // measure 30
0000
1100
0000
0010
0001
0000
0100
0010
,  // measure 31
1000
0010
0001
0010
0110
0000
0001
0010
,  // measure 32
0000
1100
0001
0010
0100
0001
0100
1000
,  // measure 33
0010
0001
0010
0010
1000
0001
0001
0100
,  // measure 34
0010
0010
0100
0001
0001
1000
0100
0100
,  // measure 35
0010
0001
0100
0010
0100
0001
0001
1000
,  // measure 36
0010
0010
0100
0010
1000
0001
0001
0010
,  // measure 37
0001
0100
0010
1000
0101
0010
1000
0001
,  // measure 38
0010
0100
1000
0001
0100
0010
0100
0001
,  // measure 39
0011
0100
1010
0100
0011
0010
0100
1000
,  // measure 40
0010
0100
0001
0010
0001
1000
0010
0100
,  // measure 41
0101
0010
1100
0010
1001
0100
0010
1000
,  // measure 42
0010
0100
0001
0010
0100
1000
0001
0100
,  // measure 43
0101
0010
1010
0100
1001
0100
0010
1000
,  // measure 44
0001
0010
0100
1000
0001
0100
0010
1000
,  // measure 45
1010
0000
1001
0000
0101
0000
0010
0000
1000
0000
1000
0000
1000
0000
0000
1000
,  // measure 46
0001
0000
0001
0010
0100
0000
1000
0000
0010
0000
0010
0000
0010
0000
0000
0010
,  // measure 47
0100
0000
0100
0001
0010
0000
0100
0000
1001
0000
0000
0000
0000
0000
0000
0000
,  // measure 48
0000
0000
0000
0000
0000
0000
0000
0000
0000
1001
0000
0000
0000
0000
0000
0000
;

//---------------dance-single - Blank----------------
#NOTES:
     dance-single:
     Blank:
     Challenge:
     12:
     1.000,0.951,1.000,0.186,0.736,418.000,82.000,13.000,0.000,0.000,0.000,1.000,0.951,1.000,0.186,0.736,418.000,82.000,13.000,0.000,0.000,0.000: // measure 1
0000
0000
0000
0000
,  // measure 2
0000
0000
0000
0000
,  // measure 3
0000
0000
0001
0000
0001
1000
0001
1000
0001
1000
0100
0000
0000
0000
0000
0000
,  // measure 4
0011
0000
0100
0000
,  // measure 5
1010
0000
0001
0000
,  // measure 6
1100
0110
0011
1001
,  // measure 7
0100
0000
0010
0000
1000
0000
0000
1000
0100
0000
0010
0001
1000
0000
0010
0000
,  // measure 8
0100
0000
0000
0000
0000
0000
0100
0000
0000
0001
0000
0000
0010
0000
0000
0000
0000
0000
0010
0000
0000
0100
0000
0000
1000
0000
0100
0000
1000
0000
0100
0000
0010
0000
0001
0000
1000
0000
0000
0000
0000
0000
0010
0000
0000
0000
0000
0000
,  // measure 9
0200
0302
0023
2030
3200
0302
0023
0032
,  // measure 10
0103
0000
0100
0001
0010
0000
0010
0001
1000
0000
1000
0000
0010
0100
0001
0000
,  // measure 11
1100
0000
1100
0000
1100
0000
0000
1000
0010
0000
0010
0100
0001
0000
0101
0000
,  // measure 12
1010
0000
1010
0000
1010
0000
0000
0010
0100
0000
0100
0001
0010
0000
1100
0000
,  // measure 13
1002
0000
0000
0000
0000
0100
0000
0000
0100
0000
0000
0100
0000
0000
0000
0000
0013
0000
0000
0000
0100
0000
1000
0000
0100
0000
0000
0000
0010
0000
0001
0000
,  // measure 14
1000
0100
1000
0100
0010
0000
0100
0000
1000
0000
0010
0100
0001
0000
0001
0100
,  // measure 15
0010
1000
0010
1000
0001
0000
0100
0000
0010
0000
1000
0100
1000
0000
0001
0100
,  // measure 16
0001
0000
0010
1000
0010
0000
0001
0000
1000
0000
0010
0000
0100
0000
0001
0010
,  // measure 17
0100
1000
0100
1000
0010
0100
0001
0000
0010
0000
0100
1000
0010
0000
0100
0001
,  // measure 18
0010
0100
0010
0100
1000
0000
0010
0000
0100
0000
0001
1000
0100
0000
1000
0010
,  // measure 19
0100
0001
0100
0001
0010
0000
0100
0000
1000
0000
0001
0100
0001
0000
1000
0100
,  // measure 20
1000
0000
0010
0001
0010
0000
1000
0000
0001
0000
0010
0000
0100
0000
1000
0001
,  // measure 21
0100
1000
0100
1000
0001
0010
0100
0000
0100
0000
0010
0000
1001
0000
0010
0000
,  // measure 22
0100
1001
0100
0010
0100
1001
0100
0010
,  // measure 23
1001
0010
0100
1000
0001
1000
0110
1000
,  // measure 24
0001
0110
1000
0001
0110
0001
1000
0001
,  // measure 25
0110
0011
0100
1000
0101
1000
1010
0100
,  // measure 26
0010
0011
0100
0110
1000
0110
0001
0100
,  // measure 27
0110
1000
0100
0010
0110
1000
1010
0100
,  // measure 28
0001
0011
0100
1100
0010
1001
1100
0100
,  // measure 29
0010
0000
0011
0000
0101
0000
0010
0000
1000
0100
0000
1000
0100
0000
1000
0100
,  // measure 30
0000
1000
0100
0000
1000
0100
0010
0001
0100
0010
0000
0100
0010
0000
0100
0010
,  // measure 31
0000
0100
0010
0000
0100
0010
1000
0100
0010
0001
0000
0010
0001
0000
0010
0001
,  // measure 32
0000
0010
0001
0000
0010
0001
0100
0010
1000
0001
0000
1000
0001
0000
1000
0001
,  // measure 33
0000
1000
0001
0000
1000
0001
0010
0100
1000
0010
0000
1000
0001
0000
1000
0010
,  // measure 34
0000
1000
0001
0000
1000
0010
0100
0001
0010
0100
0000
0010
1000
0000
0010
0100
,  // measure 35
0000
0010
0001
0000
0010
0100
1000
0001
0100
0010
0000
0100
0001
0000
0100
1000
,  // measure 36
0000
0100
0001
0000
0100
0010
1000
0100
0010
0001
0000
0010
0001
0000
0010
0001
,  // measure 37
0000
0010
0001
0000
0001
1000
0010
0100
0001
0000
0101
0000
1100
0000
0010
0000
,  // measure 38
0101
1100
1000
0101
1100
0100
0101
1100
,  // measure 39
0020
0000
2000
0030
0200
3000
0020
0300
0001
0030
1100
0000
0101
0000
1000
0000
,  // measure 40
1100
0101
1000
1000
1001
0100
0110
0001
,  // measure 41
1100
1001
0011
0101
1000
1010
0011
0100
,  // measure 42
1010
0011
0001
1010
0011
0010
1010
0011
,  // measure 43
0100
0010
1000
0001
1000
1010
0101
0001
,  // measure 44
1010
0101
1000
1000
0101
0010
1100
0001
,  // measure 45
1100
0000
1010
0000
0101
0000
1100
0000
1001
0000
1001
0000
1001
0000
0000
0010
,  // measure 46
0100
0000
0100
1000
0010
0000
0100
0000
0101
0000
0101
0000
0101
0000
0000
1000
,  // measure 47
0100
0000
0100
0010
0001
0000
1000
0000
0110
0000
0000
0000
0000
0000
0000
0000
,  // measure 48
0000
0000
0000
0000
0000
0000
0000
0000
0000
1001
0000
0000
0000
0000
0000
0000
;
