#TITLE:Chance and Dice;
#SUBTITLE:;
#ARTIST:日本少年;
#TITLETRANSLIT:;
#SUBTITLETRANSLIT:;
#ARTISTTRANSLIT:NIPPON SHOUNEN;
#CREDIT:;
#BANNER:Chance and Dice (DDR EDIT).png;
#BACKGROUND:Chance and Dice (DDR EDIT)-bg.png;
#LYRICSPATH:;
#CDTITLE:./CDTITLES/DanceDanceRevolution X.png;
#MUSIC:Chance and Dice (DDR EDIT).mp3;
#OFFSET:-0.096;
#SAMPLESTART:55.965;
#SAMPLELENGTH:15.000;
#SELECTABLE:YES;
#DISPLAYBPM:150.000;
#BPMS:0.000=150.000;
#STOPS:138.000=0.400
;
#BGCHANGES:;

//---------------dance-single - ----------------
#NOTES:
     dance-single:
     :
     Hard:
     8:
     0.555,0.517,0.340,0.160,0.270:
0000
0000
0000
0000
,
0000
0000
0000
0000
,
0101
0000
0000
0000
0110
0000
0000
0000
1000
0000
0000
0001
0000
0000
0010
0000
,
0100
0000
0100
0000
1000
0000
0000
0000
0010
0000
0000
0100
0000
0000
0001
0000
,
0101
0000
0000
0000
1010
0000
0000
0000
1000
0000
0000
0001
0000
0000
0100
0000
,
0010
0000
0010
0000
1000
0000
0001
0000
0010
0000
0000
0100
0000
0000
1000
0000
,
1100
0000
0000
0000
0101
0000
0000
0000
0010
0000
0000
0100
0000
0000
0001
0000
,
1000
0000
1000
0000
0010
0000
0000
0000
0100
0000
0000
0001
0000
0000
0100
0000
,
0110
0000
0000
0000
0101
0000
0000
0000
1000
0000
0000
0010
0000
0000
0100
0000
,
0001
0000
0001
0000
1000
0000
0010
0000
0100
0000
0000
0001
0000
0000
0010
0000
,
0100
0000
0000
0001
0000
0000
1000
0000
0010
0000
0000
0000
0000
0000
0100
0000
,
0001
0000
0000
1000
0000
0000
0010
0000
0100
0000
0000
0000
0000
0000
0001
0000
,
0010
0000
0000
0100
0000
0000
1000
0000
0010
0000
0000
0100
0000
0000
0001
0000
,
0010
0000
0000
0100
0000
0000
1000
0000
0010
0000
0000
0000
0000
0000
0100
0000
,
0001
0000
0000
0010
0000
0000
0100
0000
1000
0000
0000
0000
0000
0000
0010
0000
,
0100
0000
0000
0001
0000
0000
1000
0000
0010
0000
0000
0000
0200
0000
0000
0000
,
0002
0000
0303
0020
0200
0000
0330
1000
,
0010
1000
0001
0100
0002
0000
2003
0000
,
3010
0000
0000
0100
0000
0000
0001
0000
1000
0000
0010
0000
0100
0000
0010
0100
,
0010
0000
0000
1000
0000
0000
0001
0000
0010
0000
0100
0000
1000
0000
0010
0100
,
0010
0000
0000
1000
0000
0000
0001
0000
0100
0000
0000
0001
0000
0000
1000
0000
,
0010
0000
0000
0100
0000
0000
0001
0000
1000
0000
0100
0000
0010
0000
0100
0010
,
0100
0000
0000
1000
0000
0000
0001
0000
0100
0000
0010
0000
1000
0000
0100
0010
,
0100
0000
0000
1000
0000
0000
0001
0000
0100
0000
0000
0000
0020
0000
0000
0000
,
1030
0000
0000
0000
0000
0000
0001
0000
0100
0000
0000
0010
0000
0000
1000
0000
,
0001
0100
0010
1000
0002
0000
0203
0000
,
0310
0000
1000
0000
0100
0000
0010
0000
0100
0000
0000
0001
0000
0000
0100
0000
,
0010
1000
0100
0010
0200
0000
2300
0000
,
3001
0000
0100
0000
0010
0000
1000
0000
0100
0000
0000
0001
0000
0000
0100
0000
,
0010
0000
1000
0000
0100
0000
0010
0000
0100
0000
0000
1000
0000
0000
0001
0000
,
0010
0000
0100
0000
1000
0000
0010
0000
0100
0000
0000
0010
0000
0000
1000
0000
,
0100
0000
0010
0000
0001
0000
0100
0000
0010
0000
0000
0001
0000
0000
1000
0000
,
0010
0000
0100
0000
0001
0000
0010
0000
0100
0000
0000
0010
0000
0000
1000
0000
,
0010
0000
0000
0100
0000
0000
0001
0000
1000
0000
0010
0000
0100
0000
0000
0000
,
1001
0000
0000
0101
0000
0000
0110
0000
1010
0000
0000
0000
0101
0000
0000
0000
,
1010
0000
1000
0000
0001
0000
0000
0010
0000
0000
0100
0000
2000
0000
0000
0000
,
0000
3000
0010
0000
0100
0000
0001
0000
1000
0000
0000
0000
0011
0000
0000
0000
,
0110
0000
0100
0000
1000
0000
0000
0100
0000
0000
0010
0000
0001
0000
0000
1000
,
0000
0010
0100
0000
0020
0000
0130
0000
,
0100
0000
0001
0000
1000
0000
0000
0010
0000
0000
0100
0000
0010
0000
1000
0000
,
0001
0000
1000
0000
0010
0000
0000
0100
0000
0000
0001
0000
1000
0000
0010
0000
,
0100
0000
0001
0000
1000
0000
0000
0010
0000
0000
0100
0000
0001
0000
1000
0000
,
0010
0100
0001
0000
1000
0000
0101
0000
,
0110
0000
0010
0000
1000
0000
0000
0010
0000
0000
0001
0000
0100
0000
0000
0001
,
0000
1000
0010
0100
0010
0000
0101
0000
,
1001
0000
1000
0000
0010
0000
0000
0100
0000
0000
0001
0000
0010
0000
0000
0100
,
0000
1000
0010
1000
0200
0000
0301
0000
,
0000
0000
1000
0000
0010
0000
0000
0100
0000
0000
0001
0000
0010
0000
0100
0000
,
1000
0000
0010
0000
0100
0000
0000
0001
0000
0000
0100
0000
0010
0000
1000
0000
,
0001
0000
0010
0000
0100
0000
0000
1000
0000
0000
0100
0000
0010
0000
0000
0000
,
0000
1001
0110
1100
,
0001
0000
0000
0000
0100
0000
0000
0010
0000
0000
1000
0000
0100
0000
0100
0000
,
0110
1001
0101
0110
,
1000
0000
0000
0000
0010
0000
0000
0100
0000
0000
0001
0000
1000
0000
1000
0000
,
0100
0000
0001
0000
0101
0000
0000
1010
0000
0000
0100
0000
0110
0000
0000
0000
,
0001
0000
0000
0000
0100
0000
0000
0010
0000
0000
1000
0000
0001
0000
0001
0000
,
0011
0101
1001
0110
,
1000
0000
0000
0000
0001
0000
0000
0100
0000
0000
0010
0000
1000
0000
1000
0000
,
0100
0000
0010
0000
0001
0000
0000
0100
0000
0000
0002
0000
2000
0000
0000
0000
,
0000
0000
0000
0000
,
0000
0000
0000
3003
;

//---------------dance-single - ----------------
#NOTES:
     dance-single:
     :
     Medium:
     6:
     0.425,0.456,0.150,0.230,0.220: // measure 1
0000
0000
0000
0000
,  // measure 2
0000
0000
0000
0000
,  // measure 3
1000
0000
0000
0000
0010
0000
0000
0000
0100
0000
0000
0001
0000
0000
1000
0000
,  // measure 4
0010
0000
0000
0000
0100
0000
0000
0000
0001
0000
0000
1000
0000
0000
0010
0000
,  // measure 5
0100
0000
0000
0000
0001
0000
0000
0000
1000
0000
0000
0010
0000
0000
0100
0000
,  // measure 6
0010
0000
1000
0000
0001
0000
0000
0000
0001
0000
0000
0100
0000
0000
0010
0000
,  // measure 7
1000
0000
0000
0000
0001
0000
0000
0000
0010
0000
0000
0100
0000
0000
1000
0000
,  // measure 8
0010
0000
0000
0000
0100
0000
0000
0000
0001
0000
0000
1000
0000
0000
0010
0000
,  // measure 9
0100
0000
0000
0000
0001
0000
0000
0000
1000
0000
0000
0010
0000
0000
0100
0000
,  // measure 10
0001
0000
1000
0000
0100
0000
0000
0000
1000
0000
0000
0001
0000
0000
0100
0000
,  // measure 11
0020
0000
0000
0000
0130
0000
0000
1000
,  // measure 12
0200
0000
0000
0000
0310
0000
0000
0001
,  // measure 13
0200
0000
0320
0000
,  // measure 14
2030
0000
0000
0000
3001
0000
0000
0100
,  // measure 15
0020
0000
0000
0000
1030
0000
0000
0001
,  // measure 16
0200
0000
0310
2000
,  // measure 17
3200
0000
0300
0020
0002
0000
0033
0001
,  // measure 18
1000
0000
0010
0100
0020
0000
0230
0000
,  // measure 19
0301
0000
0000
1000
0000
0000
0010
0000
0100
0000
0000
0000
0000
0000
0001
0000
,  // measure 20
1000
0000
0000
0010
0000
0000
0100
0000
0001
0000
0000
0000
0000
0000
1000
0000
,  // measure 21
0100
0000
0000
0010
0000
0000
0001
0000
0100
0000
0000
0010
0000
0000
1000
0000
,  // measure 22
0001
0000
0000
0010
0000
0000
0100
0000
1000
0000
0000
0000
0000
0000
0010
0000
,  // measure 23
0100
0000
0000
0001
0000
0000
1000
0000
0010
0000
0000
0000
0000
0000
0100
0000
,  // measure 24
0001
0000
0000
0010
0000
0000
0100
0000
1000
0000
0000
0000
0020
0000
0000
0000
,  // measure 25
0130
0000
0000
0000
0000
0000
0001
0000
1000
0000
0000
0010
0000
0000
0100
0000
,  // measure 26
0001
0000
2000
3020
,  // measure 27
0130
0000
0000
0000
0000
0000
1000
0000
0010
0000
0000
0100
0000
0000
0001
0000
,  // measure 28
1000
0000
0002
2003
,  // measure 29
3010
0000
0000
0000
0000
0000
0100
0000
0001
0000
0000
1000
0000
0000
0010
0000
,  // measure 30
0100
0000
0000
0000
0000
0000
1000
0000
0010
0000
0000
0100
0000
0000
0001
0000
,  // measure 31
1000
0000
0000
0000
0000
0000
0010
0000
0100
0000
0000
0001
0000
0000
0010
0000
,  // measure 32
0100
0000
0000
0000
0000
0000
1000
0000
0100
0000
0000
0010
0000
0000
0001
0000
,  // measure 33
0100
0000
0000
0000
0000
0000
0001
0000
1000
0000
0000
0010
0000
0000
0100
0000
,  // measure 34
0001
0000
0000
0010
0000
0000
0100
0000
1000
0000
0000
0000
0000
0000
0000
0000
,  // measure 35
0001
0000
0000
0100
0000
0000
0010
0000
1000
0000
0000
0000
0101
0000
0000
0000
,  // measure 36
0000
0000
0000
0000
1000
0000
0000
0010
0000
0000
0100
0000
0002
0000
0000
0000
,  // measure 37
0000
1003
0100
0000
0000
0000
0011
0000
,  // measure 38
0000
0000
0100
0000
0010
0000
0000
1000
0000
0000
0001
0000
0010
0000
0000
0100
,  // measure 39
0000
1000
0010
0000
0200
0000
0301
0000
,  // measure 40
0000
0000
1000
0000
0010
0000
0000
0100
0000
0000
0001
0000
1000
0000
0000
0000
,  // measure 41
0000
0000
0100
0000
0010
0000
0000
0001
0000
0000
0100
0000
0010
0000
0000
0000
,  // measure 42
0000
0000
1000
0000
0001
0000
0000
0100
0000
0000
0010
0000
1000
0000
0000
0001
,  // measure 43
0000
0010
0100
0000
0000
0000
0101
0000
,  // measure 44
0000
0000
0000
0000
0010
0000
0000
1000
0000
0000
0001
0000
0100
0000
0000
0010
,  // measure 45
0000
1000
0100
0000
0000
0000
0110
0000
,  // measure 46
0000
0000
0100
0000
0001
0000
0000
1000
0000
0000
0010
0000
0100
0000
0000
0001
,  // measure 47
0000
0010
0100
0000
2000
0000
3010
0000
,  // measure 48
0000
0000
0100
0000
0001
0000
0000
1000
0000
0000
0010
0000
0100
0000
0000
0000
,  // measure 49
0000
0000
0001
0000
0010
0000
0000
0100
0000
0000
1000
0000
0010
0000
0000
0000
,  // measure 50
0000
0000
0100
0000
0001
0000
0000
1000
0000
0000
0010
0000
0100
0000
0000
0000
,  // measure 51
0000
1001
0110
0011
,  // measure 52
1000
0000
0000
0000
0010
0000
0000
0100
0000
0000
0001
0000
1000
0000
0000
0000
,  // measure 53
0110
0101
1100
1001
,  // measure 54
1000
0000
0000
0000
0010
0000
0000
0100
0000
0000
0001
0000
1000
0000
0000
0000
,  // measure 55
0000
0000
0010
0000
0100
0000
0000
0001
0000
0000
1000
0000
0010
0000
0000
0000
,  // measure 56
0100
0000
0000
0000
0001
0000
0000
1000
0000
0000
0010
0000
0100
0000
0000
0000
,  // measure 57
1001
1010
0110
0101
,  // measure 58
1000
0000
0000
0000
0010
0000
0000
0100
0000
0000
0001
0000
1000
0000
0000
0000
,  // measure 59
0010
0000
0000
0000
0100
0000
0000
0001
0000
0000
2000
0000
0002
0000
0000
0000
,  // measure 60
0000
0000
0000
0000
,  // measure 61
0000
0000
0000
3003
;

//---------------dance-single - ----------------
#NOTES:
     dance-single:
     :
     Easy:
     4:
     0.308,0.395,0.200,0.260,0.000: // measure 1
0000
0000
0000
0000
,  // measure 2
0000
0000
0000
0000
,  // measure 3
1000
0010
0100
0000
,  // measure 4
0001
1000
0100
0000
,  // measure 5
0010
0001
0100
0000
,  // measure 6
0010
1000
0001
0100
,  // measure 7
0010
1000
0001
0000
,  // measure 8
0010
0100
1000
0000
,  // measure 9
0001
0100
0010
0000
,  // measure 10
1000
0001
0100
0010
,  // measure 11
0200
0000
0000
0000
,  // measure 12
0302
0000
0000
0000
,  // measure 13
2003
0000
3020
0000
,  // measure 14
0230
0000
0302
0000
,  // measure 15
0023
0000
0000
0000
,  // measure 16
0230
0000
0000
2300
,  // measure 17
0002
3003
0220
0330
,  // measure 18
0020
0000
0230
0302
,  // measure 19
1003
0010
0100
0000
,  // measure 20
0001
1000
0010
0000
,  // measure 21
0100
0001
1000
0010
,  // measure 22
0100
0001
0010
0000
,  // measure 23
1000
0010
0100
0000
,  // measure 24
0001
0010
0100
2000
,  // measure 25
3010
0000
0100
0001
,  // measure 26
1000
0000
0002
0203
,  // measure 27
0310
0000
1000
0001
,  // measure 28
0100
0000
0002
2003
,  // measure 29
3010
0000
0100
0001
,  // measure 30
1000
0000
0010
0100
,  // measure 31
0001
0000
1000
0100
,  // measure 32
0010
0000
0100
0010
,  // measure 33
1000
0000
0100
1000
,  // measure 34
0010
0100
0001
0000
,  // measure 35
2000
0000
3001
0110
,  // measure 36
0000
0001
1000
0020
,  // measure 37
0000
0130
0000
0101
,  // measure 38
0000
1000
0010
0100
,  // measure 39
0000
0001
2000
3010
,  // measure 40
0000
0100
0001
1000
,  // measure 41
0000
0010
0100
0001
,  // measure 42
0000
1000
0010
0100
,  // measure 43
0001
1000
0000
0101
,  // measure 44
0000
0010
0100
0001
,  // measure 45
1000
0100
0000
1001
,  // measure 46
0000
0001
0010
0100
,  // measure 47
1000
0010
0200
0301
,  // measure 48
0000
1000
0010
0100
,  // measure 49
0000
0001
0010
0100
,  // measure 50
0000
1000
0010
0100
,  // measure 51
0000
1001
0110
1001
,  // measure 52
0100
0010
0000
0001
,  // measure 53
1010
0101
1010
0101
,  // measure 54
0100
0010
0000
0001
,  // measure 55
0100
0011
1100
0011
,  // measure 56
0001
0100
0000
0001
,  // measure 57
1001
0110
1001
0110
,  // measure 58
1000
0001
0000
0100
,  // measure 59
0010
1000
0001
0220
,  // measure 60
0000
0000
0000
0000
,  // measure 61
0000
0000
0000
0330
;
