#TITLE:Beautiful Inside (Cube Hard Mix);
#SUBTITLE:;
#ARTIST:NM feat. Alison Wade;
#TITLETRANSLIT:;
#SUBTITLETRANSLIT:;
#ARTISTTRANSLIT:;
#CREDIT:;
#BANNER:Beautiful Inside (Cube__Hard Mix).png;
#BACKGROUND:Beautiful Inside (Cube__Hard Mix)-bg.png;
#LYRICSPATH:;
#CDTITLE:./CDTITLES/Dance Dance Revolution HOTTEST PARTY.png;
#MUSIC:Beautiful Inside (Cube__Hard Mix).mp3;
#OFFSET:1.193;
#SAMPLESTART:53.760;
#SAMPLELENGTH:15.000;
#SELECTABLE:YES;
#BPMS:0.000=110.000;
#STOPS:;
#BGCHANGES:;

//---------------dance-single - ----------------
#NOTES:
     dance-single:
     :
     Easy:
     2:
     0.188,0.218,0.058,0.126,0.000:
0000
0000
0000
0000
,
0000
0000
0000
0000
,
0001
0001
1000
1000
,
0001
0001
0100
0010
,
0100
0100
0000
0000
,
0010
0010
0000
0000
,
0010
0010
0100
0100
,
0010
0010
0100
0100
,
0001
1000
0000
1000
,
0001
0001
0000
0001
,
0100
0100
0000
0100
,
0010
0010
0000
0010
,
1000
0001
0000
0001
,
0001
1000
0000
0100
,
1000
0100
0010
0001
,
1000
0000
0001
0000
,
0001
0100
0010
0100
,
0010
0000
1000
0000
,
0002
0003
0200
0300
,
0000
1001
0000
0000
,
0020
0030
2000
3000
,
0000
1001
0000
0001
,
1000
1000
0001
0000
,
0001
0100
0100
0000
,
0010
1000
1000
0000
,
0000
0000
0000
0000
,
2002
0000
0000
3003
,
0100
0100
0100
0100
,
0010
0000
0000
0000
,
0010
0010
0010
0010
,
2002
0000
3003
0000
,
0002
0000
1003
1000
,
0010
0100
0010
1000
,
0022
0000
0000
0033
,
2200
0000
0000
3300
,
1000
0100
1000
0100
,
0010
0001
0000
0001
,
0100
0010
0100
0001
,
1000
0000
0100
0100
,
0010
0000
0001
0001
,
0100
0010
0000
0010
,
1000
0001
1000
0001
,
0100
0000
0000
0000
,
0010
0000
0000
0000
,
0010
0010
0010
0010
,
0100
0000
0000
0000
;

//---------------dance-single - ----------------
#NOTES:
     dance-single:
     :
     Medium:
     5:
     0.299,0.327,0.155,0.262,0.010:
0000
0000
0000
0000
,
0000
0000
0000
0000
,
2000
3100
0002
0103
,
1000
0001
0100
0000
0010
0000
1010
0000
,
1000
0000
0001
0000
0000
0100
0100
0000
,
0001
0000
1000
0000
0000
0100
0100
0000
,
2000
3010
0002
0013
,
1000
0001
0100
0000
0110
0000
0001
0000
,
1000
0000
0001
0000
0000
1000
1000
0000
,
0001
0000
0100
0000
0000
0010
0010
0000
,
0000
0001
1000
0001
,
1000
0000
0001
0000
1000
0100
0010
0001
,
1000
0010
0100
0010
,
0100
0000
0001
0000
0001
0100
0010
1000
,
0100
1000
0100
0010
,
0001
0100
0010
1000
,
0010
0010
0100
0000
0000
0100
0010
0000
,
0010
0010
1000
0000
0000
1000
0001
0000
,
0102
0000
1003
0000
,
2100
0000
3001
0100
,
0002
0000
0000
1003
1000
0000
0000
0001
,
0100
0000
0000
0001
0000
0000
1000
0000
0100
0000
0000
1000
0000
0000
0001
0000
,
0200
0000
0310
1001
,
0200
0000
0310
0001
,
0110
1001
1100
0101
,
2002
0000
0000
3003
,
2000
0000
0001
3001
,
0002
0023
0230
2300
,
3200
0000
0000
0300
,
1000
1000
0100
0100
0010
0010
0001
0001
,
2000
0000
0001
3001
,
0002
0000
1000
1003
,
0001
0001
0100
0000
0001
0001
0100
0000
,
0110
1010
0110
0101
,
2000
0000
0100
3100
,
1000
0100
1000
0000
0001
0100
0001
0000
,
0100
0000
0110
0000
0000
0010
0010
0000
,
0200
0302
2003
3200
,
0320
0000
0001
0031
,
0001
1000
0100
0000
1000
0001
0100
0000
,
2002
0000
0000
3003
,
0001
0100
1000
0100
,
0001
0000
0010
0000
0000
0001
0001
0000
,
0001
0000
1000
0000
0000
0100
0100
0000
,
1000
0100
0010
0001
,
1000
0000
0000
0000
;

//---------------dance-single - Copied from Blank----------------
#NOTES:
     dance-single:
     Copied from Blank:
     Hard:
     8:
     0.449,0.481,0.281,0.194,0.165: // measure 1
0000
0000
0000
0000
,  // measure 2
0000
0000
0000
0000
,  // measure 3
0001
1100
1000
0101
,  // measure 4
0010
1001
1000
0110
,  // measure 5
0010
0000
0000
1000
0000
0000
0100
0000
0020
0000
0000
0000
0031
0000
0000
0000
,  // measure 6
0001
0000
0010
0000
0001
0000
1000
0000
0010
0100
0000
0100
0010
0000
1000
0000
,  // measure 7
0001
0101
0010
0110
,  // measure 8
1000
1001
0001
0101
,  // measure 9
0001
0000
0000
0001
0000
0000
0001
0000
0020
0000
0000
0000
0130
0000
0000
0000
,  // measure 10
1000
0000
0000
1000
0000
0000
1000
0000
0020
0000
0000
0000
0000
0000
0030
0000
,  // measure 11
1000
0000
0001
1000
0001
0000
0000
0000
0001
0000
0100
0000
0010
0000
0000
0000
,  // measure 12
1000
0000
0100
1000
0100
0000
0000
0000
0010
0001
0000
0100
0000
0010
0000
1000
,  // measure 13
0100
1000
1001
0000
0100
0010
0110
0000
,  // measure 14
0010
0000
0100
0000
1100
0000
0000
0000
0001
0010
0000
0001
0000
0100
0000
0010
,  // measure 15
0100
0000
0100
0010
1000
0000
0000
0000
1000
0000
0100
0000
1001
0000
0000
0000
,  // measure 16
0001
0000
0010
0001
1000
0000
0000
0000
1000
0000
0001
0000
0110
0000
0000
0000
,  // measure 17
0001
0100
1000
0100
0001
0000
1001
0000
,  // measure 18
1000
0000
0001
0000
1000
0000
0001
0000
0001
0100
0000
0100
0010
0000
1000
0000
,  // measure 19
0200
0000
0301
0001
0002
0000
0103
0100
,  // measure 20
2000
0000
0000
0100
3000
0000
0100
0000
0010
0000
0000
0010
0000
0000
0100
0000
,  // measure 21
0020
0000
0031
0100
0200
0000
0301
0100
,  // measure 22
0020
0000
0000
1000
0030
0000
0100
0000
0010
0000
0000
0001
0000
0000
0100
0000
,  // measure 23
0010
1000
1100
0000
0010
0001
0101
0000
,  // measure 24
1000
0100
0001
0000
0001
0100
1000
0000
,  // measure 25
0010
0000
0000
1000
0000
0000
0001
0000
1000
0000
0000
0000
1001
0000
0000
0000
,  // measure 26
0001
0100
1000
0100
0001
0010
0100
0100
,  // measure 27
0020
0000
0000
0000
0001
0031
0100
0010
,  // measure 28
0010
0100
0110
0000
1000
0001
0101
0000
,  // measure 29
1000
0001
1001
0000
1000
0100
0110
0000
,  // measure 30
0001
0100
1000
0100
0001
0010
0001
0100
,  // measure 31
0012
0000
0000
0000
1000
1003
0100
0010
,  // measure 32
0010
1000
1010
0000
0001
0100
0101
0000
,  // measure 33
0100
0001
0010
1000
0010
0001
1000
0000
,  // measure 34
0010
0000
0100
0010
0100
0000
0001
1000
0001
0000
1000
0010
1000
0000
1000
0000
,  // measure 35
2010
0000
0000
0000
0100
3010
0100
1000
,  // measure 36
1100
0000
1000
0100
0001
0100
0010
0100
,  // measure 37
0220
0000
0030
0000
0001
1000
1300
0000
,  // measure 38
0010
0000
0010
0100
0010
0000
1000
0100
1000
0000
0001
0100
0001
0000
0100
0000
,  // measure 39
0200
0000
0000
0000
0310
0010
0001
0001
,  // measure 40
0010
1000
0101
0000
0010
0100
1001
0000
,  // measure 41
1000
0100
1000
0010
1000
0001
0100
0001
,  // measure 42
0100
0000
0010
0100
0010
0000
1000
0001
1000
0000
1000
0100
1000
0000
0001
0100
,  // measure 43
0010
0000
0100
0000
0010
1000
0100
0000
,  // measure 44
0010
0000
0001
0000
1000
0001
1000
0001
,  // measure 45
0200
2300
3020
0032
,  // measure 46
2003
0000
0000
0000
,  // measure 47
0000
0000
0000
0000
,  // measure 48
0000
3000
0000
0000
;
