#TITLE:BOOM BOOM DOLLAR (DDR EDIT);
#SUBTITLE:;
#ARTIST:King Kong & D.Jungle Girls;
#TITLETRANSLIT:;
#SUBTITLETRANSLIT:;
#ARTISTTRANSLIT:;
#CREDIT:;
#BANNER:BOOM BOOM DOLLAR.png;
#BACKGROUND:BOOM BOOM DOLLAR-bg.png;
#LYRICSPATH:BOOM BOOM DOLLAR.lrc;
#CDTITLE:./CDTITLES/DANCE MANIA SUPER CLASSICS 1.PNG;
#MUSIC:BOOM BOOM DOLLAR.mp3;
#OFFSET:-7.630;
#SAMPLESTART:43.110;
#SAMPLELENGTH:12.000;
#SELECTABLE:YES;
#DISPLAYBPM:135.000;
#BPMS:0.000=135.130;
#STOPS:;
#BGCHANGES:;

//---------------dance-single - ----------------
#NOTES:
     dance-single:
     :
     Hard:
     7:
     0.439,0.503,0.434,0.205,0.036:
1000
0000
0001
0000
0100
0000
0001
0000
0010
0000
0000
0010
0000
0000
0000
0000
,
0000
0000
0001
0000
1000
0000
0100
0000
1000
0000
0001
0100
0000
0000
0000
0000
,
0000
0000
0010
0000
0100
0000
1000
0000
0001
0000
0000
1000
0100
0000
0000
0001
,
0010
0001
0010
0001
1000
0100
1000
0100
,
0000
1000
0001
0010
0001
0100
0000
0010
,
0000
0010
1000
0001
0010
0001
0100
0020
,
0000
0130
0000
0200
0000
0310
0000
0000
,
2000
3001
0200
0301
0020
0031
0020
0030
,
0001
1000
0001
0010
0001
0100
0000
0110
,
0000
0010
1000
0001
0010
0001
0100
0020
,
0000
0000
0000
0130
0000
1001
0000
0000
,
1000
0010
0100
0010
1000
0010
0100
0010
,
0000
1000
0001
0100
0001
0010
0100
1000
,
0100
0000
0100
0000
0100
2000
0000
3000
,
0000
1000
0001
0100
0001
0010
0001
0200
,
0000
0000
0300
0000
0000
0000
0000
0000
0000
0000
0000
0000
0000
0010
1000
0001
,
0010
0001
1000
0100
1000
0001
0100
0001
,
0011
0000
1100
0000
0001
0100
0000
0000
,
0110
0000
1001
0000
1000
0002
0000
0000
,
0013
0010
0001
0001
1000
1000
0100
0100
,
1100
0110
0011
1001
,
0001
1000
0001
1000
0100
0010
0000
0000
,
0101
1010
1001
0101
,
2000
3100
0002
0013
,
0011
1001
0101
0110
,
0010
1000
0001
0010
0001
0001
0000
0000
,
0020
0000
0000
0000
,
0130
0100
0010
0010
0100
0100
0010
0010
,
0110
0110
1001
1001
,
1000
0100
0001
0100
1000
0100
0001
0100
,
1000
1001
0001
0101
,
0001
0010
1000
0010
0001
0010
1000
0010
,
0001
1001
0010
0110
,
0001
0001
1000
0010
0100
0010
0000
0000
,
2000
0000
0000
0000
,
0200
0000
0000
3300
,
1100
0011
1100
0011
,
1100
0011
1100
0011
1100
0000
2002
0000
,
3003
0000
0000
0000
;

//---------------dance-single - ----------------
#NOTES:
     dance-single:
     :
     Medium:
     5:
     0.320,0.389,0.349,0.132,0.000:
1000
0001
0100
0000
,
0001
0000
1000
0000
0010
1000
0010
0000
,
0000
1000
0001
0100
,
0101
0101
1100
1100
,
1000
0000
0001
0000
0100
0001
0000
0010
,
0000
0001
0000
1000
0000
0001
0000
0100
,
0000
0010
0000
1000
0000
0010
0000
0000
,
1000
0001
1000
0000
0001
1000
0001
0000
,
1000
1000
0001
0001
,
1000
0001
0100
0010
,
0100
0001
0010
0001
,
1000
0100
1000
0000
0001
0010
0001
0000
,
1000
0001
0101
0001
,
0011
1100
2002
3003
,
0000
0001
1000
0100
,
2000
0000
0000
0000
3000
0000
0000
0100
,
1000
0010
0100
0010
,
1000
0000
0001
0000
1000
0001
0000
0000
,
0101
0000
1100
0000
1000
2000
0000
0020
,
0000
0000
0000
3030
,
1010
1010
1010
1010
,
0010
1000
0010
0000
,
0101
0101
0101
0101
,
0001
0001
0100
0100
,
0110
0110
0110
0110
,
0010
0100
0010
0000
,
0002
0000
0000
0000
,
2000
0000
0000
3003
,
1001
1001
1001
1001
,
0010
0100
0010
0100
0010
0100
0010
0100
,
0010
0100
0010
0100
,
0010
1000
0001
0010
0001
0010
0100
1000
,
0100
1100
0010
0011
,
1000
0001
1000
0001
1000
0001
0000
0000
,
2000
0000
0000
0000
,
0200
0000
0000
3300
,
0001
1000
0001
1000
,
0001
1000
0001
1000
0001
0000
2002
0000
,
3003
0000
0000
0000
;

//---------------dance-single - ----------------
#NOTES:
     dance-single:
     :
     Easy:
     3:
     0.186,0.229,0.084,0.096,0.000:
0001
1000
0001
0000
,
0001
0100
0010
0000
,
0010
0100
0010
0000
,
1000
1000
1000
1000
,
0000
0001
0000
1000
,
0000
0010
0000
0100
,
0000
0010
0000
1000
,
0001
0001
1000
1000
,
0000
0001
0000
1000
,
0000
0010
0000
0100
,
0000
0010
0000
1000
,
0001
0001
0001
0001
,
0000
1000
0000
0010
,
0000
0100
0000
0010
,
1000
0100
0000
1000
,
0000
0000
0001
0000
0000
0000
0000
1000
,
0001
1000
0000
0001
,
0000
0100
0000
0010
,
1000
0001
0100
0002
,
0020
0000
0000
0033
,
1001
0000
0110
0000
,
0010
0010
0010
0000
,
1100
0000
0011
0000
,
0001
0001
1000
1000
,
1001
0000
0110
0000
,
0010
0010
0010
0000
,
2000
0000
0000
3000
,
0002
0000
0000
0003
,
1000
1000
1000
1000
,
0000
0000
0000
0000
,
0001
0001
0001
0001
,
0000
0000
0000
0000
,
0010
0010
0010
0010
,
0100
0010
0100
0000
,
0020
0000
0000
0030
,
2000
0000
0000
3000
,
1000
0000
0001
0000
,
1000
0001
1000
2002
,
3003
0000
0000
0000
;

//---------------dance-single - ----------------
#NOTES:
     dance-single:
     :
     Beginner:
     1:
     0.103,0.159,0.036,0.000,0.000: // measure 1
0001
0000
0000
0000
,  // measure 2
0001
0000
0000
0000
,  // measure 3
0100
0000
0000
0000
,  // measure 4
0010
0000
0010
0000
,  // measure 5
0010
0000
0000
0000
,  // measure 6
1000
0000
0000
0000
,  // measure 7
1000
0000
0000
0000
,  // measure 8
1001
0000
0001
0000
,  // measure 9
0001
0000
0000
0000
,  // measure 10
0100
0000
0000
0000
,  // measure 11
0010
0000
0000
0000
,  // measure 12
1001
0000
1000
0000
,  // measure 13
0001
0000
0000
0000
,  // measure 14
1000
0000
0000
0000
,  // measure 15
0100
0000
0000
0000
,  // measure 16
0000
0000
0000
0000
,  // measure 17
1000
0000
0000
0000
,  // measure 18
0001
0000
0000
0000
,  // measure 19
0100
0000
0100
0000
,  // measure 20
0100
0000
0000
0000
,  // measure 21
0001
0001
0001
0001
,  // measure 22
0000
0000
0000
0000
,  // measure 23
1000
1000
1000
1000
,  // measure 24
0000
0000
0000
0000
,  // measure 25
0010
0010
0010
0010
,  // measure 26
0000
0000
0000
0000
,  // measure 27
0100
0000
0000
0000
,  // measure 28
0100
0000
0000
0000
,  // measure 29
0100
0100
0100
0100
,  // measure 30
0000
0000
0000
0000
,  // measure 31
0001
1000
0001
1000
,  // measure 32
0000
0000
0000
0000
,  // measure 33
0010
0100
0010
0100
,  // measure 34
0000
0000
0000
0000
,  // measure 35
1000
0000
0000
0000
,  // measure 36
0001
0000
0000
0000
,  // measure 37
0100
0000
0100
0000
,  // measure 38
0100
0100
0100
1001
;
