#TITLE:BALALAIKA, CARRIED WITH THE WIND;
#SUBTITLE:;
#ARTIST:Julie ann Frost;
#TITLETRANSLIT:;
#SUBTITLETRANSLIT:;
#ARTISTTRANSLIT:;
#CREDIT:DMAxel;
#BANNER:BALALAIKA, CARRIED WITH THE WIND.png;
#BACKGROUND:BALALAIKA, CARRIED WITH THE WIND.png-bg;
#LYRICSPATH:BALALAIKA, CARRIED WITH THE WIND.lrc;
#CDTITLE:GUITAR FREAKS & drummania.PNG;
#MUSIC:BALALAIKA, CARRIED WITH THE WIND.mp3;
#OFFSET:-1.853;
#SAMPLESTART:10.750;
#SAMPLELENGTH:15.000;
#SELECTABLE:YES;
#DISPLAYBPM:134.000;
#BPMS:0.000=134.000;
#STOPS:130.000=0.448
;
#BGCHANGES:;

//---------------dance-single - ----------------
#NOTES:
     dance-single:
     :
     Easy:
     3:
     0.248,0.264,0.091,0.130,0.000:
0000
0000
0000
0000
,
0000
0000
0000
0000
,
0010
0000
0010
0000
,
0010
0100
0010
0000
,
0100
0010
0100
0000
,
0001
0001
1000
0000
,
1000
1000
0001
0000
,
0100
0010
0100
0010
,
0100
0100
0100
1001
,
1000
1000
0001
0000
,
0001
0001
1000
0000
,
0010
0100
0010
0100
,
0010
0010
0010
1001
,
0002
0000
0103
0010
,
2000
0000
3001
0000
,
2000
0000
3010
0100
,
0002
0000
1003
0000
,
2000
0000
3100
0010
,
0002
0000
1003
0000
,
0002
0000
0013
0100
,
1001
0000
1001
0000
,
0010
1000
0010
0000
,
0100
0001
0100
0000
,
0010
0100
0010
0100
,
0010
0010
0010
1001
,
0200
0000
0300
0000
,
0020
0000
0030
0000
,
0200
0000
0300
0000
,
0010
0010
0010
0000
,
1000
0001
1000
0000
,
0010
0100
0010
0000
,
0100
0001
1000
0000
,
0010
0100
0001
1000
,
0001
1000
0000
0010
,
0100
0010
0000
0100
,
0010
0100
0010
0100
,
0100
0100
1001
0001
,
0010
0001
0000
1000
,
0100
1000
0000
0010
,
0100
0010
0100
0010
,
0010
0010
1001
0000
;

//---------------dance-single - ----------------
#NOTES:
     dance-single:
     :
     Medium:
     5:
     0.347,0.370,0.300,0.000,0.000:
0000
0000
0000
0000
,
0000
0000
0000
0000
,
0100
0000
0100
0000
,
1001
0010
0100
1000
,
0100
0001
0010
1000
,
1001
0000
1000
0001
0100
0000
0010
0000
,
0100
0000
0001
1000
0010
0000
0100
0000
,
0010
0010
0100
0100
,
0001
0010
0100
0000
1000
0000
1001
0000
,
1000
0000
1000
0001
0100
0000
0010
0000
,
0100
0000
0010
1000
0001
0000
0100
0000
,
0010
0010
0100
0100
,
0110
0110
0110
1001
,
0001
0010
0001
0100
,
1000
0001
1000
0001
,
1000
0100
1000
0010
,
0001
1000
0001
1000
,
0001
0100
0001
0010
,
1000
0001
1000
0001
,
1000
0100
1000
0001
,
0110
0110
0110
1001
,
0001
0000
0001
1000
0010
0000
0100
0000
,
0010
0000
1000
0001
0100
0000
0010
0000
,
0100
0100
0010
0010
,
1000
0100
0010
0000
0001
0000
1001
0000
,
0100
0000
1001
0000
,
0010
0000
1001
0000
,
0100
0000
1001
0000
,
0010
0010
0010
0010
,
1001
0010
0100
1000
,
0001
0010
0100
1000
,
0100
0010
0001
1000
,
0010
0100
0010
0000
1001
0000
0010
0000
,
0010
1000
0001
0000
0100
0000
0010
0100
,
0010
1000
0001
0000
1000
0000
1000
0000
,
1001
0001
1001
0100
,
0100
0010
0100
0000
1001
0000
0100
0000
,
0100
0001
1000
0000
0010
0000
0100
0010
,
0100
0001
1000
0000
0001
0000
0001
0000
,
1001
1000
1001
0010
,
0010
0010
1001
0000
;

//---------------dance-single - ----------------
#NOTES:
     dance-single:
     :
     Hard:
     7:
     0.497,0.449,0.600,0.026,0.215:
0000
0000
0000
0000
,
0000
0000
0000
0000
,
0200
0000
0320
0000
,
1030
0100
1000
0000
1000
0001
1000
0000
,
0001
0010
0001
0000
0001
1000
0001
0000
,
0100
0000
0000
0100
0001
0000
0000
0001
1000
0000
0000
1000
0001
0000
0000
0000
,
0100
0000
0000
0100
0001
0000
0000
0001
1000
0000
0000
1000
0001
0000
0000
0000
,
0011
1100
0011
1100
,
1000
0100
0010
0000
0101
0000
1001
0000
,
0010
0000
0000
0010
1000
0000
0000
1000
0001
0000
0000
0001
1000
0000
0000
0000
,
0010
0000
0000
0010
1000
0000
0000
1000
0001
0000
0000
0001
1000
0000
0000
0000
,
1100
0011
1100
0011
,
1001
0000
0001
0010
0100
0000
1001
0000
,
0010
0100
0010
0000
0010
1000
0010
0100
,
0001
1000
0001
0000
0001
0010
0001
0000
,
0100
0010
0100
0000
0100
0001
0100
0010
,
1000
1001
0110
1001
,
0010
0100
0010
0000
0010
1000
0010
0100
,
0001
1000
0001
0000
0001
0100
0001
0000
,
0100
0010
0100
0000
0100
0001
0100
0010
,
1010
0110
1010
1001
,
0010
0000
0000
0010
0001
0000
0000
0001
1000
0000
0000
1000
0001
0000
0000
0001
,
0100
0000
0000
0100
1000
0000
0000
1000
0001
0000
0000
0001
1000
0000
0000
0000
,
1100
1100
0101
0101
,
0001
0010
0100
0000
1010
0000
1001
0000
,
1100
0100
0101
0000
,
0011
0010
1010
0000
,
1100
0100
0101
0000
,
0100
0010
0100
0000
0100
0001
1000
0000
,
0010
0100
0010
0000
0010
1000
0100
0010
,
0001
1000
0001
0000
0001
0100
0010
0000
,
0100
0010
0100
0000
0100
0001
0010
0100
,
1000
0000
0001
0000
1000
0000
0010
0000
0110
0000
0000
0000
0100
0000
0000
0100
,
1000
0000
0000
1000
0001
0000
0000
0001
1000
0000
0000
1000
0010
0000
0000
0010
,
0001
0000
0000
0001
1000
0000
0000
1000
0001
0000
0000
0000
0011
0000
0000
0000
,
1100
0011
1100
1001
,
1000
0000
0100
0000
0010
0000
0000
0000
1001
0000
0000
0000
0010
0000
0000
0010
,
0001
0000
0000
0001
1000
0000
0000
1000
0001
0000
0000
0001
0100
0000
0000
0100
,
1000
0000
0000
1000
0001
0000
0000
0001
1000
0000
0000
0000
1100
0000
0000
0000
,
0011
1100
0011
0110
,
0110
0110
1001
0000
;

//---------------dance-single - ----------------
#NOTES:
     dance-single:
     :
     Beginner:
     2:
     0.130,0.158,0.157,0.000,0.000:
0000
0000
0000
0000
,
0000
0000
0000
0000
,
0000
0000
0000
0000
,
0010
0000
0000
0000
,
0010
0000
0000
0000
,
1000
0000
0000
0000
,
0001
0000
0001
0000
,
0100
0000
0100
0000
,
0110
0000
0000
0000
,
0001
0000
0000
0000
,
1000
0000
1000
0000
,
0001
0000
0100
0000
,
0100
0000
0110
0000
,
0001
0000
0001
0000
,
1000
0000
1000
0000
,
0001
0000
0001
0000
,
1000
0000
1001
0000
,
1000
0000
1000
0000
,
0001
0000
0001
0000
,
0100
0000
0100
0000
,
0110
0000
0000
0000
,
1001
0000
0001
0000
,
1000
0000
0001
0000
,
0100
0000
0100
0000
,
0110
0000
0000
0000
,
1001
0000
0000
0000
,
1000
0000
0000
0000
,
0001
0000
0000
0000
,
1000
0000
0000
0000
,
0010
0000
0000
0000
,
0010
0000
0000
0000
,
0100
0000
0000
0000
,
0100
0000
0000
1001
,
0000
1000
0000
1000
,
0000
0000
0000
0010
,
0000
0010
0000
0110
,
0000
0000
0000
1001
,
0000
0001
0000
0001
,
0000
0000
0000
0100
,
0000
0100
0000
0110
,
0000
0000
1001
0000
;

//---------------dance-single - ----------------
#NOTES:
     dance-single:
     :
     Challenge:
     8:
     0.572,0.528,0.613,0.157,0.143: // measure 1
0000
0000
0000
0000
,  // measure 2
0000
0000
0000
0000
,  // measure 3
1100
1001
1100
1001
,  // measure 4
1000
0000
0000
1000
0100
0000
0000
0100
0010
0000
0000
0010
0001
0000
0000
0001
,  // measure 5
1000
0000
0000
1000
0100
0000
0000
0100
0010
0000
0000
0010
0001
0000
0000
0000
,  // measure 6
0100
0000
0000
0001
1000
0000
0100
0000
1000
0000
0001
0000
1000
0000
0100
0000
,  // measure 7
1000
0000
0000
0001
1000
0000
0100
0000
1000
0000
0001
0000
1000
0000
0100
0000
,  // measure 8
1100
0110
1100
1001
,  // measure 9
0001
0100
0010
1000
0001
0000
1001
0000
,  // measure 10
0010
0000
0000
1000
0001
0000
0010
0000
0001
0000
1000
0000
0001
0000
0010
0000
,  // measure 11
0001
0000
0000
1000
0001
0000
0010
0000
0001
0000
1000
0000
0001
0000
0010
0000
,  // measure 12
0011
0110
0011
1001
,  // measure 13
0001
0100
0010
1000
0001
0000
1001
0000
,  // measure 14
1000
0010
1000
0010
1000
0100
0001
1000
,  // measure 15
0001
0010
0001
0010
1000
0100
0010
0000
,  // measure 16
0001
0100
0001
0100
0001
0010
1000
0010
,  // measure 17
0001
1001
0110
1001
,  // measure 18
0001
0100
0001
0100
0001
0010
1000
0001
,  // measure 19
1000
0100
1000
0100
0001
0010
0100
0000
,  // measure 20
1000
0010
1000
0010
1000
0100
0001
0100
,  // measure 21
1000
1001
0110
1001
,  // measure 22
0010
0000
0000
1000
0001
0000
0010
0000
0001
0000
0100
0000
0001
0000
0010
0000
,  // measure 23
0001
0000
0000
1000
0001
0000
0100
0000
0001
0000
0010
0000
0001
0000
0100
0000
,  // measure 24
0101
0110
0101
1001
,  // measure 25
1000
0010
0100
0001
1000
0000
1001
0000
,  // measure 26
2200
0000
0000
3300
0202
0000
0000
0303
,  // measure 27
2200
0000
0000
3300
0202
0000
0000
0303
,  // measure 28
0220
0000
0000
0330
2002
0000
0000
3003
,  // measure 29
0100
0000
0000
0100
0001
0000
0000
0100
0001
0000
1000
0100
1000
0000
0000
0000
,  // measure 30
1000
0010
0100
0001
1000
0100
0001
0100
,  // measure 31
1000
0100
0010
0001
0100
0010
1000
0001
,  // measure 32
0010
0100
1000
0100
0001
0100
1000
0001
,  // measure 33
1000
0000
0100
0000
0010
0000
0100
0000
1001
0000
0000
0000
1001
0000
0000
1000
,  // measure 34
0010
0000
0100
0000
0010
0000
1000
0000
0001
0000
1000
0000
0001
0010
0001
0010
,  // measure 35
0001
0100
0010
0100
0001
1000
1001
0000
,  // measure 36
0011
0000
1001
0000
0011
0000
0001
0100
,  // measure 37
0010
0000
1000
0000
0001
0000
0000
0000
0110
0000
0000
0000
1001
0000
0000
0001
,  // measure 38
0100
0000
0010
0000
0100
0000
0001
0000
1000
0000
0001
0000
1000
0100
1000
0100
,  // measure 39
1000
0010
0100
0010
1000
0001
1001
0000
,  // measure 40
1100
1001
1100
1001
,  // measure 41
1100
0101
1001
0000
;
