#TITLE:All Good Things (Come to an End);
#SUBTITLE:;
#ARTIST:Hamel & Naughty G.;
#TITLETRANSLIT:;
#SUBTITLETRANSLIT:;
#ARTISTTRANSLIT:;
#GENRE:;
#CREDIT:;
#BANNER:All Good Things (Come to an End).png;
#BACKGROUND:All Good Things (Come to an End)-bg.png;
#LYRICSPATH:;
#CDTITLE:./CDTITLES/DanceDanceRevolution HOTTEST PARTY 2.png;
#MUSIC:All Good Things (Come to an End).mp3;
#OFFSET:1.933;
#SAMPLESTART:24.047;
#SAMPLELENGTH:15.000;
#SELECTABLE:YES;
#BPMS:0.000=120.000;
#STOPS:;
#BGCHANGES:;
#KEYSOUNDS:;

//---------------dance-single - PanStyle----------------
#NOTES:
     dance-single:
     PanStyle:
     Hard:
     8:
     0.671,0.599,0.253,0.365,0.623,403.000,25.000,36.000,0.000,0.000,0.000,0.671,0.599,0.253,0.365,0.623,403.000,25.000,36.000,0.000,0.000,0.000:
0000
0000
0000
0000
,
1000
0000
0001
0100
0001
0000
0000
0000
0010
0000
0100
1000
0100
0000
0000
0000
,
1000
0000
0010
0100
0010
0000
0000
0000
1000
0000
0100
0010
0100
0000
0000
0000
,
1000
0000
0001
0100
0001
0000
0000
0000
0010
0000
0100
1000
0100
0000
0000
0000
,
1000
0000
0001
0010
0001
0000
0000
0000
0100
0000
0001
1000
0001
0000
1000
0010
,
1000
0000
0000
1001
0000
0000
1100
0000
0000
0000
0100
0000
0010
0000
0001
0000
,
0011
0000
0000
1001
0000
0000
0101
0000
0000
0000
0100
0000
0010
0000
1000
0000
,
1010
0000
0000
1001
0000
0000
1100
0000
0000
0000
0100
0000
0010
0000
1000
0000
,
0020
0000
0032
0000
2003
0000
3010
1000
,
1010
0000
0000
0110
0000
0000
0101
0000
0000
0000
0002
0000
0000
0000
0003
0000
,
1001
0000
0000
0011
0000
0000
1001
0000
0000
0000
1000
0000
0010
0000
0100
0000
,
0101
0000
0000
0110
0000
0000
1010
0000
0000
0000
1000
0000
0001
0000
0010
0000
,
0200
0000
0320
0000
0032
0000
2003
3000
,
0001
0010
0100
1000
0000
0001
1000
0000
0010
0100
0001
1000
0000
0001
0100
0000
,
0010
1000
0001
0100
0000
0010
1000
0000
0100
0010
0100
1000
0000
0010
0100
0000
,
0010
1000
0100
0010
0000
0001
0010
0000
0001
0010
0100
1000
0000
0001
1000
0000
,
0010
0100
0001
0010
0000
0100
1000
0000
0010
1000
0001
0010
0000
0100
1000
0000
,
0100
0010
0001
1000
0000
0001
1000
0000
0001
0010
0100
1000
0000
0001
0100
0000
,
0010
0100
0001
1000
0000
0010
0100
0000
0001
1000
0100
0010
0000
0001
1000
0000
,
0100
0010
0100
1000
0000
0001
1000
0000
0010
0100
0001
1000
0000
0100
0010
0000
,
0001
0100
0010
1000
0000
0001
1000
0000
0001
0010
0100
0010
0000
0001
0010
0000
,
0022
0000
0033
0000
0000
0000
0000
0000
0000
0000
0000
0000
0002
0000
0003
0000
0000
0000
0000
0000
0000
0000
0000
0000
0002
0003
0000
0000
0000
0000
0000
0000
0200
0000
0000
0000
0000
0000
0000
0000
0300
0000
0000
0000
0000
0000
0000
0000
0010
0000
0000
0000
0000
0000
0000
0000
1000
0000
0000
0000
0000
0000
0000
0000
,
0002
0000
0003
0000
2000
3000
0100
0010
,
0001
0010
1000
0010
0001
1000
0010
2000
,
3000
0000
1000
0001
0100
0000
0100
0010
,
1000
0000
0001
0010
0001
0000
0010
0000
2000
0000
3000
0000
0010
0000
0001
0000
,
1000
0100
0010
0001
0200
0300
0010
1000
,
0100
0010
0100
1000
0001
1000
0010
2000
,
3000
0000
0000
0000
1000
0000
0010
0000
0200
0300
0000
0000
0100
0000
0001
0000
,
0020
0030
0001
0000
1000
0000
0010
0000
0001
0000
0010
0000
1000
0000
0100
0000
,
0010
0000
0100
0000
0000
0000
0000
0000
1000
0001
1000
0000
0100
0000
0010
0000
,
1000
0010
0001
1000
1001
0000
0110
0000
,
1001
0000
0001
0000
1000
0010
1000
0000
0100
0000
0001
0000
0100
0000
1000
0000
,
0012
0000
1000
0000
0103
0000
0000
0000
0001
0100
0001
0000
1000
0000
0010
0000
,
0100
0000
0000
0110
0000
0000
0000
0010
1000
0000
0001
0000
0100
0000
0010
0000
,
1000
0001
0000
1001
0000
0000
0000
0001
0100
0000
0010
0000
1000
0000
0100
0000
,
0010
0001
0010
0000
0001
0000
0100
0000
2000
3000
0200
0000
0302
0000
0000
0000
,
0103
0010
1000
0001
0000
1000
0100
0000
0010
0001
0100
0010
0000
0100
0001
0000
,
0010
0100
1000
0001
0000
1000
0100
0000
0010
0001
1000
0001
0000
1000
0010
0000
,
0100
0001
1000
0100
0000
0010
0100
0000
1000
0001
0100
0010
0000
0100
0001
0000
,
1000
0100
0010
0001
0000
1000
0001
0000
0010
0100
0010
0001
0000
1000
0010
0000
,
0100
0001
1000
0100
0000
0010
0001
0000
1000
0010
0100
0010
0000
1000
0100
0000
,
0010
0100
1000
0010
0000
0100
0001
0000
0100
0010
0100
0001
0000
1000
0010
0000
,
0100
0001
0010
0100
0000
1000
0001
0000
0100
0001
1000
0001
0000
0010
0001
0000
,
0100
0010
1000
0001
0000
0010
0100
0000
1000
0100
0010
0001
0000
1000
0010
0000
,
2020
0000
3030
0000
0000
0000
0000
0000
0000
0000
0000
0000
2000
0000
3000
0000
0000
0000
0000
0000
0000
0000
0000
0000
2000
3000
0000
0000
0000
0000
0000
0000
0002
0000
0000
0000
0000
0000
0000
0000
0003
0000
0000
0000
0000
0000
0000
0000
0100
0000
0000
0000
0000
0000
0000
0000
0010
0000
0000
0000
0000
0000
0000
0000
,
2000
3000
0001
0000
0020
0030
1000
0010
,
0002
0003
1000
0000
0000
0001
0100
0020
,
0030
0000
1000
0010
0002
0003
0010
1000
,
0200
0300
0000
0000
;

//---------------dance-single - PanStyle----------------
#NOTES:
     dance-single:
     PanStyle:
     Challenge:
     9:
     0.764,0.748,0.314,0.466,0.795,451.000,31.000,46.000,0.000,0.000,0.000,0.764,0.748,0.314,0.466,0.795,451.000,31.000,46.000,0.000,0.000,0.000:
0000
0000
0000
0000
,
0001
0000
0100
0010
1000
0000
0100
0000
0001
0000
0100
1000
0001
0000
0100
0000
,
0010
0000
1000
0001
0100
0000
0010
0000
1000
0000
0100
0010
0001
0000
1000
0000
,
0100
0000
0010
0100
1000
0000
0010
0000
0100
0000
1000
0100
0001
0000
0010
0000
,
1000
0000
0010
0100
1000
0000
0010
0000
0100
0000
0001
0100
0010
0000
1000
0001
,
1001
0000
0000
1010
0000
0000
1001
0000
0001
0000
1000
0000
0010
0000
0100
0000
,
0101
0000
0000
1001
0000
0000
0011
0000
0010
0000
0001
0000
0010
0000
0100
0000
,
1100
0000
0000
1001
0000
0000
1010
0000
1000
0000
0010
0000
0100
0000
0010
0000
,
2000
0000
3200
0000
0320
0000
0031
1000
,
1001
0000
0000
1010
0000
0000
0110
0000
0010
0000
0200
0000
0000
0000
0300
0000
,
0101
0000
0000
1001
0000
0000
0011
0000
0010
0000
0001
0000
0100
0000
0010
0000
,
1010
0000
0000
0110
0000
0000
0101
0000
0100
0000
0001
0000
0100
0000
0010
0000
,
0002
0000
2003
0000
3200
0000
0302
0003
,
1000
0100
0010
0001
0000
1000
0010
1000
0001
0010
0100
1000
0000
0001
0100
0010
,
1000
0010
0100
0001
0000
1000
0001
0010
0100
1000
0100
0010
0000
0001
1000
0010
,
0100
0001
0100
0010
0000
1000
0100
0010
0001
0010
0100
1000
0000
0001
1000
0001
,
0010
0100
1000
0001
0000
0100
0010
0100
0001
1000
0100
0010
0000
0001
0010
0001
,
0100
0010
0100
0001
0000
1000
0001
0100
0010
1000
0100
1000
0000
0010
0100
0001
,
1000
0100
0010
0001
0000
1000
0010
0100
0001
1000
0100
0010
0000
0001
1000
0001
,
0100
0001
1000
0010
0000
0100
0001
0100
0010
0100
0001
1000
0000
0100
0010
0001
,
0010
0100
1000
0001
0000
0100
0010
1000
0001
0100
0010
1000
0000
0001
0010
0100
,
2200
0000
3300
0000
0000
0000
0000
0000
0000
0000
0000
0000
2002
0000
3003
0000
0000
0000
0000
0000
0000
0000
0000
0000
0202
0303
0000
0000
0000
0000
0000
0000
0002
0000
0000
0000
0000
0000
0000
0000
0003
0000
0000
0000
0000
0000
0000
0000
0010
0000
0000
0000
0000
0000
0000
0000
1000
0000
0000
0000
0000
0000
0000
0000
,
0020
0000
0030
0000
0002
0003
1000
0100
,
0001
0100
0010
0001
1000
0001
0100
0020
,
0000
0030
0100
0001
0100
0000
0100
0010
,
1010
0000
1000
0010
1000
0000
0100
0000
0020
0000
0030
0000
0100
0000
1000
0000
,
0010
0000
0100
0001
1000
0000
0100
0000
0002
0000
0003
0000
0100
0000
1000
0000
,
0010
0000
0100
0001
1000
0000
0100
0000
0010
0000
0002
0003
2000
3000
0002
0000
,
0000
0000
0000
0000
0203
0300
2000
3000
0002
0000
0000
0000
0023
0030
2000
3000
,
1100
0100
0110
0010
0001
0100
0010
0100
,
0001
0000
1000
0000
0100
0000
0000
0000
0010
0001
0100
0000
0010
0000
0001
0000
,
0010
1000
0100
0010
2000
3000
0002
0003
,
0100
0000
1000
0000
0001
0100
0010
0000
0001
0000
0010
0000
0100
0000
0001
0000
,
1001
0000
0001
0000
0101
0000
0000
0000
1000
0001
0100
0000
0010
0000
0100
0000
,
0001
0000
0000
1001
0000
0000
0000
0010
1000
0000
0100
0000
0001
0000
0100
0000
,
1000
0001
0000
1001
0000
0000
0000
0001
0100
0000
1000
0000
0100
0000
0001
0000
,
0010
1000
0001
0000
0100
0000
1000
0000
0200
0000
0320
0000
0032
0000
0000
0000
,
1003
0100
0010
0100
0000
1000
0010
0100
0001
0010
0100
0010
0000
0001
0010
0100
,
1000
0100
0010
0001
0000
0100
0010
1000
0001
0100
0010
1000
0000
0100
0010
0001
,
1000
0001
0100
0010
0000
0100
0010
1000
0010
0100
0001
1000
0000
0100
0010
0001
,
0010
0100
1000
0001
0000
0100
0010
1000
0010
0100
0010
1000
0000
0100
0010
0001
,
0010
0100
0010
0001
0000
1000
0010
0100
0001
1000
0100
0010
0000
0001
0100
0001
,
1000
0001
0010
0001
0000
1000
0001
0100
0010
1000
0001
0100
0000
0010
1000
0001
,
0100
0010
1000
0100
0000
0010
0001
1000
0001
0010
0001
1000
0000
0010
0100
0010
,
1000
0010
0100
0001
0000
1000
0100
0010
0001
1000
0001
0100
0000
0010
0100
0001
,
2002
0000
3003
0000
0000
0000
0000
0000
0000
0000
0000
0000
2020
0000
3030
0000
0000
0000
0000
0000
0000
0000
0000
0000
2200
3300
0000
0000
0000
0000
0000
0000
0200
0000
0000
0000
0000
0000
0000
0000
0300
0000
0000
0000
0000
0000
0000
0000
0010
0000
0000
0000
0000
0000
0000
0000
1000
0000
0000
0000
0000
0000
0000
0000
,
0020
0000
0130
0000
2000
3000
0010
0100
,
2000
0000
3100
0000
0000
0010
1000
0200
,
0000
0300
0010
0100
2000
3000
0001
0100
,
2000
3000
0000
0000
;

//---------------dance-single - PanStyle----------------
#NOTES:
     dance-single:
     PanStyle:
     Easy:
     3:
     0.278,0.225,0.010,0.233,0.000,168.000,1.000,23.000,0.000,0.000,0.000,0.278,0.225,0.010,0.233,0.000,168.000,1.000,23.000,0.000,0.000,0.000:
0000
0000
0000
0000
,
1000
1000
0001
0001
,
0100
0100
0010
0010
,
1000
0100
1000
0001
,
0100
0001
0100
0010
,
2000
3000
0000
0000
1000
0000
0010
0000
,
0200
0300
0000
0000
0100
0000
0001
0000
,
2000
3000
0000
0000
0100
0000
0010
0000
,
0002
0003
0000
0000
0001
0000
1000
0000
,
0002
0003
0000
0000
0100
0000
0010
0000
,
2000
3000
0000
0000
0100
0000
0010
0000
,
0002
0003
0000
0000
0100
0000
0010
0000
,
2000
3000
0000
0000
0001
0000
1000
0000
,
1001
0001
0100
0010
,
1000
0001
1000
0100
,
0010
0001
1000
0001
,
0100
0010
1000
0100
,
0010
0100
1000
0001
,
0100
0010
1000
0001
,
0100
0001
1000
0100
,
0010
0001
0001
1000
,
2000
3000
0000
0000
0001
0000
0001
0000
,
0002
0003
0000
0000
0100
0000
0100
0000
,
0200
0300
0000
0000
0000
0000
0001
0000
,
1000
0000
1000
0001
,
2000
3000
0000
0000
0010
0000
0010
0000
,
0020
0030
0000
0000
0100
0000
0100
0000
,
0200
0300
0000
0000
0000
0000
0001
0000
,
1000
1000
0100
0100
,
0020
0030
0001
0000
1000
0000
0001
0000
,
0100
0010
1000
0001
,
0200
0300
0000
0000
0001
0000
1000
0000
,
0100
0010
0100
1000
,
0001
0000
2000
3000
0000
0000
0001
0000
,
0100
0100
0010
1000
,
1000
0001
0100
0010
,
0100
0001
2000
0002
,
0000
3000
1003
0001
,
1000
0001
0100
0001
,
1000
0001
0010
0100
,
1000
0100
0010
0100
,
1000
0001
0100
0001
,
1000
0010
1000
0010
,
0100
0001
0100
0001
,
1000
0100
0010
0001
,
2000
3000
0000
0000
0010
0000
0010
0000
,
0020
0030
0000
0000
0100
0000
0100
0000
,
0200
0300
0000
0000
0000
0000
0001
0000
,
0100
0001
1000
1000
,
2000
3000
0000
0000
;

//---------------dance-single - PanStyle----------------
#NOTES:
     dance-single:
     PanStyle:
     Medium:
     6:
     0.546,0.524,0.091,0.658,0.041,303.000,9.000,65.000,0.000,0.000,0.000,0.546,0.524,0.091,0.658,0.041,303.000,9.000,65.000,0.000,0.000,0.000:
0000
0000
0000
0000
,
0001
1010
0010
0101
,
0100
1001
1000
0101
,
0001
1010
1000
0011
,
0010
0000
0000
0000
1001
0000
0000
0000
0001
0000
0000
0000
1001
0000
0001
1000
,
0001
0000
0000
1000
0000
0000
0100
0000
0000
0000
0010
0000
0001
0000
1000
0000
,
0010
0000
0000
0100
0000
0000
0001
0000
0000
0000
1000
0000
0001
0000
0100
0000
,
0010
0000
0000
1000
0000
0000
0100
0000
0000
0000
0010
0000
0001
0000
0100
0000
,
0020
0030
0200
0300
0002
0003
0000
1000
,
0100
0000
0000
0010
0000
0000
0100
0000
0000
0000
2000
0000
0000
0000
3000
0000
,
0001
0000
0000
0001
0000
0000
0001
0000
0000
0000
1000
0000
0001
0000
0100
0000
,
0010
0000
0000
1000
0000
0000
0001
0000
0000
0000
0001
0000
1000
0000
0100
0000
,
0020
0030
2000
3000
0020
0030
0002
0003
,
1000
0100
0010
0100
1000
0001
0010
0100
,
0010
0001
0100
0010
0100
0001
1000
0100
,
1000
0001
0100
0001
1000
0010
0100
0001
,
0100
0010
0100
0001
1000
0001
0010
0001
,
0100
0010
1000
0100
0010
0001
0010
0100
,
1000
0001
0010
0100
0010
0001
0010
0001
,
1000
0010
0100
0001
1000
0100
0010
0100
,
1000
0001
0100
0010
0200
0300
0002
2003
,
3200
0000
0300
0000
2000
3000
0002
0203
,
0302
0000
0003
0000
0020
0030
0200
2300
,
3002
0103
0010
1000
0001
0200
0320
2030
,
0000
0000
0000
0000
0000
0000
0000
0000
0000
0000
0000
0000
0000
0000
0000
0000
0000
0000
0000
0000
0000
0000
0000
0000
3000
0000
0000
0000
0000
0000
0000
0000
0000
0000
0000
0000
0000
0000
0000
0000
0000
0000
0000
0000
0000
0000
0000
0000
0200
0000
0000
0000
0000
0000
0000
0000
0000
0000
0000
0000
0000
0000
0000
0000
0000
0000
0000
0000
0000
0000
0000
0000
0320
0000
0000
0000
0000
0000
0000
0000
0000
0000
0000
0000
0000
0000
0000
0000
0000
0000
0000
0000
0000
0000
0000
0000
0032
0000
0000
0000
0000
0000
0000
0000
0000
0000
0000
0000
0000
0000
0000
0000
0000
0000
0000
0000
0000
0000
0000
0000
0000
0000
0000
0000
0000
0000
0000
0000
0000
0000
0000
0000
0000
0000
0000
0000
0000
0000
0000
0000
0000
0000
0000
0003
0002
0000
0000
0000
0000
0000
0000
0000
0000
0000
0000
0000
0000
0000
0000
0000
0000
0000
0000
0000
0000
0000
0000
0000
0203
0000
0000
0000
0000
0000
0000
0000
0000
0000
0000
0000
0000
0000
0000
0000
0000
0000
0000
0000
0000
0000
0000
0000
,
0320
1030
0100
0001
0200
0300
2000
3020
,
0230
0000
0300
0000
0002
0003
2000
3200
,
0302
0103
0010
0001
0100
0020
2030
3002
,
0000
0003
0002
0203
0320
0030
0020
0230
,
0302
1003
0001
0000
0100
0010
1000
0100
,
0010
0001
0000
0000
0001
0100
0010
1000
,
0001
0100
0010
1000
0200
0300
0020
0030
,
0001
0100
0010
0100
0001
0010
1000
0010
,
0001
0100
0010
0000
0100
0010
1000
0001
,
1000
0000
0001
0000
0100
0010
1000
0010
,
0100
0001
0010
0000
0001
0100
0010
0000
,
0100
0000
0001
0000
1000
0100
0010
0000
,
1001
0001
0100
0010
1000
0001
0100
0010
,
0100
0001
0010
0100
1000
0100
0010
0100
,
1000
0001
0010
0001
1000
0010
1000
0100
,
1000
0001
0100
1000
0100
0001
1000
0100
,
0010
0100
0010
0001
1000
0010
0001
0010
,
1000
0100
1000
0001
0100
0001
0100
0010
,
0100
0001
1000
0100
0010
0001
0100
1000
,
0100
0001
0100
0010
1000
0001
0010
0100
,
1000
0000
0000
1000
0000
0000
1000
0000
0200
0000
0300
0000
0020
0000
0032
0000
,
2003
0000
3000
0000
0020
0030
0200
0320
,
2030
0000
3000
0000
0000
0200
0320
0032
,
0000
0003
0200
0320
2030
0000
3020
0230
,
0302
0003
0000
0000
;

//---------------dance-single - PanStyle----------------
#NOTES:
     dance-single:
     PanStyle:
     Beginner:
     1:
     0.162,0.149,0.000,0.020,0.000,110.000,0.000,2.000,0.000,0.000,0.000,0.162,0.149,0.000,0.020,0.000,110.000,0.000,2.000,0.000,0.000,0.000: // measure 1
0000
0000
0000
0000
,  // measure 2
1000
0000
1000
0000
,  // measure 3
0001
0000
0001
0000
,  // measure 4
0100
0000
0100
0000
,  // measure 5
0010
0000
0010
0000
,  // measure 6
1000
0000
0001
0000
,  // measure 7
0001
0000
1000
0000
,  // measure 8
0010
0000
0100
0000
,  // measure 9
0100
0000
0010
0000
,  // measure 10
1000
0000
0001
0000
,  // measure 11
0001
0000
1000
0000
,  // measure 12
0010
0000
0100
0000
,  // measure 13
0001
0000
0010
0000
,  // measure 14
0001
0000
0001
0001
,  // measure 15
0001
0000
0100
0100
,  // measure 16
0100
0000
0000
0010
,  // measure 17
0010
0000
1000
0000
,  // measure 18
0001
0000
1000
1000
,  // measure 19
1000
0000
0001
0001
,  // measure 20
0001
0000
0000
0100
,  // measure 21
0100
0000
0010
0000
,  // measure 22
1000
0000
1000
0000
,  // measure 23
0001
0000
0001
0000
,  // measure 24
0100
0000
0000
0001
,  // measure 25
0001
0000
1000
0000
,  // measure 26
0010
0000
0100
0100
,  // measure 27
0100
0000
0010
0010
,  // measure 28
0010
0000
1000
0000
,  // measure 29
0001
0000
0010
0000
,  // measure 30
0100
0100
0000
1000
,  // measure 31
0000
0001
0000
0100
,  // measure 32
0100
0000
0010
0000
,  // measure 33
1000
0000
1000
0000
,  // measure 34
0001
0001
0000
0000
,  // measure 35
1000
0000
0010
0000
,  // measure 36
0100
0000
0001
0000
,  // measure 37
1000
0000
0001
0002
,  // measure 38
0000
0003
1000
1000
,  // measure 39
1000
0000
0001
0001
,  // measure 40
0001
0000
0000
0100
,  // measure 41
0100
0000
0010
0000
,  // measure 42
0100
0000
0001
0001
,  // measure 43
0001
0000
0100
0100
,  // measure 44
0100
0000
0000
0010
,  // measure 45
0010
0000
0100
0000
,  // measure 46
0001
0000
1000
1000
,  // measure 47
1000
0000
0001
0001
,  // measure 48
0001
0000
0000
0100
,  // measure 49
0100
0000
0010
0000
,  // measure 50
0020
0030
0000
0000
0000
0000
0000
0000
;
