#TITLE:A (DDR EDIT);
#SUBTITLE:;
#ARTIST:D.J.Amuro;
#TITLETRANSLIT:;
#SUBTITLETRANSLIT:;
#ARTISTTRANSLIT:;
#CREDIT:;
#BANNER:A.png;
#BACKGROUND:A-bg.png;
#LYRICSPATH:;
#CDTITLE:./CDTITLES/BEATMANIA IIDX.PNG;
#MUSIC:A.mp3;
#OFFSET:-0.137;
#SAMPLESTART:63.680;
#SAMPLELENGTH:12.000;
#SELECTABLE:YES;
#BPMS:0.000=93.000,80.000=382.000,84.000=191.000;
#STOPS:80.000=1.280
,144.000=0.942
;
#BGCHANGES:;

//---------------dance-single - ----------------
#NOTES:
     dance-single:
     :
     Hard:
     9:
     0.633,0.841,0.247,0.079,0.276:
0000
0000
0000
0000
,
0000
0000
0000
0000
,
1000
0100
0001
0100
0000
0110
0000
1001
,
1000
0000
0001
0000
0100
0000
0001
0000
0010
0000
0001
0000
0011
0000
0001
0100
,
0001
0000
1000
0100
1000
0000
0001
1000
0001
0100
0001
0010
0001
0000
0001
1000
,
0100
0000
1000
0010
0100
0000
0010
1000
0001
0010
0001
0100
0110
0000
0110
0000
,
0110
0000
0010
1000
0001
0000
0001
0010
0001
0000
0100
0000
0010
0000
1000
0000
,
0100
0000
1000
0100
1000
0000
0001
0000
0100
0000
0010
1000
0001
0010
0001
0100
,
0101
0000
0001
0000
0100
0000
0010
0000
0000
0000
1010
0000
0000
0000
0101
0001
,
0100
0000
0000
0010
0100
0000
0000
0010
1000
0000
0000
1000
1100
0000
1000
0000
,
1000
0000
0001
0100
0010
0000
0100
0000
0000
0000
0110
0000
0000
0000
1000
0100
,
0010
0001
0010
0100
0000
1000
1100
0010
,
1000
0001
0101
0101
0101
0000
0000
0000
,
0001
1000
0001
0100
0000
0010
1100
0011
,
0210
0310
0002
0103
0010
2000
3100
0002
,
0103
0000
0010
1000
0001
0000
1000
0000
0001
0000
1000
0100
0010
0001
0010
0100
,
1000
0100
1000
0100
0000
0010
0000
0010
,
0000
0001
0100
0001
0000
0001
0100
0000
,
0000
0010
0010
1000
0000
0010
0100
0000
,
0000
1000
0001
0100
0000
0110
0000
2002
,
3000
0000
0000
0000
,
1003
0100
1000
0000
0001
0100
0010
0000
,
0010
1000
0001
0010
0000
0001
0010
0001
,
0100
0010
0100
0000
0010
1000
0001
0000
,
1000
0001
0100
0001
0000
0001
0010
1000
,
0100
1000
0000
1100
0000
0001
0000
0101
,
0000
1001
0000
1100
0000
1000
0001
0100
,
0010
0100
0010
0000
1000
0001
0010
0000
,
1000
0001
0000
0001
0010
0000
0010
0100
0000
0100
1000
0000
0001
0000
0100
0000
,
0010
0100
0010
1000
0001
0010
0001
0100
,
0010
1000
0100
0010
0001
0100
0001
1000
,
0001
0100
0001
0010
0001
0100
0001
0010
,
0001
0010
0100
1000
0100
0010
0001
0100
,
0010
1000
0100
0010
0100
1000
0100
0010
,
1000
0010
0100
0010
1000
0100
1000
0001
,
0100
0010
1000
0001
0010
0001
0100
0010
,
2000
0000
0000
0000
0000
0000
0000
0000
0000
0000
0000
0000
0000
0000
0000
3000
1001
0000
0000
0000
0000
0000
0000
0000
0000
0000
0000
0000
0000
0000
0000
0000
0100
0000
0000
0000
0000
0000
0000
0000
0000
0000
0000
0000
0000
0000
0000
0000
0010
0000
0000
0000
0000
0000
0000
0000
0100
0000
0000
0000
0000
0000
0000
0000
,
0010
1000
0001
0010
0001
0100
0001
0100
,
0010
1000
0100
0001
0010
0001
0100
0010
,
1000
0001
0010
1000
0100
0001
0100
0010
,
1000
0001
1000
0100
0001
0100
1000
0100
,
0001
0100
0001
0010
0001
0100
0010
1000
,
0100
1000
0010
0100
1000
0001
0010
0001
,
0100
0000
0010
0000
1000
0001
1000
0000
1000
0000
0001
0100
0000
0010
1000
0000
,
0001
0000
0100
0000
0010
0000
0000
0100
0010
0000
1000
0000
0001
0000
0000
1000
,
0100
0000
1000
0000
0100
0000
0000
1000
0100
0000
0010
0000
0001
0000
1000
0001
,
0100
0010
1000
0001
0010
1000
0001
1000
,
0001
0010
0001
0100
0010
0000
0000
0000
0000
0000
0000
0000
0010
0000
0100
0010
,
0100
0010
1000
0001
0100
0001
0010
0001
,
0100
0010
1000
0100
0001
0010
0001
0100
,
0010
0100
0010
0100
1000
0001
0010
0100
,
1000
0001
0010
0100
1000
0001
0010
0100
,
1000
0000
0001
0000
0100
0001
0100
0001
0100
0001
0100
0001
0100
0001
0100
0001
,
0100
0001
0100
0001
0100
0010
1000
0001
0010
0001
0010
0100
1000
0001
0100
0010
,
1000
0100
0010
0001
0200
0000
0000
0000
0000
0000
0000
0000
0000
0000
0000
0000
,
0300
0000
0000
0000
;

//---------------dance-single - ----------------
#NOTES:
     dance-single:
     :
     Medium:
     7:
     0.397,0.461,0.089,0.049,0.000:
0000
0000
0000
0000
,
0000
0000
0000
0000
,
0000
1000
0001
1000
0000
0001
0000
0001
,
0000
1000
0100
0010
0000
0010
0001
0100
,
0000
0001
1000
0001
0000
1000
0000
1000
,
0000
1000
0001
0100
0000
0001
0101
0001
,
0100
0001
0100
0010
0000
0010
0000
0010
,
0000
0010
1000
0001
0000
1000
1001
0000
,
1000
0001
0100
0010
0000
1000
0000
0100
,
1000
1000
1000
2100
,
3100
1000
0100
1000
0000
0100
0000
1000
,
0000
0001
0100
0010
0000
0100
0110
0000
,
0010
1000
0001
1000
0000
0001
0000
0001
,
0000
1000
0001
0100
0000
0010
1010
0000
,
0010
1000
0100
1000
0000
1000
0000
1000
,
0000
0001
1000
0100
0000
0100
1000
0000
,
0001
0001
1000
1000
,
0010
0000
0100
0000
0100
0010
1000
0000
,
0002
0103
2000
3100
,
0020
0000
0130
0000
0000
0110
0000
1001
,
0000
0000
0000
0000
,
1000
0000
0100
0000
0000
0010
0001
0000
,
0100
0000
0010
0000
0000
0100
0010
0000
,
1000
0000
0010
0000
0000
0010
0100
0000
,
0010
0000
1000
0000
0000
0010
1000
0000
,
0001
0000
1000
0000
0000
0001
0100
0000
,
1000
0000
0100
0000
0000
1000
0100
1000
,
0000
0000
0100
0000
0000
1000
0100
0000
,
1000
1000
0001
0001
,
0100
0000
0001
0100
0000
0010
0100
0000
,
0010
0000
0010
1000
0000
0010
0100
0000
,
0010
0100
0010
0000
0010
0100
0010
0000
,
0010
0010
1000
1000
,
0001
1000
0001
0000
1000
0100
1000
0000
,
0001
0010
0001
0000
0100
0001
0100
0000
,
0010
0000
1000
0000
0100
0000
0010
1000
,
0001
0000
1000
0000
1001
0000
0001
0100
,
0001
0000
1000
0000
0100
0000
1000
0100
,
1000
0000
0001
0000
0100
0000
0010
0100
,
0010
0000
0010
0000
1000
0000
0010
1000
,
0001
0000
1000
0001
1000
0000
0001
0100
,
0001
0000
1000
0100
1000
0000
0001
0100
,
0001
0000
0001
0000
0100
0000
0010
0100
,
0010
0000
0100
0000
0110
0000
0010
1000
,
0010
1000
1000
0001
,
0001
1000
0001
1000
,
0001
0000
1000
0100
0010
0001
1000
0100
,
0010
0001
0010
0000
0000
0000
0001
0010
,
0001
0000
0100
0000
0010
0000
0010
0100
,
0010
0000
0001
0000
1000
0000
0010
1000
,
0010
0000
1000
0001
1000
0001
1000
0001
,
1000
0001
1000
0001
1000
0001
1000
0001
,
1000
0001
0100
0001
0100
0010
1000
0100
,
0010
0001
0010
0100
1000
0100
0010
0001
,
0100
0010
2000
0000
0000
0000
0000
0000
,
3000
0000
0000
0000
;

//---------------dance-single - ----------------
#NOTES:
     dance-single:
     :
     Easy:
     5:
     0.330,0.326,0.069,0.099,0.000:
0000
0000
0000
0000
,
0000
0000
0000
0000
,
1000
0001
0200
0301
,
0001
1000
0200
1300
,
1000
0001
0200
0310
,
0010
1000
0200
1300
,
0001
1000
0002
0103
,
0001
0000
1000
0000
0200
0000
1300
0010
,
0100
0000
0010
0000
1000
0000
0010
1000
,
0100
0000
0100
0000
0100
0000
1100
1000
,
0100
1000
0100
0010
,
0000
0001
1000
0001
0000
1000
1001
0000
,
1001
0000
0001
1000
0000
1000
0000
1000
,
0000
0001
0100
0010
,
2000
0000
0000
0000
0000
0000
0000
3100
,
2000
3010
0002
0103
,
0000
1000
1000
1000
0000
0001
0000
1000
,
0000
0001
1000
0001
0000
1000
0001
0000
,
0000
0001
1000
0001
0000
1000
0001
0000
,
0000
0001
1000
0001
0000
1001
0000
1001
,
0000
0000
0000
0000
,
1000
0001
0000
1000
,
0001
0100
0000
0100
,
0001
0010
0000
0010
,
0001
0100
0000
0100
,
0010
1000
0000
1000
,
1000
0010
0000
0010
,
1000
0001
0000
1000
,
0001
0001
1000
1000
,
0001
1000
0001
0000
1000
0000
0001
0000
,
0100
0010
1000
0100
,
1000
0100
1000
0000
0100
0000
1000
0000
,
0010
0001
0100
0001
,
1000
0001
1000
0000
0001
0000
0100
0000
,
0010
0100
0010
0000
0100
0000
0010
0000
,
1000
0000
0010
0000
0010
1000
0100
1000
,
0010
0000
1000
0000
1001
0000
0001
0100
,
0001
0000
1000
0000
0001
0000
0100
0001
,
0100
0000
0010
0000
0100
0000
0010
0100
,
0010
0000
0100
0000
0010
0000
1000
0010
,
1000
1000
1000
0001
,
0001
0100
0100
0010
,
0010
1000
0001
0100
,
0010
0000
1000
0010
1000
0000
0001
0100
,
0001
1000
1000
1000
,
1000
0001
0001
0001
,
0001
0100
0100
0100
,
0100
0110
0000
0010
,
0000
0010
0010
0010
,
0010
0010
0010
0010
,
0010
1000
0001
0100
,
0010
1000
0100
1000
,
0010
0001
0100
0010
,
0100
0000
0010
0000
1000
0000
0010
1000
,
0001
0100
0020
0000
0000
0000
0000
0000
,
0030
0000
0000
0000
;

//---------------dance-single - ----------------
#NOTES:
     dance-single:
     :
     Beginner:
     2:
     0.109,0.187,0.049,0.000,0.000: // measure 1
0000
0000
0000
0000
,  // measure 2
0000
0000
0000
0000
,  // measure 3
0010
0000
0000
0000
,  // measure 4
0010
0000
0000
0000
,  // measure 5
0001
0000
0000
0000
,  // measure 6
1000
0000
0000
0000
,  // measure 7
0010
0000
0000
0000
,  // measure 8
0100
0000
0000
0010
,  // measure 9
0010
0000
0000
0000
,  // measure 10
1000
1000
1000
1001
,  // measure 11
0000
0000
0000
0000
,  // measure 12
0001
0000
0000
0100
,  // measure 13
0100
0000
0000
0000
,  // measure 14
0010
0000
0001
0000
,  // measure 15
1000
0000
0000
0000
,  // measure 16
0001
0000
1000
0000
,  // measure 17
0100
0000
0000
0000
,  // measure 18
0100
0000
0000
0000
,  // measure 19
0100
0000
0000
0000
,  // measure 20
0100
0000
0000
0000
,  // measure 21
0000
0000
0000
0000
,  // measure 22
1000
0000
0000
0000
,  // measure 23
0001
0000
0000
0000
,  // measure 24
0010
0000
0000
0000
,  // measure 25
0100
0000
0000
0010
,  // measure 26
0010
0000
0000
0000
,  // measure 27
1000
0000
0000
0000
,  // measure 28
0001
0000
0000
0000
,  // measure 29
1000
0000
1000
0000
,  // measure 30
1001
0000
0000
0000
,  // measure 31
0010
0000
0010
0000
,  // measure 32
0010
0000
0000
0000
,  // measure 33
0100
0000
0100
0000
,  // measure 34
0100
0000
0000
0000
,  // measure 35
0010
0000
0010
0000
,  // measure 36
0010
0000
0000
0000
,  // measure 37
1001
1001
0000
0001
,  // measure 38
0000
0001
0000
0001
,  // measure 39
0000
1000
0000
1000
,  // measure 40
0000
1000
0000
1000
,  // measure 41
0000
0010
0000
0010
,  // measure 42
0000
0010
0000
0010
,  // measure 43
0000
0100
0000
0100
,  // measure 44
0000
0100
0000
0100
,  // measure 45
0000
0010
0000
0000
,  // measure 46
0000
0010
0000
0000
,  // measure 47
0000
0010
0000
1000
,  // measure 48
0000
0001
0000
0001
,  // measure 49
0000
0001
0000
0000
,  // measure 50
0000
1000
0000
0000
,  // measure 51
0000
0010
0000
0000
,  // measure 52
0000
0000
0000
0000
,  // measure 53
0000
0010
0000
0000
,  // measure 54
0000
0000
0000
0000
,  // measure 55
0000
1001
0000
0000
;
