#TITLE:Silent Hill (3rd Christmas mix);
#SUBTITLE:Christmas Blizzard 2009 steps;
#ARTIST:THOMAS HOWARD;
#TITLETRANSLIT:;
#SUBTITLETRANSLIT:;
#ARTISTTRANSLIT:;
#CREDIT:;
#BANNER:Silent Hill (3rd christmas mix).png;
#BACKGROUND:Silent Hill (3rd christmas mix)-bg.png;
#LYRICSPATH:;
#CDTITLE:Dance Dance Revolution Max 2.png;
#MUSIC:Silent Hill (3rd christmas mix).mp3;
#OFFSET:-1.965;
#SAMPLESTART:17.220;
#SAMPLELENGTH:12.000;
#SELECTABLE:YES;
#DISPLAYBPM:125.000;
#BPMS:0.000=62.490,8.000=124.980,24.000=124.990,56.000=62.495,60.000=124.990,99.000=499.961,103.000=124.980;
#STOPS:;
#BGCHANGES:;

//---------------dance-double - ----------------
#NOTES:
     dance-double:
     :
     Challenge:
     7:
     0.421,0.397,0.120,0.490,0.000:
00000000
00000000
00000000
00000000
,
00000000
00000000
00000000
00000000
00000220
00000000
00000000
00000330
,
00000010
00000001
00000100
00001000
00010000
01000000
10000000
00100000
,
10000000
01000000
00010000
00001000
00000100
00000001
00000010
00001000
,
00010000
00100000
10000000
00100000
00010000
00001000
00000010
00000001
,
00000100
00001000
00010000
01000000
10000000
00010000
00100000
00000000
,
00200000
20300000
32000000
03020000
,
00032000
00003200
00000302
00000023
,
00002030
00003020
00000032
00000203
,
00002300
00023000
02030000
23000000
,
30200000
20300000
32000000
03020000
,
00032000
00003200
00002300
00023000
,
02030000
03020000
00032000
00003020
,
00002030
00023000
00230000
00320000
,
00030020
00000000
00000000
00000030
00000200
00000000
00000000
00000300
,
00002000
00010000
00010000
00013000
,
00020000
01000000
01000000
01030000
,
00100000
10000000
00010000
00000000
00100000
00010000
00011000
00000000
,
00000100
00000010
00000001
00000000
00001000
00000100
00000011
00000000
,
00000001
00000100
00001000
00000000
00010000
01000000
00110000
00000000
,
00100000
10000000
01000000
00010000
00001000
00000100
00000001
00000010
,
00000002
00001000
00001000
00001003
,
00002000
00010000
00010000
00013000
,
00020000
10000000
10000000
10030000
,
00101000
00010010
01001000
00010100
,
00000000
00000000
00000000
00000002
,
00001000
00000000
00000100
00000100
00000103
00000000
00002000
00000000
,
00000100
00000000
00010000
00010000
00013000
00000000
00200000
00000000
,
10000000
00000000
01000000
01000000
01300000
00000000
00010000
10000000
,
01000000
00100000
01000000
00010000
00001000
00000100
00000001
00001000
,
00000100
00000010
00001000
00010000
00100000
00000000
10000000
00010000
,
01000000
00100000
00010000
00001000
00000010
00000000
00000001
00001000
,
00000010
00000100
00001000
00010000
01000000
00000000
10000000
00010000
,
01000000
00100000
01000000
00010000
10000000
00000000
00100000
10000000
,
01000000
00000000
00100000
00010000
01000000
00000000
00000010
00001000
,
00000100
00000000
00000010
00000001
00000100
00000000
00000010
00000001
,
00000100
00001000
00010000
01000000
10000000
00100000
02000000
00000000
,
00010000
00010000
03010000
20000000
,
00000000
00000000
30010000
00020000
,
00000000
00000000
00130000
01010000
,
00101000
00000000
00010100
00000000
00001010
00000000
00000010
00001000
,
00000100
00010000
00001000
00100000
00010000
01000000
00100000
00000000
,
01000000
00000000
00100000
10000000
01000000
00010000
00001000
00000000
,
00000100
00000000
00000001
00000000
00000010
00000000
00000010
00000100
,
00001000
00000001
00000100
00001000
00010000
01000000
10000000
01000000
,
00100000
01000000
10000000
01000000
00010000
00002000
00000000
00000000
,
00000020
00000000
00000030
00003000
;

//---------------dance-single - Copied from----------------
#NOTES:
     dance-single:
     Copied from:
     Hard:
     9:
     0.658,0.767,0.450,0.739,0.225: // measure 1
0100
0010
1000
0020
1000
0000
1000
0030
0101
0000
0011
0000
1010
0000
0101
0000
,  // measure 2
1000
0000
0100
0000
0010
0000
1000
0000
0020
0000
0032
0000
1000
0000
2003
0000
0000
0000
0000
0000
0000
0000
3010
M000
2000
0000
0000
0000
3002
0000
0000
0000
,  // measure 3
0013
0000
0100
0000
0010
0000
1000
0000
0010
0000
0010
0100
0010
0000
1000
0000
,  // measure 4
0001
0000
0100
0000
0001
0000
1000
0000
0001
0000
0100
0001
0100
0000
0010
0000
,  // measure 5
1000
0000
0010
0000
0100
0000
0010
0000
1000
0000
0010
0100
0010
0000
1000
0000
,  // measure 6
0020
2030
3002
0103
0200
0302
2003
3020
,  // measure 7
0032
0000
1000
0100
0020
0030
1000
0013
,  // measure 8
0000
0000
0020
0000
0000
0032
0000
0000
0103
0000
0010
0000
1000
0000
0010
0000
,  // measure 9
0200
0000
0000
0302
0000
0000
1003
0000
0200
0000
0000
0000
0310
0000
1000
0000
,  // measure 10
0000
0000
0110
0000
0000
0011
0000
0000
1100
0000
0100
0000
0010
0000
0010
0000
,  // measure 11
0002
0000
0100
1000
0100
0003
0100
0010
,  // measure 12
0000
0000
MMM1
0000
0000
MM1M
0000
0000
1MMM
0000
0100
0000
0010
0000
1000
0000
,  // measure 13
0001
0010
0001
0010
0001
0100
0001
0100
,  // measure 14
0001
0010
0001
0000
0001
0100
0001
0000
0010
1000
0010
0000
1000
0100
1000
0000
,  // measure 15
2000
0010
0010
0010
0010
0010
3010
0010
0002
0100
0100
0100
0100
0100
0103
0100
,  // measure 16
0001
1000
0001
0100
1000
0001
1000
0010
,  // measure 17
0001
0000
2020
3030
0220
0330
0202
0303
,  // measure 18
0001
0100
0010
1000
0100
0010
0100
1000
,  // measure 19
0001
0010
0100
0010
0001
0001
0100
1000
,  // measure 20
0100
0010
0200
0000
2300
0000
3002
0000
,  // measure 21
0023
0000
0030
2000
0000
3200
0010
0310
,  // measure 22
0001
0100
1000
0100
1001
0000
1100
0000
,  // measure 23
0010
0001
0010
0100
1100
0000
0110
0000
,  // measure 24
0010
0000
0010
0001
0010
0000
0110
0000
0110
0000
0001
0010
0001
0000
0001
0000
,  // measure 25
0010
0001
1000
0002
0000
0000
2000
0000
,  // measure 26
0000
0000
0000
0000
0000
3003
0110
0002
,  // measure 27
0023
0230
2300
3000
1001
0002
0003
2000
,  // measure 28
3200
0320
0032
0013
0100
1000
0200
0000
,  // measure 29
0020
0300
0032
0000
2003
0000
3002
0023
,  // measure 30
0032
0203
0000
2300
0200
3000
0301
0010
,  // measure 31
0001
0000
0100
0000
1000
0000
0100
1000
0100
0000
0110
0000
0010
0000
1000
0000
,  // measure 32
0001
0000
0100
0000
1000
0000
0100
1000
0010
0000
0001
0000
1001
0000
1000
0000
,  // measure 33
0100
0000
0010
0000
1000
0000
0100
1000
0100
0000
0110
0000
1001
0000
0000
0000
,  // measure 34
1001
0000
1100
0000
0110
0000
0101
0110
,  // measure 35
1001
0000
1100
0000
0110
0000
0001
0010
0001
0000
0110
0000
1001
0000
0110
0000
,  // measure 36
1001
0000
0110
0000
1100
0000
0010
0001
0010
0000
0101
0000
0001
0000
0001
0010
,  // measure 37
0001
0000
1000
0100
1000
0000
0010
0001
0010
0000
1000
0100
1000
0000
1100
0000
,  // measure 38
2100
0002
0003
0001
0001
3002
1000
0003
,  // measure 39
1000
0100
0020
0000
0001
0032
0000
0000
,  // measure 40
1003
0100
0010
0200
2300
3002
0023
0000
,  // measure 41
0000
0100
0230
0000
0000
2300
0000
0001
,  // measure 42
0000
0000
0002
3000
0000
0000
0003
0000
MMMM
0000
0000
0000
0100
0000
0001
0000
,  // measure 43
0010
0000
0100
0000
1000
0000
0010
0001
0010
0000
0110
0000
1000
0000
0100
0000
,  // measure 44
0001
0000
0100
0000
0001
0000
0010
0001
0010
0000
1001
0000
0001
0010
0001
0000
,  // measure 45
0010
0100
0010
0000
1000
0100
1000
0000
0010
0100
0010
0000
1001
0000
0110
0000
,  // measure 46
1100
0202
0000
0000
0000
0300
0000
0000
,  // measure 47
2000
0000
3000
0000
2000
0000
3000
0000
2000
0000
3000
1000
2000
0000
0000
0000
,  // measure 48
0000
0000
0000
0000
,  // measure 49
3003
0000
0000
0000
;

//---------------dance-single - ----------------
#NOTES:
     dance-single:
     :
     Easy:
     4:
     0.273,0.322,0.250,0.050,0.000:
0010
0000
1000
0000
,
0100
0000
0001
0000
,
0010
0010
1000
1000
,
0100
0100
0001
0001
,
0001
0010
0100
1000
,
1000
0100
0010
1001
,
1000
0010
0100
0001
,
0000
1000
0100
0010
,
0010
0100
1000
1000
,
0000
0001
0010
0100
,
1000
0100
0010
0001
,
0000
1000
0100
0010
,
0010
0100
1000
0001
,
0001
0010
0100
1000
,
2000
0000
3200
0000
,
0310
0000
0010
0000
,
0100
0000
0100
1001
,
0100
0010
0000
1000
,
1000
1100
0000
0001
,
0001
0011
0010
0010
,
0110
1001
0100
0100
,
1000
0010
0010
0010
,
0010
0001
0001
0001
,
0001
0100
0100
0100
,
1000
0010
0010
0010
,
0000
0000
0000
0000
,
0010
0010
1001
0000
,
0100
0100
1001
0000
,
1000
1000
1001
0000
,
0001
0001
0001
1001
,
2001
0001
0001
3000
,
1002
1000
1000
0003
,
0010
0100
0010
0100
,
1001
0110
1100
0101
,
1000
1000
1000
0110
,
0001
0001
0001
1001
,
0010
0010
0010
1001
,
0100
0100
0100
0110
,
0010
0100
0010
1000
,
0100
0010
0001
0001
,
0010
0100
1000
1001
,
1001
1001
1001
0010
,
0110
1000
0100
1000
,
0010
0100
0001
1000
,
1000
0000
0100
0000
0010
0000
0001
0010
,
0001
0020
0000
0000
0000
0000
0000
0000
,
1030
0000
0000
0000
;

//---------------dance-single - ----------------
#NOTES:
     dance-single:
     :
     Medium:
     6:
     0.381,0.399,0.300,0.010,0.000:
0010
1000
0100
0110
,
0001
1000
0100
1001
,
1000
0000
1000
0000
0100
0100
0100
0000
,
0010
0000
0010
0000
0001
0001
0001
0000
,
0010
0000
1000
0000
0010
0100
0010
0000
,
1000
0100
1000
0000
0010
0100
0010
0000
,
1001
0000
0010
0100
0010
0000
1000
0000
,
1000
0110
0001
0011
,
0001
0100
0010
0000
1000
0000
0100
0000
,
0100
0000
0000
0100
0010
0100
0001
0000
,
1000
0001
0100
0000
0010
0000
1000
0000
,
0010
0100
0010
0000
0001
0000
1001
0000
,
1000
0100
1000
0000
0010
0000
0011
0000
,
1000
0100
1000
0100
1000
0100
1000
0000
,
0010
0001
0100
0110
0010
1000
0100
0110
,
1000
0100
1000
0000
0010
0001
0010
0000
,
1000
0100
0010
0010
,
0010
0001
0010
0000
1001
0000
1001
0000
,
0010
1000
0010
0000
0110
0000
0110
0000
,
0001
0100
0001
0000
1000
0100
1000
0000
,
0110
1001
1100
0101
,
1000
0100
1000
0100
1000
0000
1100
0000
,
0010
0001
0010
0001
0010
0000
0011
0000
,
1000
0100
1000
0000
0010
0001
0010
0000
,
0001
0010
0001
0010
0001
0000
1100
0000
,
0000
0000
0000
0000
,
1000
0000
0100
0000
0110
0000
0000
0001
,
1000
0010
0110
0000
,
1000
0000
0100
0000
0110
0000
0001
0010
,
0100
1000
0000
1000
1100
0000
0010
0100
,
0010
1000
0100
0000
0011
0000
0100
0001
,
1000
0001
0000
0000
0011
0000
0010
0100
,
1000
0100
0100
0000
1010
0000
0001
0100
,
0001
0100
0001
0000
1100
0000
0010
1000
,
0010
0000
0001
0100
0001
0000
0001
0010
,
0100
1000
0100
0010
0001
0000
1000
0100
,
0010
0000
1000
1000
1000
0000
0001
0010
,
0100
1000
0001
0010
0100
1000
1000
0000
,
0100
0010
1000
0000
0001
0000
1000
0000
,
0100
0000
0010
1000
0010
0100
0001
0000
,
0000
0000
0000
0000
0000
1100
0000
0010
,
0000
0110
0000
0000
1000
0000
1000
0010
,
0100
0000
0001
1000
0001
0000
0010
0001
,
0100
0001
0000
0000
0000
1000
0100
0000
,
0010
0000
0100
0100
0000
0000
0001
0010
,
0100
2000
0000
0000
0000
0000
0000
0000
,
0100
0000
0100
0100
,
3000
0000
0000
0000
;
