#TITLE:Xepher;
#SUBTITLE:;
#ARTIST:Tatsh;
#TITLETRANSLIT:;
#SUBTITLETRANSLIT:;
#ARTISTTRANSLIT:;
#GENRE:;
#CREDIT:;
#MENUCOLOR:;
#BANNER:Xepher.png;
#BACKGROUND:Xepher-bg.png;
#LYRICSPATH:;
#CDTITLE:./CDTITLES/Beatmania IIDX.png;
#MUSIC:Xepher.mp3;
#OFFSET:-2.179;
#SAMPLESTART:69.940;
#SAMPLELENGTH:12.000;
#SELECTABLE:YES;
#LISTSORT:;
#DISPLAYBPM:170.000;
#BPMS:0.000=170.000
,80.000=85.000
,82.000=170.000
,154.000=85.000
,162.000=170.000
,222.000=85.000
,224.000=170.000
;
#STOPS:;
#TICKCOUNT:0.000=2 ;
#SPEED:0.000=1.00 ;
#MULTIPLIER:0.000=1 ;
#BGCHANGES:-1.75=Xepher.avi=1.000=1=0=0,
99999=-nosongbg-=1.000=0=0=0 // don't automatically add -songbackground-
;
#KEYSOUNDS:;
#ATTACKS:;

//---------------dance-single - BEGINNER----------------
#NOTES:
     dance-single:
     BEGINNER:
     Beginner:
     2:
     0.170,0.320,0.009,0.000,0.000:
0000
0000
0000
0000
,
0000
0000
0000
0000
,
0000
0000
0000
0000
,
0000
0000
0000
0000
,
0000
0000
0000
0000
,
0000
0000
0000
0000
,
1000
0000
0000
0000
,
0001
0000
0000
0000
,
1000
0000
0000
0000
,
0001
0000
0010
0000
,
0001
0001
0001
0000
,
0100
0000
0100
0000
,
1000
1000
1000
0000
,
0100
0000
0100
0000
,
0010
0010
0010
0000
,
0100
0000
0100
0000
,
0001
0000
1000
0000
,
0001
0000
1000
0000
,
0010
0000
0010
0000
,
0010
0010
0010
0010
,
0010
0100
0010
0000
,
1000
0000
0001
0000
,
1000
0000
0100
0100
,
0100
0100
0100
0000
,
0001
0000
0100
0000
,
1000
0000
0010
0000
,
0001
0000
0100
0000
,
0001
0000
1000
0000
,
1000
0000
1000
0000
,
0100
0000
0010
0000
,
0001
0000
0010
0000
,
0010
0000
1000
0000
,
1000
0000
0001
0000
,
0001
0000
0100
0100
,
0100
0000
0010
0000
,
0001
0000
0010
0000
,
1000
0000
0010
0000
,
0001
0000
0100
0000
,
0010
0000
0000
0000
1000
1000
1000
1000
,
1000
0000
0000
0000
0001
0001
0001
0001
,
0001
0000
0100
0000
,
1000
0000
0010
0000
,
0001
0000
0100
0000
,
0001
0000
0100
0000
,
1000
0000
0100
0000
,
0000
0000
0010
0000
,
0100
0000
0010
0000
,
0001
0000
0010
0000
,
0100
0000
1000
1000
,
1000
1000
1000
0000
,
1000
0000
0001
0000
,
0001
0000
0010
0000
,
0100
0000
1000
0000
,
0001
0000
0010
0000
,
0000
0000
0010
0000
,
0000
0000
0100
0100
,
1000
0000
1000
0000
,
0001
0001
0001
0000
,
1000
1000
1000
0000
,
0001
0001
0001
0000
,
1000
1000
1000
1000
,
0000
0000
0000
0000
,
0000
0000
0000
0000
,
1001
0000
0000
0000
;

//---------------dance-single - BASIC----------------
#NOTES:
     dance-single:
     BASIC:
     Easy:
     4:
     0.312,0.350,0.176,0.166,0.000:
0000
0000
0000
0000
,
0000
0000
0000
0000
,
0000
0000
0000
0000
,
0000
0000
0000
0000
,
0000
0000
0000
0000
,
0000
0000
0000
0000
,
1000
1000
1000
0110
,
0001
0001
0001
1001
,
1000
1000
1000
0110
,
0001
1000
0010
0100
,
0010
1000
0010
1010
,
0100
0001
1000
0001
,
0010
0001
0010
0011
,
0100
1000
0001
0100
,
1000
0001
0100
0110
,
0001
1000
0100
0001
,
0010
0001
1000
0100
,
0020
0000
0000
0030
,
0001
1000
0001
1000
,
0002
0000
0000
0003
,
2000
0000
3100
1000
0002
0000
0003
0000
,
1000
0000
0010
0000
,
1000
0100
0010
0101
,
0010
1001
0010
0000
,
1000
1000
0001
0000
,
0010
0100
0020
0030
,
0002
0003
2000
3000
,
0200
0300
0010
0001
,
1000
0100
1000
0010
,
0100
0001
0100
0010
,
1000
0001
1000
1000
,
1000
0101
0010
0010
,
0010
1001
1000
1000
,
1000
1100
0010
0001
,
1000
0100
0001
1000
,
0001
0110
1000
0001
,
1000
1100
0010
0001
,
1000
0100
1000
0010
,
0001
0000
0100
0000
0010
1000
0010
1000
,
0001
0000
0000
0000
0010
0001
0010
0001
,
2000
0000
3100
1000
,
0010
1000
0001
0001
,
0001
0001
0010
0001
,
1000
0100
0010
0010
,
0010
0010
1000
0001
,
0100
1000
0100
0000
,
0001
1000
0010
1000
,
0100
0000
0001
0001
,
1000
0100
0010
1001
,
0010
0110
0001
1000
,
0001
0100
2000
3000
,
0001
0010
0200
0300
,
2000
3000
0002
0003
,
0020
0030
0002
0000
,
0000
0003
1000
0001
,
1000
0001
2000
3002
,
1003
1000
1000
0101
,
0010
0010
0010
1001
,
0001
0001
0001
1100
,
0010
0010
0010
1001
,
0100
0000
0100
0000
0100
0000
1000
2000
,
0000
0000
0000
0000
,
0000
0000
0000
0000
,
3000
0000
0000
0000
;

//---------------dance-single - ANOTHER----------------
#NOTES:
     dance-single:
     ANOTHER:
     Medium:
     7:
     0.458,0.786,0.166,0.361,0.111:
0000
0000
0000
0000
,
0000
0000
0000
0000
,
0000
0000
0000
0000
,
0000
0000
0000
0000
,
0000
0000
0000
0000
,
0000
0000
0000
0000
,
0010
0000
0000
1000
0000
0000
0001
0000
0000
0100
0000
0000
1000
0000
0000
0000
,
0010
0000
0000
0001
0000
0000
1000
0000
0000
0100
0000
0000
0010
0000
0001
0000
,
0100
0000
0000
0001
0000
0000
1000
0000
0000
0010
0000
0000
0100
0000
0000
0000
,
0020
0000
0100
0000
0100
0100
0130
0000
,
1000
0000
0010
0000
1000
0000
0001
0100
,
1000
0000
0100
0000
0001
0010
0100
1000
,
0001
0000
0100
0000
0010
0000
0100
0001
,
0010
0000
0100
0000
1000
0100
0001
0100
,
1000
0000
0001
0000
0100
0000
0010
1000
,
0010
0000
0100
0000
0001
1000
0100
0010
,
0001
0100
0001
0000
1000
0100
1000
0000
,
0010
0100
0001
1000
0010
1000
0100
0000
,
2000
3002
0023
0130
,
1000
0100
0001
0100
2000
0000
3000
0000
,
1000
0100
1000
0010
0001
0000
0100
0000
,
1000
0100
0001
0010
,
0100
1000
0010
0110
,
0100
1001
0100
0010
,
1000
0001
1000
0001
,
0010
0100
2000
3100
,
0002
0103
2000
3010
,
0002
0013
0200
0010
,
0010
0310
0100
1100
,
0101
1010
0011
0110
,
1001
0000
0000
0000
0110
0000
0000
0000
1000
0000
0000
0010
0000
0000
1000
0000
,
0000
0010
0000
0000
1000
0000
0000
0000
0001
0000
0000
0010
0000
0000
0001
0000
,
0000
0010
0000
0000
1000
0000
0100
0000
0001
0000
0000
0100
0000
0000
1000
0000
,
0000
0100
0000
0000
0001
0000
0000
0000
1000
0000
0010
0000
0100
0000
0001
0000
,
1000
0000
0001
0100
2000
0000
3001
0000
,
1000
0010
0001
0000
2000
0000
3100
0000
,
0001
0010
1000
0000
0020
0000
0130
0000
,
0002
1003
0200
0310
,
0001
0000
0010
0000
0100
0000
0010
0000
0002
0000
2003
0000
3010
0100
0001
0000
,
2000
0000
3200
0000
0320
0000
0032
0000
2003
0000
3020
0000
0130
0001
1000
0000
,
0020
0230
0302
1003
0001
0100
0001
0000
,
0010
1000
0010
0000
1000
0100
1000
0000
,
0100
0010
0100
0000
0001
0010
0001
0000
,
1000
0100
1000
0000
0010
0100
0010
0000
,
0001
1000
0001
0000
1000
0010
0100
0001
,
1000
0100
0001
0000
2000
0000
3001
0000
,
1000
0100
0001
0000
0020
0000
0130
0000
,
0001
0010
1000
0000
0020
0000
0130
0000
,
0001
0010
1000
0000
0001
0000
1100
0000
,
0001
0101
2000
3010
,
0100
0001
1000
0000
0020
0000
0130
0000
,
0001
1000
0100
0000
0020
0000
0031
0000
,
2000
3100
0002
0103
,
2000
3010
0100
0110
,
0010
0110
0100
1001
,
0010
1001
2000
3002
,
1003
0000
0000
0100
0000
0000
0010
0000
0000
0001
0000
0000
1000
0000
0010
0000
,
0100
0000
0000
0001
0000
0000
1000
0000
0000
0100
0000
0000
0010
0000
0001
0000
,
1000
0000
0000
0010
0000
0000
0001
0000
0000
0100
0000
0000
0010
0000
1000
0000
,
0100
0000
0000
0010
0000
0000
0001
0000
0000
1000
0000
0000
0010
0000
0001
0000
,
0100
0000
0000
0001
0000
0000
1000
0000
0000
0010
0000
0000
0110
0000
0220
0000
,
0000
0000
0000
0000
,
0000
0000
0000
0330
,
1001
0000
0000
0000
;

//---------------dance-single - MANIAC----------------
#NOTES:
     dance-single:
     MANIAC:
     Hard:
     10:
     0.742,0.961,0.213,0.037,0.532: // measure 1
0000
0000
0000
0000
,  // measure 2
0000
0000
0000
0000
,  // measure 3
0001
1000
0000
1000
0001
0000
0001
1000
0000
1000
0001
0000
1001
0000
0000
0000
,  // measure 4
0100
0010
0000
0010
0100
0000
0100
0010
0000
0010
0100
0000
0110
0000
0110
0000
,  // measure 5
0001
0100
0000
0100
0001
0000
0010
1000
0000
1000
0010
0000
1010
0000
0000
0000
,  // measure 6
0010
0100
0001
1000
0100
0010
0001
1000
,  // measure 7
1000
0100
0000
0100
1000
0000
1000
0100
0000
0100
1000
0000
1100
0000
0000
0000
,  // measure 8
0001
0100
0000
0100
0001
0000
0001
0100
0000
0100
0010
0000
1010
0000
1010
0000
,  // measure 9
0001
1000
0000
1000
0010
0000
0010
0100
0000
0100
0001
0000
1001
0000
0000
0000
,  // measure 10
0001
0000
1000
0000
0010
0000
0100
0000
0010
1000
0010
1000
0001
0100
0001
0100
,  // measure 11
0010
0000
1000
0000
0100
0000
1000
0000
0010
0000
1000
0001
0000
0001
0100
0000
,  // measure 12
0010
0000
1000
0000
0100
0000
0010
0000
0001
0000
0010
0000
0100
1000
0100
1000
,  // measure 13
0001
0000
1000
0000
0100
0000
1000
0000
0010
0000
0100
0001
0000
0001
0100
0000
,  // measure 14
0010
0000
1000
0000
0001
0000
0100
0000
0010
1000
0000
0001
0000
0100
0010
0000
,  // measure 15
1000
0000
0100
0000
0010
0000
0001
0000
1000
0000
0001
0100
0000
0100
0001
0000
,  // measure 16
0010
0000
0100
0000
1000
0000
0010
0000
0100
0000
0001
0000
1000
0010
1000
0010
,  // measure 17
0100
0000
0010
0000
1000
0000
0001
0100
0000
0010
0100
0000
0001
0000
1000
0000
,  // measure 18
0010
0100
0001
1000
0100
0010
0001
0000
,  // measure 19
1000
0001
0010
0100
0010
0001
1000
0010
,  // measure 20
0100
0001
0100
0001
1000
0001
1000
0001
1000
0100
1000
0100
1000
0001
1000
0001
,  // measure 21
1000
0100
1000
0000
0001
0100
0001
0000
0010
0000
0100
0000
0001
0000
0010
0000
,  // measure 22
1000
0100
0001
0000
1000
0010
0100
0100
,  // measure 23
0001
0010
0100
0100
1000
0010
0110
0000
,  // measure 24
0001
0100
0110
0000
0001
1000
0100
0010
,  // measure 25
0001
1000
0100
0100
1000
0010
0001
0010
,  // measure 26
1000
0001
0100
0100
0001
0010
1000
0010
,  // measure 27
0001
0100
1000
0100
0001
0100
0001
0100
,  // measure 28
0010
1000
0010
1000
0001
0010
0100
1000
,  // measure 29
0010
0100
0001
1000
0100
1000
0010
0100
,  // measure 30
0010
0100
0001
1000
0001
1000
0100
0010
,  // measure 31
0100
0000
0010
0000
0001
0000
1000
0000
1000
0100
0000
0100
1000
0000
1000
0001
,  // measure 32
0000
0001
1000
0000
1001
0000
0000
0000
0001
0100
0000
0100
0001
0000
0010
0100
,  // measure 33
0000
0100
0010
0000
0110
0000
0110
0000
0001
1000
0000
1000
0010
0000
0010
0100
,  // measure 34
0000
0100
0001
0000
1001
0000
0000
0000
1000
0000
0010
0000
0100
0000
0001
0000
,  // measure 35
1000
0010
0100
0001
1000
0010
0100
0001
1000
0000
0000
0010
0000
0000
1000
0000
,  // measure 36
0000
0001
0000
0000
1001
0000
0100
0000
0001
0000
0000
0010
0000
0000
1000
0000
,  // measure 37
0000
0100
0000
0000
0011
0000
0011
0000
1000
0000
0000
0010
0000
0000
0100
0000
,  // measure 38
0000
0010
0000
0000
1001
0000
0100
0000
0010
0000
0100
0000
0001
0000
1000
0000
,  // measure 39
1000
0100
1000
0010
1000
0001
1000
0010
1000
0100
1000
0100
1000
0001
1000
0001
,  // measure 40
1000
0010
0100
0001
1000
0100
0010
0001
1000
0010
1000
0010
0100
0001
0100
0001
,  // measure 41
1000
0100
0001
0010
0001
0010
1000
0100
0001
0000
0010
0000
0100
0000
1000
0000
,  // measure 42
0010
0100
0001
1000
0001
0100
0010
1000
,  // measure 43
0100
0010
0001
1000
0001
0010
0001
0010
,  // measure 44
0100
1000
0100
1000
0001
0100
0001
0100
,  // measure 45
0010
1000
0010
1000
0100
0010
0001
1000
,  // measure 46
0001
0010
0100
1000
0001
0010
0100
1000
,  // measure 47
0010
0100
0010
1000
0001
0100
0010
1000
,  // measure 48
0100
0010
0001
1000
0001
0010
0100
1000
,  // measure 49
0010
0100
0001
1000
0001
1000
0110
0001
,  // measure 50
1000
0100
0110
1000
0001
0100
0010
1000
,  // measure 51
0100
0010
0001
1000
0001
0010
0100
1000
,  // measure 52
0001
0100
0010
1000
0100
1000
0010
0100
,  // measure 53
0010
1000
0001
0100
0010
1000
0010
1000
,  // measure 54
0001
0100
0001
0100
0010
1000
0100
0001
,  // measure 55
0100
1000
0010
0001
0010
1000
0100
0001
,  // measure 56
0100
1000
0010
1000
0020
0000
0200
0330
,  // measure 57
1000
0010
1000
0010
1000
0000
0001
0100
0000
0001
0100
0000
0010
0000
1000
0000
,  // measure 58
0100
0010
0100
0010
0100
0000
0001
1000
0000
0100
0010
0000
0001
0000
1000
0000
,  // measure 59
0001
0010
0001
0010
0001
0000
1000
0100
0000
1000
0100
0000
0010
0000
0100
0000
,  // measure 60
0010
1000
0010
1000
0010
0000
1000
0001
0000
0001
0100
0000
0001
0000
1000
0000
,  // measure 61
0001
0100
0001
0100
0001
0000
1000
0010
0000
0010
1000
0000
1001
0000
2002
0000
,  // measure 62
0000
0000
0000
0000
,  // measure 63
0000
0000
0000
3003
,  // measure 64
1001
0000
0000
0000
;

//---------------dance-single - CHALLENGE----------------
#NOTES:
     dance-single:
     CHALLENGE:
     Challenge:
     11:
     0.966,0.961,0.333,0.046,1.000: // measure 1
0000
0000
0000
0000
,  // measure 2
0000
0000
0000
0000
,  // measure 3
0001
0100
0010
1000
0100
0010
0001
1000
0001
0010
0100
1000
1001
0000
0000
0000
,  // measure 4
0001
0100
0001
1000
0100
1000
0001
0010
0001
1000
0010
1000
1100
0000
0101
0000
,  // measure 5
1000
0100
1000
0001
0010
0100
1000
0100
0010
0001
1000
0001
0100
0000
0000
0000
,  // measure 6
0010
1000
0010
1000
0001
0100
0001
0100
0001
0010
0001
0010
0100
1000
0100
1000
,  // measure 7
0001
0010
0100
1000
0010
0100
0001
0100
0010
1000
0100
0010
0101
0000
0000
0000
,  // measure 8
0001
0100
0001
1000
0100
1000
0010
0100
0010
1000
0001
1000
0101
0000
1100
0000
,  // measure 9
0001
0100
1000
0100
0001
1000
0010
1000
0001
0100
0010
1000
0110
0000
0000
0000
,  // measure 10
0100
0000
1000
0000
0001
0000
0010
0000
0100
1000
0100
1000
0001
0010
0001
0010
,  // measure 11
0001
0000
0100
0000
0010
0000
1000
0000
0100
0000
1000
0001
0000
0001
1000
0000
,  // measure 12
0001
0010
0100
1000
0010
0100
0001
1000
,  // measure 13
0001
0000
0100
0000
1000
0000
0100
0000
0001
0000
1000
0100
0000
0010
0001
0000
,  // measure 14
0100
0000
0010
0000
1000
0000
0001
0000
0100
0010
0000
1000
0000
0001
0100
0000
,  // measure 15
0010
0000
1000
0000
0100
0000
1000
0000
0001
0000
1000
0100
0000
1000
0001
0000
,  // measure 16
0100
0000
0010
0000
1000
0000
0100
0000
0010
0000
0001
0100
0000
0001
0010
0000
,  // measure 17
0001
0000
0100
0000
0010
0000
1000
0100
0000
1000
0001
0000
0010
0000
0001
0000
,  // measure 18
0100
0010
1000
0001
0101
0000
1010
0000
,  // measure 19
1000
0001
0010
0100
1000
0001
0010
0100
,  // measure 20
0001
0100
0010
1000
0001
0010
0100
1000
0001
0100
0010
1000
0001
0010
0100
1000
,  // measure 21
2000
0000
3001
0001
1000
0100
1000
0001
,  // measure 22
0100
0010
1000
0010
0100
0001
0010
0000
0100
0000
1000
0000
0001
0000
0100
0000
,  // measure 23
0010
0100
0001
1000
0100
0010
0001
0000
1000
0000
0100
0000
0101
0000
0000
0000
,  // measure 24
0001
0100
1100
0000
0001
0010
0100
1000
,  // measure 25
0010
0100
0001
1000
0001
0100
1000
0000
0100
0000
0001
0000
0010
0000
0100
0000
,  // measure 26
1000
0100
0010
0001
0100
0010
1000
0000
0010
0000
0100
0000
0001
0000
1000
0000
,  // measure 27
0001
0010
0001
1000
0100
1000
0010
0000
0100
0000
0010
0000
1000
0000
0100
0000
,  // measure 28
0010
0001
0100
0010
1000
0100
1000
0000
0001
0000
0100
0000
1000
0000
0100
0000
,  // measure 29
0010
0100
0001
0010
1000
0100
1000
0000
0001
0000
0010
0000
0100
0000
1000
0000
,  // measure 30
0010
0100
0001
1000
0001
0100
1000
0000
0100
0000
0001
0000
1000
0000
0100
0000
,  // measure 31
1000
0001
0010
0100
1000
0100
0010
0000
0001
0100
0010
0100
1000
0100
0010
0101
,  // measure 32
0010
0100
1000
0010
1010
0000
0000
0000
1000
0010
0100
0001
0010
0100
1000
0001
,  // measure 33
0100
0010
1000
0001
0101
0000
1100
0000
0001
1000
0100
0010
0001
0100
0010
1000
,  // measure 34
0100
0010
0001
0100
0110
0000
0000
0000
1000
0100
0010
0001
0100
0010
1000
0010
,  // measure 35
0100
0001
0100
0010
1000
0010
0100
0001
1000
0100
1000
0001
0100
0001
1000
0010
,  // measure 36
0001
0010
1000
0100
0110
0000
0000
0000
0001
1000
0100
0010
0001
0100
0010
1000
,  // measure 37
0100
1000
0001
0100
1100
0000
0101
0000
1000
0100
0010
0001
0010
0100
1000
0001
,  // measure 38
0100
0010
1000
0001
1001
0000
0000
0000
0001
0000
0100
0000
0010
0000
1000
0000
,  // measure 39
0001
0100
0001
0100
0010
1000
0010
1000
0010
0100
0001
0100
0010
1000
0001
0100
,  // measure 40
0001
0010
0100
0010
0001
1000
0100
1000
0001
0100
1000
0100
0001
0010
0100
1000
,  // measure 41
0010
0100
0001
0010
0100
1000
0010
0100
0001
0000
0010
0000
0100
1000
0100
0000
,  // measure 42
1000
0000
0010
0000
0100
0001
0100
0000
0001
0000
1000
0000
0100
0010
0100
0000
,  // measure 43
1000
0000
0001
0000
0100
0010
0100
0000
0001
0000
0010
0000
0100
1000
0100
0000
,  // measure 44
1000
0000
0010
0000
0100
0001
0100
0000
0001
0000
1000
0000
0010
0100
0010
0000
,  // measure 45
1000
0000
0001
0000
0010
0100
0010
0000
0001
0100
0001
0100
0010
1000
0010
1000
,  // measure 46
0001
0100
0001
0100
0010
1000
0010
1000
0001
0000
1000
0000
0010
0000
0100
0000
,  // measure 47
0001
1000
0100
0010
0001
0100
0010
0000
1000
0000
0100
0000
0010
0000
0001
0000
,  // measure 48
1000
0010
0100
0001
0100
0010
1000
0000
0100
0000
1000
0000
0001
0000
0100
0000
,  // measure 49
0010
1000
0100
0010
0001
0100
0010
0000
1000
0000
0010
0000
0011
0000
0000
0000
,  // measure 50
0001
0010
1010
0000
0001
0010
0100
1000
,  // measure 51
0001
0100
1000
0100
0001
0010
0100
0000
1000
0000
0010
0000
0100
0000
0001
0000
,  // measure 52
1000
0010
0100
0001
0010
0100
1000
0000
0001
0000
1000
0000
0100
0000
0010
0000
,  // measure 53
0001
0100
0010
1000
0010
0100
0001
0000
1000
0000
0100
0000
0010
0000
0100
0000
,  // measure 54
1000
0001
1000
0100
0010
0001
0100
0000
0010
1000
0010
0100
0001
0010
0100
0000
,  // measure 55
1000
0001
0100
0010
0100
0001
1000
0000
0001
0100
1000
0100
0001
0010
0100
0000
,  // measure 56
1000
0100
0001
0100
1000
0010
0100
0000
0202
0000
0303
0000
1010
0000
1010
0000
,  // measure 57
1000
0010
1000
0010
1000
0000
0001
0100
0000
0001
0100
0000
0101
0000
1010
0000
,  // measure 58
0100
0010
0100
0010
0100
0000
0001
1000
0000
0100
0010
0000
0011
0000
1100
0000
,  // measure 59
0001
0010
0001
0010
0001
0000
1000
0100
0000
1000
0100
0000
1010
0000
0101
0000
,  // measure 60
0010
1000
0010
1000
0010
0000
1000
0001
0000
0001
0100
0000
0101
0000
1010
0000
,  // measure 61
0001
0100
0001
0100
0001
0000
1000
0010
0000
0010
1000
0000
0110
0000
2002
0000
,  // measure 62
0000
0000
0000
0000
0000
0000
0000
3003
,  // measure 63
1000
0100
0010
0001
1000
0100
0010
0001
1000
0010
0100
0001
1000
0010
0100
0001
,  // measure 64
1001
0000
0000
0000
;
