#TITLE:DDR Edit - Week 1;
#SUBTITLE:祭 JAPAN(FROM NONSTOP MEGAMIX);
#ARTIST:RE-VENGE;
#TITLETRANSLIT:;
#SUBTITLETRANSLIT:MATSURI JAPAN(FROM NONSTOP MEGAMIX);
#ARTISTTRANSLIT:;
#CREDIT:;
#BANNER:MATSURI JAPAN (FROM NONSTOP MEGAMIX).png;
#BACKGROUND:MATSURI JAPAN (FROM NONSTOP MEGAMIX)-bg.png;
#LYRICSPATH:;
#CDTITLE:Dance Dance Revolution Max 2.png;
#MUSIC:MATSURI JAPAN (FROM NONSTOP MEGAMIX).mp3;
#OFFSET:-0.848;
#SAMPLESTART:54.140;
#SAMPLELENGTH:15.000;
#SELECTABLE:YES;
#DISPLAYBPM:180.000;
#BPMS:0.000=180.000;
#STOPS:;
#BGCHANGES:;

//---------------dance-single - ----------------
#NOTES:
     dance-single:
     :
     Easy:
     2:
     0.167,0.250,0.097,0.000,0.000:
0000
0000
0000
0000
,
0000
0000
0000
0000
,
0000
0000
0000
0000
,
0000
0000
0000
0000
,
0000
0000
0000
0000
,
0000
0000
0000
0000
,
1000
0000
0000
0000
,
0001
0000
0000
0000
,
0100
0000
0000
0000
,
0010
0000
0000
0000
,
1000
0000
1000
0000
,
0001
0000
0001
0000
,
0100
0000
0100
0000
,
0010
0000
0010
0000
,
1000
0000
1000
0000
,
0001
0000
0001
0000
,
0010
0000
0100
0000
,
1000
0000
1000
0000
,
0001
0001
0001
0000
,
1000
1000
1000
0000
,
0001
0001
0001
0000
,
1000
1000
1000
0000
,
0100
0000
0000
0000
,
1001
0000
0000
0000
,
0110
0000
0000
0000
,
1001
0000
0000
0000
,
0110
0000
0000
0000
,
1001
0000
0000
0000
,
0110
0000
0000
0000
,
1001
0000
0000
0000
,
0110
0000
0000
0000
,
0001
0000
0000
0000
,
1000
0000
0000
0000
,
0001
0000
0000
0000
,
1000
0000
0000
0000
,
0010
0000
0000
0000
,
0100
0000
0000
0000
,
1001
0000
0000
0000
,
0000
0000
0000
0000
,
0000
0000
0000
0000
,
0010
0010
0010
0000
,
0010
0010
0010
0000
,
0010
0010
0010
0000
,
0010
0010
0010
0000
,
0100
0100
0100
0000
,
0100
0100
0100
0000
,
0100
0100
0100
0000
,
0100
0100
0100
0000
,
0001
0000
0001
0000
,
1000
0000
1000
0000
,
0001
0000
0001
0000
,
1000
0000
1000
0000
,
0010
0000
0100
0000
,
0001
0000
1000
0000
,
0100
0000
1000
0000
,
0001
0000
0100
0000
,
0010
0000
0000
0000
,
0100
0000
0000
0000
,
0010
0000
0000
0000
,
0100
0000
0000
0000
,
0001
0000
0000
0000
,
1000
0000
0000
0000
,
0100
0000
0000
0000
,
0010
0000
0000
0000
,
0001
0000
0000
0000
,
1000
0000
0000
0000
,
0010
0000
0000
0000
;

//---------------dance-single - ----------------
#NOTES:
     dance-single:
     :
     Medium:
     3:
     0.238,0.321,0.054,0.195,0.000:
0000
0000
0000
0000
,
0000
0000
0000
0000
,
0000
0000
0000
0000
,
0000
0000
0000
0000
,
0000
0000
0000
0000
,
0000
0000
0000
0000
,
0000
0000
0000
0000
,
0000
0000
0000
0000
,
0000
0000
0000
0000
,
0000
0000
0000
0000
,
1000
0001
1000
0000
,
0100
0010
0100
0000
,
0001
0100
0001
0000
,
0010
0001
0100
0000
,
0010
1000
0100
0000
,
0010
0010
0001
0001
,
1000
0010
1000
0000
,
0100
0100
1000
1000
,
0001
0010
0100
0000
,
1000
0100
0001
0000
,
1000
0100
0010
0000
,
1000
0100
0010
0000
,
0002
0000
0000
0003
,
0020
0000
0000
0030
,
2000
0000
0000
3000
,
0200
0000
0000
0300
,
0002
0000
0000
0003
,
2000
0000
0000
3000
,
0020
0000
0000
0030
,
0200
0000
0000
0300
,
0001
0001
0001
0000
,
1000
1000
1000
0000
,
0010
0010
0010
0000
,
0100
0100
0100
0000
,
0001
0010
0100
0000
,
0001
0010
0100
0000
,
1000
0100
0010
0000
,
1001
0000
1100
0000
,
0101
0000
1100
0000
,
0000
0000
0000
0110
,
1000
0001
0100
0000
,
0001
1000
0010
0000
,
0100
0001
0010
0000
,
1000
0100
0010
0000
,
0001
1000
0010
0000
,
0001
0100
1000
0000
,
0010
0100
1000
0000
,
0001
0100
0010
0000
,
1000
0010
0100
0000
,
1000
0100
0001
0000
,
1000
0100
1000
0000
,
0001
0010
0001
0000
,
0010
0100
0010
0000
,
1000
0010
1000
0000
,
0001
1000
0001
0000
,
0100
0010
0100
0000
,
0002
0000
0000
0003
,
2000
0000
0000
3000
,
0020
0000
0000
0030
,
0002
0000
0000
0003
,
0200
0000
0000
0300
,
2000
0000
0000
3000
,
0002
0000
0000
0003
,
0200
0000
0000
0300
,
0020
0000
0000
0030
,
2000
0000
0000
3000
,
0001
0000
0000
0000
;

//---------------dance-single - ----------------
#NOTES:
     dance-single:
     :
     Hard:
     7:
     0.442,0.571,0.670,0.086,0.076:
0000
0000
0000
0000
,
0000
0000
0000
0000
,
0000
0000
0000
0000
,
0000
0000
0000
0000
,
0000
0000
0000
0000
,
0000
0000
0000
0000
,
0000
0000
0000
0000
,
0000
0000
0000
0000
,
0000
0000
0000
0000
,
0000
0000
0000
0000
,
1100
0110
0011
1000
,
0101
0110
1010
0001
,
1100
0101
1001
0100
,
0101
1100
1001
0010
,
0110
0101
1010
0001
,
1000
1000
0100
0100
,
0011
1100
1010
0001
,
1000
1000
0100
0100
,
0001
0010
0100
1000
,
0010
0010
0010
0000
0100
0100
0100
0000
,
1000
0100
0010
0001
,
0100
0100
0100
0000
0010
0010
0010
0000
,
0002
1003
1100
0000
,
0020
0130
1100
0000
,
2000
3001
0101
0000
,
0200
0310
0101
0000
,
1000
1100
0001
0101
,
1000
1100
0010
0011
,
1000
1100
0010
0110
,
0001
1001
0100
0110
,
0001
0000
0000
0000
0000
0000
0000
0000
0001
0000
0000
0000
0000
0000
0000
0000
0001
0000
0000
0000
0000
0010
0000
0000
0000
0000
0000
0000
0000
0100
0000
0000
,
0000
0000
0000
0000
0000
0100
0000
0000
0000
0000
0000
0000
0000
1000
0000
0000
0001
0000
0000
0000
0000
0000
0000
0000
0000
0000
0000
0000
0000
0000
0000
0000
,
1000
0000
0000
0000
0000
0000
0000
0000
1000
0000
0000
0000
0000
0000
0000
0000
1000
0000
0000
0000
0000
0010
0000
0000
0000
0000
0000
0000
0000
0100
0000
0000
,
0000
0000
0000
0000
0000
0100
0000
0000
0000
0000
0000
0000
0000
0001
0000
0000
1000
0000
0000
0000
0000
0000
0000
0000
0000
0000
0000
0000
0000
0000
0000
0000
,
0100
0000
0000
0000
0000
0000
0000
0000
0100
0000
0000
0000
0000
0000
0000
0000
1000
0000
0000
0000
0000
0001
0000
0000
0000
0000
0000
0000
0000
0100
0000
0000
,
0000
0000
0000
0000
0000
0100
0000
0000
0000
0000
0000
0000
0000
0001
0000
0000
1000
0000
0000
0000
0000
0000
0000
0000
0000
0000
0000
0000
0000
0000
0000
0000
,
0100
0000
0000
0000
0000
0000
0000
0000
0100
0000
0000
0000
0000
0000
0000
0000
0001
0000
0000
0000
0000
1000
0000
0000
0000
0000
0000
0000
0000
0100
0000
0000
,
0010
0000
0000
0000
,
0000
0000
0000
0000
,
0200
0000
0000
0310
,
1100
0011
1100
0001
,
0110
1100
0101
0010
,
1100
0101
1010
0100
,
0001
0001
0001
0000
0100
0100
0100
0000
,
1010
1100
0101
0010
,
0101
1100
1010
0001
,
0110
1100
0011
0100
,
0010
0010
0010
0000
1000
1000
1000
0000
,
0002
1003
1010
0100
,
2000
3010
0101
0010
,
0200
0301
1100
0010
,
0001
0001
0001
0000
0100
0100
0100
0000
,
0001
0101
1000
1010
,
0001
0011
1000
1100
,
0010
1001
0100
0110
,
1000
1000
1000
0000
0010
0010
0010
0000
,
1000
0001
0101
0000
,
0001
1000
1100
0000
,
1000
0010
0110
0000
,
0001
0010
0110
0000
,
1000
0100
0001
0000
,
1000
0100
0001
0000
,
1000
0010
0001
0000
,
1000
0010
0001
0000
,
0100
0100
0100
0100
,
0100
0100
0100
0000
,
1001
0000
0000
0000
;

//---------------dance-double - ----------------
#NOTES:
     dance-double:
     :
     Easy:
     1:
     0.159,0.321,0.151,0.000,0.000: // measure 1
00000000
00000000
00000000
00000000
,  // measure 2
00000000
00000000
00000000
00000000
,  // measure 3
00000000
00000000
00000000
00000000
,  // measure 4
00000000
00000000
00000000
00000000
,  // measure 5
00000000
00000000
00000000
00000000
,  // measure 6
00000000
00000000
00000000
00000000
,  // measure 7
00000000
00000000
00000000
00000000
,  // measure 8
00000000
00000000
00000000
00000000
,  // measure 9
00000000
00000000
00000000
00000000
,  // measure 10
00000000
00000000
00000000
00000000
,  // measure 11
10000000
01000000
00100000
00010000
,  // measure 12
10000000
01000000
00100000
00010000
,  // measure 13
10000000
00100000
00010000
00100000
,  // measure 14
10000000
00010000
00100000
01000000
,  // measure 15
10000000
00100000
01000000
00100000
,  // measure 16
10000000
10000000
10000000
10000000
,  // measure 17
00010000
00100000
01000000
00100000
,  // measure 18
00010000
00010000
00010000
00010000
,  // measure 19
01000000
01000000
01000000
00000000
,  // measure 20
00100000
00100000
00100000
00100000
,  // measure 21
01000000
01000000
01000000
00000000
,  // measure 22
00100000
00100000
00100000
00100000
,  // measure 23
10000000
01000000
00110000
00000000
,  // measure 24
10000000
01000000
00110000
00000000
,  // measure 25
10000000
01000000
00110000
00000000
,  // measure 26
10000000
01000000
00110000
00000000
,  // measure 27
10000000
11000000
00000000
01010000
,  // measure 28
00000000
01100000
00000000
10100000
,  // measure 29
00000000
01010000
00000000
10100000
,  // measure 30
00000000
01010000
00000000
10010000
,  // measure 31
01000000
01000000
01000000
00000000
,  // measure 32
00100000
00000000
00100000
00000000
,  // measure 33
01000000
01000000
01000000
00000000
,  // measure 34
00010000
00000000
00010000
00000000
,  // measure 35
10000000
10000000
10000000
00000000
,  // measure 36
01000000
00000000
01000000
00000000
,  // measure 37
00100000
00100000
00100000
00000000
,  // measure 38
10010000
00000000
00000000
00000000
,  // measure 39
00000000
00000000
00000000
00000000
,  // measure 40
00000000
00000000
00000000
00000000
,  // measure 41
00000000
00000000
00000000
00000000
,  // measure 42
00000000
00000000
00000000
00000000
,  // measure 43
00000000
00000000
00000000
00000000
,  // measure 44
00000000
00000000
00000000
00000000
,  // measure 45
00000000
00000000
00000000
00000000
,  // measure 46
00000000
00000000
00000000
00000000
,  // measure 47
00000000
00000000
00000000
00000000
,  // measure 48
00000000
00000000
00000000
00000000
,  // measure 49
00000000
00000000
00000000
00000000
,  // measure 50
00000000
00000000
00000000
00000000
,  // measure 51
00000000
00000000
00000000
00000000
,  // measure 52
00000000
00000000
00000000
00000000
,  // measure 53
00000000
00000000
00000000
00000000
,  // measure 54
00000000
00000000
00000000
00000000
,  // measure 55
00000000
00000000
00000000
00000000
,  // measure 56
00000000
00000000
00000000
00000000
,  // measure 57
00000000
00000000
00000000
00000000
,  // measure 58
00000000
00000000
00000000
00000000
,  // measure 59
00000000
00000000
00000000
00000000
,  // measure 60
00000000
00000000
00000000
00000000
,  // measure 61
00000000
00000000
00000000
00000000
,  // measure 62
00000000
00000000
00000000
00000000
,  // measure 63
00000000
00000000
00000000
00000000
,  // measure 64
00000000
00000000
00000000
00000000
,  // measure 65
00000000
00000000
00000000
00000000
,  // measure 66
00000000
00000000
00000000
00000000
,  // measure 67
11110000
00000000
00000000
00000000
;

//---------------dance-double - ----------------
#NOTES:
     dance-double:
     :
     Medium:
     1:
     0.006,0.143,0.011,0.000,0.000: // measure 1
00000000
00000000
00000000
00000000
,  // measure 2
00000000
00000000
00000000
00000000
,  // measure 3
00000000
00000000
00000000
00000000
,  // measure 4
00000000
00000000
00000000
00000000
,  // measure 5
00000000
00000000
00000000
00000000
,  // measure 6
00000000
00000000
00000000
00000000
,  // measure 7
00000000
00000000
00000000
00000000
,  // measure 8
00000000
00000000
00000000
00000000
,  // measure 9
00000000
00000000
00000000
00000000
,  // measure 10
00000000
00000000
00000000
00000000
,  // measure 11
00000000
00000000
00000000
00000000
,  // measure 12
00000000
00000000
00000000
00000000
,  // measure 13
00000000
00000000
00000000
00000000
,  // measure 14
00000000
00000000
00000000
00000000
,  // measure 15
00000000
00000000
00000000
00000000
,  // measure 16
00000000
00000000
00000000
00000000
,  // measure 17
00000000
00000000
00000000
00000000
,  // measure 18
00000000
00000000
00000000
00000000
,  // measure 19
00000000
00000000
00000000
00000000
,  // measure 20
00000000
00000000
00000000
00000000
,  // measure 21
00000000
00000000
00000000
00000000
,  // measure 22
00000000
00000000
00000000
00000000
,  // measure 23
00000000
00000000
00000000
00000000
,  // measure 24
00000000
00000000
00000000
00000000
,  // measure 25
00000000
00000000
00000000
00000000
,  // measure 26
00000000
00000000
00000000
00000000
,  // measure 27
00000000
00000000
00000000
00000000
,  // measure 28
00000000
00000000
00000000
00000000
,  // measure 29
00000000
00000000
00000000
00000000
,  // measure 30
00000000
00000000
00000000
00000000
,  // measure 31
00000000
00000000
00000000
00000000
,  // measure 32
00000000
00000000
00000000
00000000
,  // measure 33
00000000
00000000
00000000
00000000
,  // measure 34
00000000
00000000
00000000
00000000
,  // measure 35
00000000
00000000
00000000
00000000
,  // measure 36
00000000
00000000
00000000
00000000
,  // measure 37
00000000
00000000
00000000
00000000
,  // measure 38
00000000
00000000
00000000
00000000
,  // measure 39
00000000
00000000
00000000
00000000
,  // measure 40
00000000
00000000
00000000
00000000
,  // measure 41
00000000
00000000
00000000
00000000
,  // measure 42
00000000
00000000
00000000
00000000
,  // measure 43
00000000
00000000
00000000
00000000
,  // measure 44
00000000
00000000
00000000
00000000
,  // measure 45
00000000
00000000
00000000
00000000
,  // measure 46
00000000
00000000
00000000
00000000
,  // measure 47
00000000
00000000
00000000
00000000
,  // measure 48
00000000
00000000
00000000
00000000
,  // measure 49
00000000
00000000
00000000
00000000
,  // measure 50
00000000
00000000
00000000
00000000
,  // measure 51
00000000
00000000
00000000
00000000
,  // measure 52
00000000
00000000
00000000
00000000
,  // measure 53
00000000
00000000
00000000
00000000
,  // measure 54
00000000
00000000
00000000
00000000
,  // measure 55
00000000
00000000
00000000
00000000
,  // measure 56
00000000
00000000
00000000
00000000
,  // measure 57
00000000
00000000
00000000
00000000
,  // measure 58
00000000
00000000
00000000
00000000
,  // measure 59
00000000
00000000
00000000
00000000
,  // measure 60
00000000
00000000
00000000
00000000
,  // measure 61
00000000
00000000
00000000
00000000
,  // measure 62
00000000
00000000
00000000
00000000
,  // measure 63
00000000
00000000
00000000
00000000
,  // measure 64
00000000
00000000
00000000
00000000
,  // measure 65
00000000
00000000
00000000
00000000
,  // measure 66
00000000
00000000
00000000
00000000
,  // measure 67
11110000
00000000
00000000
00000000
;
