#TITLE:Dancing Pompokolin;
#SUBTITLE:(Captains Eurasia Hyper Mix);
#ARTIST:CAPTAIN JACK;
#TITLETRANSLIT:;
#SUBTITLETRANSLIT:;
#ARTISTTRANSLIT:;
#GENRE:;
#CREDIT:;
#MENUCOLOR:;
#BANNER:Dancing Pompokolin (Captains Eurasia Hyper Mix).png;
#BACKGROUND:Dancing Pompokolin (Captains Eurasia Hyper Mix)-bg.png;
#LYRICSPATH:;
#CDTITLE:./CDTITLES/Dance Mania J-Paradise.PNG;
#MUSIC:Dancing Pompokolin (Captains Eurasia Hyper Mix).mp3;
#OFFSET:-0.351;
#SAMPLESTART:40.920;
#SAMPLELENGTH:12.000;
#SELECTABLE:YES;
#LISTSORT:;
#BPMS:0.000=142.000;
#STOPS:;
#TICKCOUNT:0.000=2;
#SPEED:0.000=1.00;
#MULTIPLIER:0.000=1;
#BGCHANGES:15.750=heart2.avi=1.000=1=0=0,23.750=fireworks1.avi=1.000=0=0=0,25.750=heart2.avi=1.000=0=1=0,27.750=Robot4.avi=0.781=0=0=0,31.750=wheel5.avi=1.000=0=0=0,39.750=ring3.avi=1.000=0=0=0,47.750=wheel5.avi=1.000=0=1=0,55.750=ring3.avi=1.000=0=1=0,63.750=Dance3C.avi=0.950=0=0=0,71.750=circle1.avi=1.000=0=0=0,79.750=Dance3.avi=0.781=0=0=0,87.750=blackhole2r.avi=1.000=0=0=0,93.750=blackhole2.avi=1.000=0=0=0,95.750=Dance3C.avi=0.781=0=1=0,96.750=Dance3.avi=0.781=0=1=0,97.750=heart2.avi=1.000=0=1=0,99.750=Dance3C.avi=0.781=0=1=0,100.750=Dance3.avi=0.781=0=1=0,101.750=heart2.avi=1.000=0=1=0,103.750=wheel5.avi=1.000=0=1=0,107.750=fireworks1.avi=1.000=0=1=0,109.750=blackhole2.avi=1.000=0=1=0,111.750=Dance3C.avi=0.781=0=1=0,112.750=Dance3.avi=0.781=0=1=0,113.750=heart2.avi=1.000=0=1=0,115.750=Dance3C.avi=0.781=0=1=0,116.750=Dance3.avi=0.781=0=1=0,117.750=heart2.avi=1.000=0=1=0,119.750=wheel5.avi=1.000=0=1=0,123.750=fireworks1.avi=1.000=0=1=0,125.750=blackhole2.avi=1.000=0=1=0,127.750=Dance3C.avi=0.781=0=1=0,128.750=Dance3.avi=0.781=0=1=0,129.750=heart2.avi=1.000=0=1=0,131.750=Dance3C.avi=0.781=0=1=0,132.750=Dance3.avi=0.781=0=1=0,133.750=heart2.avi=1.000=0=1=0,135.750=wheel5.avi=1.000=0=1=0,139.750=fireworks1.avi=1.000=0=1=0,141.750=blackhole2.avi=1.000=0=1=0,143.750=Dance3C.avi=0.781=0=1=0,144.750=Dance3.avi=0.781=0=1=0,145.750=heart2.avi=1.000=0=1=0,147.750=Dance3C.avi=0.781=0=1=0,148.750=Dance3.avi=0.781=0=1=0,149.750=heart2.avi=1.000=0=1=0,151.750=fireworks1.avi=1.000=0=1=0,153.750=heart2.avi=1.000=0=1=0,155.750=Robot4.avi=0.781=0=1=0,159.750=Dance3C.avi=0.781=0=1=0,160.750=Dance3.avi=0.781=0=1=0,161.750=heart2.avi=1.000=0=1=0,163.750=Dance3C.avi=0.781=0=1=0,164.750=Dance3.avi=0.781=0=1=0,165.750=heart2.avi=1.000=0=1=0,167.750=wheel5.avi=1.000=0=1=0,171.750=fireworks1.avi=1.000=0=1=0,173.750=blackhole2.avi=1.000=0=1=0,175.750=Dance3C.avi=0.781=0=1=0,176.750=Dance3.avi=0.781=0=1=0,177.750=heart2.avi=1.000=0=1=0,179.750=Dance3C.avi=0.781=0=1=0,180.750=Dance3.avi=0.781=0=1=0,181.750=heart2.avi=1.000=0=1=0,183.750=wheel5.avi=1.000=0=1=0,187.750=fireworks1.avi=1.000=0=1=0,189.750=blackhole2.avi=1.000=0=1=0,191.750=Dance3C.avi=0.781=0=1=0,192.750=Dance3.avi=0.781=0=1=0,193.750=heart2.avi=1.000=0=1=0,195.750=Dance3C.avi=0.781=0=1=0,196.750=Dance3.avi=0.781=0=1=0,197.750=heart2.avi=1.000=0=1=0,199.750=wheel5.avi=1.000=0=1=0,203.750=fireworks1.avi=1.000=0=1=0,205.750=blackhole2.avi=1.000=0=1=0,207.750=Dance3C.avi=0.781=0=1=0,208.750=Dance3.avi=0.781=0=1=0,209.750=heart2.avi=1.000=0=1=0,211.750=Dance3C.avi=0.781=0=1=0,212.750=Dance3.avi=0.781=0=1=0,213.750=heart2.avi=1.000=0=1=0,215.75=Dancing Pompokolin (Captains Eurasia Hyper Mix)-bg.png;
#KEYSOUNDS:;
#ATTACKS:;

//---------------dance-single - BASIC----------------
#NOTES:
     dance-single:
     BASIC:
     Easy:
     1:
     0.143,0.175,0.000,0.244,0.000:
0000
0000
0000
0000
,
0000
0000
0000
0000
,
0000
0000
0000
0000
,
0000
0000
0000
0000
,
0002
0003
0002
0003
,
0000
0000
0001
0000
,
0100
0000
0010
0000
,
0100
0000
0010
0000
,
1000
0000
1000
0000
,
1000
0000
0000
0000
,
0001
0000
0001
0000
,
0001
0000
0000
0000
,
0100
0000
0010
0000
,
0100
0000
0000
0000
,
0010
0000
0100
0000
,
0010
0000
0000
0000
,
1000
0000
0000
0000
,
0010
0000
0000
0000
,
0001
0000
0000
0000
,
0010
0000
0000
0000
,
1000
0000
0100
0000
,
0010
0000
0001
0000
,
0200
0000
0000
0000
,
0300
0000
0000
0000
,
2000
3000
2000
3000
,
0000
0000
1000
0000
,
0002
0003
0002
0003
,
0000
0000
0001
0000
,
0020
0030
0020
0030
,
0000
0000
0010
0000
,
0200
0000
0300
0000
,
0010
0000
0000
0000
,
2000
3000
2000
3000
,
0000
0000
0100
0000
,
0020
0030
0020
0030
,
0000
0000
0001
0000
,
2000
3000
2000
3000
,
0000
0000
0001
0000
,
0100
0000
0000
0000
,
0010
0000
0000
0000
,
2000
3000
2000
3000
,
0000
0000
0010
0000
,
0020
0030
0020
0030
,
0000
0000
0001
0000
,
0200
0300
0200
0300
,
0000
0000
0010
0000
,
0200
0000
0300
0000
,
0010
0000
0000
0000
,
1000
0000
1000
0000
,
0000
0000
0100
0000
,
0001
0000
0001
0000
,
0000
0000
0100
0000
,
0010
0000
0000
0000
,
1000
0000
0000
0000
,
0001
0000
0000
0000
,
0100
0000
0000
0000
;

//---------------dance-single - DIFFICULT----------------
#NOTES:
     dance-single:
     DIFFICULT:
     Medium:
     4:
     0.328,0.409,0.138,0.297,0.000:
0000
0000
0000
0000
,
0000
0000
0000
0000
,
0000
0000
0000
0000
,
0000
0000
0000
0000
,
0020
0030
0200
0300
,
0010
1000
0100
0010
,
0001
0100
0010
1000
,
0100
0010
0002
0003
,
1000
0100
1000
0001
,
1000
0010
0100
0000
,
0001
0100
1000
0010
,
1000
0001
0100
0000
,
1000
0100
0010
0000
,
0010
0100
0001
0000
,
0001
0100
0001
0010
,
0100
1000
0010
0000
,
1000
0100
2000
3000
,
0001
1000
0110
1001
,
0010
0100
0002
0003
,
0100
0010
1001
0110
,
0000
0001
0100
0010
,
1000
1000
0100
0010
,
0002
0000
0000
0003
,
0200
0000
0000
0300
,
0020
1030
0020
1030
,
0100
0100
0001
0001
,
2000
3100
2000
3100
,
0010
0010
0001
0001
,
2000
0100
0100
3100
,
0002
0010
0010
0013
,
0200
0000
0300
0000
,
0020
0000
0030
0000
,
0200
0301
0020
1030
,
0001
1000
0100
0010
,
0200
1300
0020
0031
,
1000
0001
0100
0010
,
0200
0010
0010
0310
,
0002
1000
1000
1003
,
0100
0010
1000
0001
,
0200
0000
0000
0300
,
0102
1003
0102
1003
,
0100
0100
0010
0010
,
0012
0103
0012
0103
,
0001
0001
1000
1000
,
0001
1000
0010
0110
,
1000
0001
0100
1001
,
1000
0100
0010
0110
,
0001
0100
1000
0100
,
2001
0100
0001
3100
,
0000
0010
0001
0100
,
0120
1000
0100
1030
,
0000
0001
0100
0010
,
1000
0100
0001
0000
,
0001
0010
1000
0000
,
0010
0100
1000
0001
,
0010
0000
0000
0000
;

//---------------dance-single - EXPERT----------------
#NOTES:
     dance-single:
     EXPERT:
     Hard:
     7:
     0.521,0.497,0.170,0.287,0.000: // measure 1
0000
0000
0000
0000
,  // measure 2
0000
0000
0000
0000
,  // measure 3
0000
0000
0000
0000
,  // measure 4
0000
0000
0000
0000
,  // measure 5
0200
0000
0310
0001
0200
0000
0310
0000
,  // measure 6
1000
0001
0100
0010
1000
0000
0001
0000
,  // measure 7
0100
0100
0001
0001
0010
0010
0001
0001
,  // measure 8
0100
0100
0010
0010
2000
0000
3010
0000
,  // measure 9
1000
0010
0100
0001
1000
0000
0100
0000
,  // measure 10
0001
1000
0100
0010
0001
0000
0100
0000
,  // measure 11
1000
0100
0001
0100
1000
0000
0001
1000
,  // measure 12
0001
0010
1000
0010
0001
0000
0100
0000
,  // measure 13
0010
0100
0001
1000
0010
0000
0100
0000
,  // measure 14
0001
0010
0100
1000
0001
0000
0010
0000
,  // measure 15
0001
0100
0010
1000
0100
0000
0010
0000
,  // measure 16
1000
0100
0010
0001
0100
0000
0000
0000
,  // measure 17
0001
0100
0010
1000
0001
0000
0110
0000
,  // measure 18
1000
0001
0100
0010
0000
1001
1001
0000
,  // measure 19
0010
0100
1000
0100
0010
0000
0110
0000
,  // measure 20
0010
0100
0001
1000
0000
1001
1001
0000
,  // measure 21
0001
0100
0010
0000
0001
0100
0010
0000
,  // measure 22
1000
0010
0100
0000
1000
0010
0100
0000
,  // measure 23
0010
0100
0001
1000
0100
0010
0001
1000
,  // measure 24
0000
0100
0000
1000
0001
0010
0100
1000
,  // measure 25
0020
0000
1030
0100
0020
0000
0031
0100
,  // measure 26
0000
0010
0000
1000
0001
0100
0001
0000
,  // measure 27
2000
0000
3100
1000
0002
0000
0103
0001
,  // measure 28
0000
1000
0000
0001
0010
0100
1000
0000
,  // measure 29
0020
0000
1030
0100
0020
0000
0031
0100
,  // measure 30
0000
0010
0000
1000
0001
0100
0010
1000
,  // measure 31
1002
0000
0100
0000
1000
1000
1003
0000
,  // measure 32
2100
0000
0001
0000
0100
0100
0100
3000
,  // measure 33
0002
0000
0103
0001
2000
0000
3100
1000
,  // measure 34
0000
0010
0000
0100
0001
0010
0100
0000
,  // measure 35
0020
0000
0130
1000
0020
0000
0130
0001
,  // measure 36
0000
1000
1000
0100
0100
0001
0001
0000
,  // measure 37
0200
0000
1300
0001
0200
0000
0300
0010
,  // measure 38
0000
0100
0001
1000
0010
0000
1000
0001
,  // measure 39
0100
0000
0010
0000
1000
0001
0100
0000
,  // measure 40
0101
0000
1100
0000
0001
0100
1000
0000
,  // measure 41
0102
1003
2100
3001
,  // measure 42
1000
0010
0100
0001
0100
0001
0010
0000
,  // measure 43
0012
0103
0012
0103
,  // measure 44
0010
0100
1000
0001
0100
0010
1000
0000
,  // measure 45
0210
0301
0210
1300
,  // measure 46
0001
0100
1000
0100
0001
0010
1000
0000
,  // measure 47
0100
1000
0010
1000
0100
1000
0010
1000
,  // measure 48
0100
0001
0010
0001
0100
0001
0010
0001
,  // measure 49
0200
0000
0301
0010
0200
0000
1300
0010
,  // measure 50
0000
1000
0001
0100
0001
1000
0100
0000
,  // measure 51
2000
0000
3100
1000
0002
0000
0103
0001
,  // measure 52
0000
1000
1000
0010
0010
0001
0001
0000
,  // measure 53
0010
0000
1000
0100
0010
0000
0000
0001
,  // measure 54
0000
0010
0100
1000
0001
0000
1000
0001
,  // measure 55
0010
1000
0100
0001
,  // measure 56
0010
0000
0000
0000
;

//---------------dance-single - BEGINNER----------------
#NOTES:
     dance-single:
     BEGINNER:
     Beginner:
     1:
     0.085,0.117,0.000,0.000,0.000:
0000
0000
0000
0000
,
0000
0000
0000
0000
,
0000
0000
0000
0000
,
0000
0000
0000
0000
,
0001
0000
0001
0000
,
0000
0000
0001
0000
,
0100
0000
0000
0000
,
0100
0000
0000
0000
,
1000
0000
1000
0000
,
1000
0000
0000
0000
,
0001
0000
0001
0000
,
0001
0000
0000
0000
,
0100
0000
0100
0000
,
0100
0000
0000
0000
,
0010
0000
0010
0000
,
0010
0000
0000
0000
,
1000
0000
0000
0000
,
0010
0000
0000
0000
,
0001
0000
0000
0000
,
0010
0000
0000
0000
,
1000
0000
0000
0000
,
0001
0000
0000
0000
,
0100
0000
0000
0000
,
0000
0000
0000
0000
,
1000
0000
1000
0000
,
0000
0000
0000
0000
,
0001
0000
0001
0000
,
0000
0000
0000
0000
,
0010
0000
0010
0000
,
0000
0000
0000
0000
,
0100
0000
0000
0000
,
0010
0000
0000
0000
,
1000
0000
1000
0000
,
0000
0000
0000
0000
,
0010
0000
0010
0000
,
0000
0000
0000
0000
,
1000
0000
1000
0000
,
0000
0000
0000
0000
,
0100
0000
0000
0000
,
0010
0000
0000
0000
,
1000
0000
1000
0000
,
0000
0000
0000
0000
,
0010
0000
0010
0000
,
0000
0000
0000
0000
,
0100
0000
0100
0000
,
0000
0000
0000
0000
,
0100
0000
0000
0000
,
0010
0000
0000
0000
,
1000
0000
1000
0000
,
0000
0000
0000
0000
,
0001
0000
0001
0000
,
0000
0000
0000
0000
,
0010
0000
0000
0000
,
1000
0000
0000
0000
,
0001
0000
0000
0000
,
0100
0000
0000
0000
;
