#TITLE:DRILL INSTRUCTOR;
#SUBTITLE:(C-Jah Happy Mix);
#ARTIST:CAPTAIN JACK;
#TITLETRANSLIT:;
#SUBTITLETRANSLIT:;
#ARTISTTRANSLIT:;
#CREDIT:;
#BANNER:DRILL INSTRUCTOR (C-Jah Happy Mix).png;
#BACKGROUND:DRILL INSTRUCTOR (C-Jah Happy Mix)-bg.png;
#LYRICSPATH:;
#CDTITLE:./CDTITLES/DANCEMANIA SPEED 3.PNG;
#MUSIC:DRILL INSTRUCTOR (C-Jah Happy Mix).mp3;
#OFFSET:-0.051;
#SAMPLESTART:58.610;
#SAMPLELENGTH:12.000;
#SELECTABLE:YES;
#DISPLAYBPM:170.000;
#BPMS:0.000=170.000;
#STOPS:;
#BGCHANGES:;

//---------------dance-solo - ----------------
#NOTES:
     dance-solo:
     :
     Beginner:
     3:
     0.232,0.310,0.122,0.000,0.000:
000000
000000
000000
000000
,
000000
000000
000000
000000
,
000000
000000
000000
000000
,
000000
000000
000000
000000
,
000000
000000
000000
000000
,
000000
000000
001000
000000
,
010000
000000
001000
000000
,
010000
000000
001000
000000
,
010000
000000
001000
001000
,
001000
000000
000010
000000
,
001000
000000
000010
000000
,
001000
000000
000010
000000
,
010000
000000
000010
010000
,
000010
000000
000000
000000
,
000000
000000
000000
000000
,
001000
000000
010010
000000
,
001000
000000
000000
000000
,
010000
001000
001000
000010
,
010000
001000
001000
000000
,
000010
000000
010000
000000
,
001000
000000
000010
000000
,
001000
001000
001000
010000
,
000010
001000
001000
000000
,
010000
000000
000010
000000
,
001000
000000
010000
000000
,
010000
001000
001000
000010
,
010000
001000
001000
000000
,
000010
000000
010000
000000
,
001000
000000
001000
000000
,
000010
001000
001000
010000
,
000010
001000
001000
000000
,
010000
000000
000010
000000
,
001000
000000
001000
000000
,
010010
000000
010010
000000
,
010000
000000
001000
000000
,
010010
000000
010010
000000
,
000010
000000
001000
000000
,
001000
000000
010010
000000
,
001000
010000
001000
000010
,
010000
000000
000010
000000
000000
001000
001000
000000
,
010000
000000
000010
000000
000000
001000
001000
000000
,
000000
000000
001000
000000
,
010000
000000
001000
000000
,
010000
000000
001000
000000
,
000010
000000
001000
000000
,
000010
000000
001000
001000
,
010010
000000
001000
000000
,
000010
000000
001000
000000
,
010000
000000
001000
000000
,
000010
000000
001000
001000
,
010010
000000
010000
000000
,
001000
000000
010000
000000
,
001000
000000
000010
000000
,
001000
000000
000010
000000
,
000000
000000
001000
001000
,
010010
000000
001000
000000
,
001000
000000
000010
000000
,
001000
000000
010000
000000
,
010010
000000
001000
000000
,
010010
000000
001000
000000
,
000010
001000
000010
001000
,
001000
001000
010000
001000
,
010000
000000
000000
000000
;

//---------------dance-solo - ----------------
#NOTES:
     dance-solo:
     :
     Easy:
     3:
     0.249,0.310,0.211,0.000,0.000:
000000
000000
000000
000000
,
000000
000000
000000
000000
,
000000
000000
000000
000000
,
000000
000000
000000
000000
,
000000
000000
000000
000000
,
000000
000000
001000
000000
,
100000
000000
001000
000000
,
100000
000000
001000
000000
,
100000
000000
001000
000100
,
001000
000000
000001
000000
,
001000
000000
000001
000000
,
001000
000000
000001
000000
,
010000
000000
000010
100000
,
000001
000000
000000
000000
,
000000
000000
000000
000000
,
001100
000000
100001
000000
,
010010
000000
000000
000000
,
100000
000100
001000
000001
,
100000
001000
000100
000000
,
000001
000000
100000
000000
,
100000
000000
000001
000000
,
000001
000100
001000
100000
,
000001
001000
000100
000000
,
100000
000000
000001
000000
,
000001
000000
100000
000000
,
100000
001000
000100
000001
,
100000
001000
000100
000000
,
000010
000000
010000
000000
,
000100
000000
001000
000000
,
000001
001000
000100
100000
,
000001
001000
000100
000000
,
010000
000000
000010
000000
,
000100
000000
001000
000000
,
001100
100001
001100
000000
,
010000
000000
001000
000000
,
100001
001100
100001
000000
,
000010
000000
001000
000000
,
001100
100001
010010
000000
,
000100
100000
001000
000001
,
010000
000000
000010
000000
000000
001000
000100
000000
,
001000
000000
000100
000000
000000
010000
000010
000000
,
000000
000000
001000
000000
,
100000
000000
001000
000000
,
100000
000000
001000
000000
,
000001
000000
001000
000000
,
000001
000000
001000
000100
,
100001
000000
000100
000000
,
000001
000000
000100
000000
,
100000
000000
000100
000000
,
000001
000000
001000
000100
,
010010
000000
100000
000000
,
001000
000000
100000
000000
,
000100
000000
000001
000000
,
001000
000000
000001
000000
,
000000
000000
001000
000100
,
010010
000000
100000
000000
,
000100
000000
000001
000000
,
000100
000000
100000
000000
,
010010
000000
001100
000000
,
100001
000000
001100
000000
,
000001
000010
000001
000100
,
001000
000100
100000
010000
,
100000
000000
000000
000000
;

//---------------dance-solo - ----------------
#NOTES:
     dance-solo:
     :
     Medium:
     4:
     0.284,0.413,0.222,0.000,0.000:
000000
000000
000000
000000
,
000000
000000
000000
000000
,
000000
000000
000000
000000
,
000000
000000
000000
000000
,
000000
000000
000000
000000
,
000000
000000
001000
100000
,
001000
100000
001000
100000
,
000010
000000
000000
001000
,
000001
001000
000001
001000
,
010000
000000
001000
000101
,
101000
000000
000000
001000
,
100000
001000
000100
001000
,
100000
001000
000010
010000
,
100001
000000
000000
000000
,
000000
000000
000000
000000
,
000011
000000
000100
000000
,
110000
000000
000000
000000
,
000001
000000
100100
000000
,
000010
000000
100000
001000
000000
000000
000000
000000
,
100000
000000
000001
000000
,
000001
000000
100000
000000
,
000001
000000
101000
000000
,
000010
000000
100000
001000
100000
000000
000000
000000
,
000001
000000
100000
000000
,
100000
000000
000001
000000
,
100000
000000
000101
000000
,
010000
000000
000001
001000
000000
000000
000000
000000
,
001000
000000
000100
000000
,
000100
000000
001000
000000
,
100000
000000
001001
000000
,
010000
000000
000001
001000
000001
000000
000000
000000
,
000100
000000
001000
000000
,
001000
000000
000100
000000
,
100000
010000
001000
000000
,
010000
000000
010000
000000
,
000001
000010
001000
000000
,
000010
000000
000010
000000
,
100000
001000
000001
000000
,
100000
010000
000001
001000
,
100000
000000
010000
000000
000000
000001
001000
000000
,
100000
000000
010000
000000
000000
000001
100000
000000
,
000000
000000
001000
100000
,
001000
100000
001000
100000
,
000101
000000
000000
001000
,
000001
001000
000001
001000
,
100000
001000
100000
001000
,
010010
000000
001000
100000
,
001000
100000
001000
100000
,
000101
000000
000000
001000
,
000001
001000
000001
001000
,
010010
000000
000010
100100
,
001001
000000
000000
001000
,
000001
001000
000100
001000
,
000001
001000
000100
000000
,
000000
000000
010000
000101
,
101000
000000
000000
001000
,
100000
001000
000100
001000
,
100000
001000
010010
001001
,
101000
000000
000000
010000
000010
000000
000000
000000
,
001000
000000
000000
000000
000001
000000
000000
001000
,
000100
000000
000000
001000
000100
000000
000000
000000
,
000010
000100
010000
000100
,
001000
000000
000000
000000
;

//---------------dance-solo - ----------------
#NOTES:
     dance-solo:
     :
     Hard:
     7:
     0.467,0.585,0.722,0.000,0.000:
000000
000000
000000
000000
,
000000
000000
000000
000000
,
000000
000000
000000
000000
,
000000
000000
000000
000000
,
000000
000000
000000
000000
,
000000
000000
101000
000010
,
000001
000000
010000
000000
100000
000000
100000
000001
,
001000
000000
000000
000000
000000
000000
100000
001000
,
100000
000000
010000
000000
100000
000000
100000
000001
,
000100
000000
000000
000000
010000
000000
000010
000100
,
001000
000000
000000
000000
000000
000000
100000
001000
,
100000
000010
000001
010000
,
100000
000000
000101
000000
101000
000000
100000
001000
,
100000
000000
000000
000000
100000
000000
000000
000001
,
000000
000100
000000
001000
000000
000100
000000
000000
,
000110
000011
010100
110000
,
100001
000000
000000
000000
,
100100
000000
001001
000000
100000
000010
001000
000000
,
000100
000000
100000
000010
001000
000000
000000
000000
,
000001
001000
100000
000100
,
001000
000100
010010
000000
,
101000
100100
101000
100100
,
101000
000000
100000
000010
001000
000000
000000
000000
,
100000
001000
000001
000100
,
001000
000100
010010
000000
,
100100
000000
001001
000000
100000
000010
001000
000000
,
000100
000000
100000
000010
001000
000000
000000
000000
,
001001
101000
100100
000101
,
001001
101000
010010
000000
,
001001
000101
001001
000101
,
001001
000000
000001
010000
001000
000000
000000
000000
,
101000
001001
000101
100100
,
101000
001001
010010
001000
,
100000
010000
001000
000001
100000
000000
000000
000000
,
000101
100100
001000
000000
,
000001
000010
001000
100000
000001
000000
000000
000000
,
100100
000101
001000
000000
,
100000
010000
001000
000001
100000
000000
000000
000000
,
110000
000001
000011
100000
,
000011
000000
100000
000000
000000
000010
010000
000000
,
110000
000000
000001
000000
000000
010000
000010
000000
,
000000
000000
101000
000010
,
000001
000000
010000
000000
100000
000000
000001
001000
,
100000
000000
000000
000000
000000
000000
100000
000100
,
100000
000000
000001
000100
000001
000000
100000
001000
,
100000
000000
000001
001000
000001
000000
010000
000010
,
001000
000000
101000
000010
,
000001
000000
010000
000000
100000
000000
000001
001000
,
100000
000000
000000
000000
000000
000000
100000
001000
,
100000
000000
010000
000000
100000
000000
000001
001000
,
100000
000000
000101
101000
,
000101
000000
000000
000000
000000
000000
100000
001000
,
100000
100000
001000
000001
001000
001000
000001
100000
,
000100
000100
000000
001000
000100
000000
000000
000000
,
000000
000000
101000
000101
,
101000
000000
000000
000000
000000
000000
100000
001000
,
100000
100000
001000
000001
001000
001000
000001
100000
,
000001
101000
000101
001001
,
100100
000000
000000
100000
010000
000000
000000
010100
,
000000
000110
000000
010100
000000
000110
000000
100000
,
010000
000000
000000
000001
000010
000000
000000
101000
,
000000
000101
000000
001100
000000
100000
010000
100000
,
010000
000000
000000
000000
;

//---------------dance-single - W1p3out----------------
#NOTES:
     dance-single:
     W1p3out:
     Hard:
     8:
     0.513,0.551,0.411,0.000,0.006: // measure 1
0000
0000
0000
0000
,  // measure 2
0000
0000
0000
0000
,  // measure 3
0000
0000
0000
0000
,  // measure 4
1000
0000
0000
0000
,  // measure 5
1000
0000
0000
1000
,  // measure 6
0001
0000
0000
0000
,  // measure 7
0001
0000
0000
0000
,  // measure 8
0001
0000
0000
0000
,  // measure 9
0001
0000
0000
0000
,  // measure 10
1100
0000
0000
0000
0001
0000
0010
0001
,  // measure 11
0000
0000
0000
0000
0000
0000
0000
1000
,  // measure 12
0001
0000
0000
0000
1000
0000
0000
0100
,  // measure 13
1000
0001
1000
0001
1000
0001
1000
0001
,  // measure 14
1000
0100
0010
0000
0001
0100
0010
0000
,  // measure 15
1000
0100
0010
0001
0100
0010
1000
0100
,  // measure 16
1000
0010
1000
0000
0001
0010
0001
0000
,  // measure 17
0100
0000
0100
0000
0100
0100
0100
0000
,  // measure 18
1010
0000
1100
0000
0010
0001
0100
0001
,  // measure 19
0010
0000
0010
0010
0000
0000
0000
0000
,  // measure 20
0011
0000
0101
0000
0010
1000
0100
1000
,  // measure 21
0010
0000
0010
0010
0000
0000
0000
0000
,  // measure 22
1100
0000
0001
0100
0000
0100
0010
1000
,  // measure 23
0100
0010
0001
1000
0010
0000
0000
0000
,  // measure 24
0101
0000
1000
0100
0000
0100
0010
0001
,  // measure 25
0100
0010
1000
0001
0010
0000
0000
0000
,  // measure 26
1000
0000
1000
0000
0001
0000
0001
1000
,  // measure 27
0001
0000
0000
0000
0001
0000
1000
0000
0001
0000
0000
1000
0000
0000
0001
0000
,  // measure 28
1000
1000
0100
0100
0010
0010
0001
0001
,  // measure 29
0100
0100
0010
0010
0000
0000
0000
0000
,  // measure 30
0001
0001
0100
0100
0010
0000
1000
1000
,  // measure 31
0100
0100
0010
0001
0100
0000
0000
0000
,  // measure 32
1000
1000
0100
0100
0010
0000
0001
0001
,  // measure 33
0100
0100
0010
1000
0100
0000
1001
0000
,  // measure 34
0010
1000
0100
0000
0100
1000
0001
0000
,  // measure 35
0001
1000
0010
0000
0010
0100
0001
0000
,  // measure 36
1100
1001
0011
1000
,  // measure 37
0101
1001
1010
0001
,  // measure 38
1000
0100
0010
0001
1000
0010
0100
0000
,  // measure 39
1001
0010
1001
0100
,  // measure 40
1001
0000
1100
0000
0000
1010
1010
0000
,  // measure 41
1001
0000
0101
0000
0000
0011
0011
0000
,  // measure 42
1001
0000
0000
0000
,  // measure 43
1000
0100
1000
0000
0001
0100
0001
0000
,  // measure 44
1000
0000
0100
0000
0001
0000
1000
0100
,  // measure 45
0010
0000
0001
0001
0000
0000
1000
0010
,  // measure 46
0100
0000
0001
0001
0000
0000
1100
0000
,  // measure 47
1001
0000
0010
1000
0100
0000
0010
0001
,  // measure 48
0100
0010
1000
0010
0100
0001
0100
0010
,  // measure 49
1000
0000
0001
0000
1000
0100
0010
0001
,  // measure 50
0101
1001
1100
1001
,  // measure 51
0010
0100
0001
0000
0001
0100
0010
0000
,  // measure 52
0010
0100
1000
0000
1000
0100
0010
1000
,  // measure 53
0100
0001
0100
0000
0010
0001
0010
0000
,  // measure 54
1100
0000
1010
0000
0100
0001
1000
0000
,  // measure 55
0100
0010
1000
0000
1000
0010
0100
0000
,  // measure 56
0100
0010
0001
0000
0001
0010
0100
0001
,  // measure 57
0010
1000
0010
0000
0100
1000
0100
0000
,  // measure 58
0011
0000
0101
0000
0010
1000
0001
0000
,  // measure 59
0110
0000
0000
1000
0001
0000
0000
1000
,  // measure 60
0000
0001
0000
1000
0000
0001
0000
1000
,  // measure 61
0001
0000
0000
1000
0001
0000
0000
1000
,  // measure 62
0000
0001
0000
1000
0000
0001
1000
0100
,  // measure 63
0101
0000
0000
0000
;

//---------------dance-single - W1p3out----------------
#NOTES:
     dance-single:
     W1p3out:
     Beginner:
     2:
     0.236,0.310,0.011,0.000,0.000: // measure 1
0000
0000
0000
0000
,  // measure 2
0000
0000
0000
0000
,  // measure 3
0000
0000
0000
0000
,  // measure 4
1000
0000
0000
0000
,  // measure 5
1000
0000
0000
0000
,  // measure 6
0100
0000
0000
0000
,  // measure 7
0000
0000
0000
0000
,  // measure 8
0001
0000
0000
0000
,  // measure 9
0001
0000
0000
0000
,  // measure 10
0100
0000
0000
0000
,  // measure 11
0000
0000
0000
0000
,  // measure 12
1000
0000
0001
0000
,  // measure 13
1000
0000
0001
0000
,  // measure 14
1000
1000
0000
1000
,  // measure 15
0000
1000
1000
0000
,  // measure 16
0001
0001
0000
0001
,  // measure 17
0000
0001
0001
0000
,  // measure 18
1000
1000
1000
1000
,  // measure 19
1000
1000
0000
0000
,  // measure 20
1000
1000
1000
1000
,  // measure 21
1000
1000
0000
0000
,  // measure 22
0001
0001
0001
0001
,  // measure 23
0001
0001
0001
0000
,  // measure 24
0001
0001
0001
0001
,  // measure 25
0001
0001
0001
0000
,  // measure 26
0100
0100
0100
0100
,  // measure 27
0100
0100
0000
0000
,  // measure 28
0100
0100
0100
0100
,  // measure 29
0100
0100
0000
0000
,  // measure 30
0010
0010
0010
0010
,  // measure 31
0010
0010
0010
0000
,  // measure 32
0010
0010
0010
0010
,  // measure 33
0010
0010
0010
0000
,  // measure 34
1000
0000
1000
0000
,  // measure 35
0100
0000
0100
0000
,  // measure 36
0001
0000
0001
0000
,  // measure 37
0100
0000
0100
0000
,  // measure 38
1000
0000
0001
0000
,  // measure 39
0100
0100
0100
0100
,  // measure 40
0100
0100
0000
0100
,  // measure 41
0100
0100
0000
0100
,  // measure 42
0100
0000
0000
0000
,  // measure 43
1000
0000
0010
0000
,  // measure 44
0100
0000
0000
0000
,  // measure 45
0001
0001
0001
0001
,  // measure 46
0001
0001
0001
0001
,  // measure 47
0001
0000
0010
0000
,  // measure 48
0100
0100
0100
0100
,  // measure 49
0100
0000
0000
0000
,  // measure 50
1000
1000
1000
1000
,  // measure 51
1000
0000
0001
0000
,  // measure 52
1000
0000
0001
0000
,  // measure 53
1000
1000
0001
0001
,  // measure 54
1000
1000
0001
0001
,  // measure 55
1000
0000
0001
0000
,  // measure 56
1000
0000
0001
0000
,  // measure 57
1000
1000
0001
0001
,  // measure 58
1000
1000
0001
0001
,  // measure 59
1000
0000
0001
0000
,  // measure 60
1000
0000
0001
0000
,  // measure 61
1000
0000
0001
0000
,  // measure 62
1000
0000
0001
0000
,  // measure 63
1001
0000
0000
0000
;

//---------------dance-single - W1p3out----------------
#NOTES:
     dance-single:
     W1p3out:
     Medium:
     6:
     0.435,0.620,0.567,0.000,0.000: // measure 1
0000
0000
0000
0000
,  // measure 2
0000
0000
0000
0000
,  // measure 3
0000
0000
0000
0000
,  // measure 4
1000
0000
0000
0000
,  // measure 5
1000
0000
0000
0000
,  // measure 6
0100
0000
0000
0000
,  // measure 7
0000
0000
0000
0000
,  // measure 8
0001
0000
0000
0000
,  // measure 9
0001
0000
0000
0000
,  // measure 10
0100
0000
0000
0000
0000
0000
0000
0010
,  // measure 11
0000
0000
0000
0000
0000
0000
0000
1000
,  // measure 12
0001
0000
1000
0000
,  // measure 13
0001
0000
1000
0000
0001
1000
0001
0000
,  // measure 14
1000
0000
0000
0000
0001
0000
0000
1000
,  // measure 15
0000
0001
0000
1000
0000
0001
0000
1000
,  // measure 16
0100
0100
0100
0100
,  // measure 17
0010
0010
0010
0010
,  // measure 18
1001
1100
1001
1010
,  // measure 19
1001
1100
1001
1010
,  // measure 20
0110
0110
1001
1001
,  // measure 21
0110
0110
1001
1001
,  // measure 22
1001
0101
1001
0011
,  // measure 23
1001
0101
1001
0011
,  // measure 24
0110
0110
1001
1001
,  // measure 25
0110
0110
1001
1001
,  // measure 26
0100
0000
0000
0000
0000
0000
0000
0100
,  // measure 27
0010
0000
0100
0010
,  // measure 28
1000
0100
1000
0000
1000
0100
1000
0000
,  // measure 29
1000
0100
1000
0000
1000
0100
1000
0000
,  // measure 30
0001
0001
0001
0001
,  // measure 31
0100
0100
0100
0100
,  // measure 32
0001
0100
0001
0000
0001
0100
0001
0000
,  // measure 33
0001
0100
0001
0000
0001
0100
0001
0000
,  // measure 34
1000
0001
1100
1000
,  // measure 35
0001
1000
0101
0001
,  // measure 36
1000
0001
1000
0000
1001
0000
1000
0000
,  // measure 37
0001
1000
0001
0000
1001
0000
0001
0000
,  // measure 38
0100
0010
0100
0000
0100
0010
0100
0000
,  // measure 39
0101
0100
1100
0100
,  // measure 40
0101
0000
0101
0000
0000
0100
0100
0000
,  // measure 41
1100
0000
1100
0000
0000
0100
0100
0000
,  // measure 42
0110
0000
0000
0000
,  // measure 43
1000
0000
0010
1000
0000
0010
1000
0000
,  // measure 44
0001
0000
0010
0100
0000
0010
0100
0000
,  // measure 45
1000
0000
0010
1000
0010
0000
1000
0000
,  // measure 46
0001
0000
0010
0001
0010
0000
0001
0000
,  // measure 47
1100
0001
0100
1000
,  // measure 48
0001
0100
0001
0000
1000
0100
1000
0000
,  // measure 49
0010
0100
0010
0100
,  // measure 50
0001
1000
0001
0000
1000
0001
1000
0000
,  // measure 51
0101
0000
1000
0000
0001
0100
0010
1000
,  // measure 52
0000
0000
0000
0000
0000
0000
0100
0010
,  // measure 53
0001
0000
0000
1000
0000
0000
0001
0000
,  // measure 54
1000
0000
0010
0100
0000
0000
0000
0000
,  // measure 55
1100
0000
0001
0000
1000
0100
0010
0001
,  // measure 56
0000
0000
0000
0000
0000
0000
0100
0010
,  // measure 57
1000
0000
0000
0001
0000
0000
1000
0000
,  // measure 58
0011
1001
1010
1001
,  // measure 59
0110
0000
0000
1000
0001
0000
0000
1000
,  // measure 60
0000
0001
0000
1000
0000
0001
0000
1000
,  // measure 61
0001
0000
0000
1000
0001
0000
0000
1000
,  // measure 62
0000
0001
0000
1000
0000
0001
1000
0100
,  // measure 63
0010
0000
0000
0000
;

//---------------dance-single - W1p3out----------------
#NOTES:
     dance-single:
     W1p3out:
     Easy:
     4:
     0.308,0.413,0.311,0.000,0.000: // measure 1
0000
0000
0000
0000
,  // measure 2
0000
0000
0000
0000
,  // measure 3
0000
0000
0000
0000
,  // measure 4
1000
0000
0000
0000
,  // measure 5
1000
0000
0000
0000
,  // measure 6
0100
0000
0000
0000
,  // measure 7
0000
0000
0000
0000
,  // measure 8
0001
0000
0000
0000
,  // measure 9
0001
0000
0000
0000
,  // measure 10
0100
0000
0000
0000
0000
0000
0000
0010
,  // measure 11
0000
0000
0000
0000
,  // measure 12
1000
0000
0001
0000
,  // measure 13
1000
0001
1000
0001
,  // measure 14
1000
0100
0010
0001
,  // measure 15
1000
0100
0010
0001
,  // measure 16
0100
0100
0100
0100
,  // measure 17
0010
0010
0010
0010
,  // measure 18
1001
0000
0110
0000
,  // measure 19
1000
0100
0010
0000
,  // measure 20
1001
0000
0110
0000
,  // measure 21
0001
0100
0010
0000
,  // measure 22
1001
0000
0110
0000
,  // measure 23
1000
0001
0010
0000
,  // measure 24
1001
0000
0110
0000
,  // measure 25
0001
1000
0010
0000
,  // measure 26
1001
0000
0000
0000
,  // measure 27
1000
0000
0001
1000
,  // measure 28
0001
0010
0100
1000
,  // measure 29
0010
0100
0001
0000
,  // measure 30
1000
1000
0100
0100
,  // measure 31
0010
0001
0100
0000
,  // measure 32
0001
0001
0100
0100
,  // measure 33
0010
1000
0100
0000
,  // measure 34
1001
0000
1100
0000
,  // measure 35
1001
0000
0101
0000
,  // measure 36
1000
0010
1001
0000
,  // measure 37
0001
0010
1001
0000
,  // measure 38
0110
0000
1001
0000
,  // measure 39
0010
1000
0100
0001
,  // measure 40
0010
0100
0000
1001
,  // measure 41
0010
0100
0000
1001
,  // measure 42
0110
0000
0000
0000
,  // measure 43
1000
0010
1000
0010
,  // measure 44
1000
0100
1000
0100
,  // measure 45
0010
0001
0100
0000
,  // measure 46
0010
0001
0100
0000
,  // measure 47
0001
0010
0001
0010
,  // measure 48
0001
0100
0001
0100
,  // measure 49
0010
1000
0100
0000
,  // measure 50
0010
1000
0100
0000
,  // measure 51
1001
0000
1000
0100
,  // measure 52
0001
0100
1000
0100
,  // measure 53
0001
0001
0001
0100
,  // measure 54
1000
1000
1000
0100
,  // measure 55
1001
0000
0001
0100
,  // measure 56
1000
0100
0001
0100
,  // measure 57
1000
1000
1000
0100
,  // measure 58
0001
0001
0001
0100
,  // measure 59
1001
0000
0010
0000
,  // measure 60
0100
0000
0001
0000
,  // measure 61
1000
0000
0010
0000
,  // measure 62
1001
0110
1001
0110
,  // measure 63
1001
0000
0000
0000
;
