#TITLE:prohibition of world;
#SUBTITLE:;
#ARTIST:insanity tOY;
#TITLETRANSLIT:;
#SUBTITLETRANSLIT:;
#ARTISTTRANSLIT:;
#GENRE:;
#CREDIT:Meseki;
#MENUCOLOR:;
#BANNER:prohibition of world-bn.png;
#BACKGROUND:prohibition of world-bg.png;
#LYRICSPATH:;
#CDTITLE:cdtitle.png;
#MUSIC:prohibition of world.ogg;
#OFFSET:0.000;
#SAMPLESTART:81.581;
#SAMPLELENGTH:16.941;
#SELECTABLE:YES;
#LISTSORT:;
#DISPLAYBPM:*;
#BPMS:0.000=120.000,45.000=155.000,50.500=310.000,198.000=160.000,230.000=320.000,302.000=160.000,306.000=170.000,310.000=340.000,494.000=170.000,511.000=340.000,541.000=85.000;
#STOPS:;
#TICKCOUNT:0.000=2;
#BGCHANGES:;
#KEYSOUNDS:;
#ATTACKS:;

//---------------dance-single - ----------------
#NOTES:
     dance-single:
     :
     Medium:
     9:
     0.555,1.000,0.165,0.203,0.259: // measure 1
0000
0000
0000
0000
,  // measure 2
0000
0000
0000
0000
,  // measure 3
0000
0000
0000
0000
,  // measure 4
0001
0000
1000
0010
0000
0001
0010
0000
0010
1000
0000
0100
0010
0000
0100
1000
,  // measure 5
0100
0010
0100
1000
0001
1000
0010
0100
0001
0010
0100
1000
,  // measure 6
0000
0001
1000
0100
0000
0010
0001
0100
0001
1000
0100
0010
0000
0001
0100
0010
,  // measure 7
0000
0001
0000
0010
0000
1000
0000
0001
0000
0010
0001
0100
0001
0010
0000
0100
,  // measure 8
0000
0010
0001
0010
0000
0100
1000
0100
0000
1000
0000
0100
0000
0010
0000
0001
,  // measure 9
0000
0000
0000
1000
0000
0000
0000
0000
0000
0000
0000
0000
1000
0000
0000
0010
0000
0000
0000
0000
0000
0000
0000
0000
0001
0000
0000
0010
0000
0000
0000
0100
0000
0000
0000
0001
0000
0000
0000
0010
0000
0000
0000
0100
0000
0000
0000
1000
,  // measure 10
0000
0001
0010
0100
1000
0000
0100
0010
0100
1000
0100
0001
0000
0100
0000
0010
,  // measure 11
0000
0000
0000
0001
0000
0000
0010
0000
0000
0001
0000
0000
0000
0000
0000
0010
0000
0000
0100
0000
0000
0010
0000
0000
0000
0000
0000
0100
0000
0000
1000
0000
0000
0100
0000
0000
0000
0000
0000
1000
0000
0000
0000
0000
0010
0000
0000
0000
,  // measure 12
0000
0100
0000
0000
0000
0000
2002
0000
0000
0000
0000
0000
0000
0000
0000
0000
0000
0000
0000
0000
0000
0000
0000
0000
0000
0000
0000
0000
0000
0000
0000
0000
0000
0000
0000
0000
3003
0000
0000
0000
0000
0000
0000
0000
0000
0000
0000
0000
,  // measure 13
0000
0200
0000
0000
,  // measure 14
0000
0000
0000
0000
,  // measure 15
0000
0300
1001
0000
,  // measure 16
0100
0001
0100
0000
,  // measure 17
0100
0001
1000
0010
,  // measure 18
1000
0010
1000
0010
,  // measure 19
1000
0010
0001
0010
,  // measure 20
0001
0010
0001
0010
,  // measure 21
0001
0000
0010
0000
1000
0000
0000
1000
,  // measure 22
0001
0000
0000
0000
1000
0000
0001
0100
,  // measure 23
0001
0000
0000
0000
1000
0000
0000
1000
,  // measure 24
0001
0000
0000
0000
1000
0000
0001
0100
,  // measure 25
0001
0000
0000
0000
1000
0000
0000
0100
,  // measure 26
0010
0000
0000
0001
0000
0001
0000
1000
,  // measure 27
0000
0100
1000
0001
0000
0000
0000
0000
,  // measure 28
0000
0000
0000
0010
0000
0010
0000
0100
,  // measure 29
0000
1000
0001
0010
0000
0000
0000
0000
,  // measure 30
0000
0000
1000
0000
,  // measure 31
0001
0000
1001
0000
,  // measure 32
1001
0000
1000
0100
,  // measure 33
0001
0000
0100
0000
0010
0000
0000
0100
,  // measure 34
1000
0000
0000
0000
0010
0000
0000
0100
,  // measure 35
0001
0000
0100
0000
0010
0000
0000
1000
,  // measure 36
0100
0000
0000
0000
0010
0000
0000
0001
,  // measure 37
0100
0000
0001
0000
0010
0000
0000
0100
,  // measure 38
1000
0000
0000
0000
0010
0000
0000
0100
,  // measure 39
0001
0000
0100
0000
0010
0000
0000
1000
,  // measure 40
0100
0000
0000
0000
0010
0000
0000
0001
,  // measure 41
0100
0000
0001
0000
0011
0000
0000
0100
,  // measure 42
1000
0000
0000
0000
0010
0000
0000
0100
,  // measure 43
0001
0000
0100
0000
0010
0000
0000
1000
,  // measure 44
0100
0000
0000
0000
0010
0000
0000
0001
,  // measure 45
0100
0000
0001
0000
0010
0000
0000
0100
,  // measure 46
1000
0000
0000
0000
0010
0000
0000
0100
,  // measure 47
0001
0000
0100
0000
0010
0000
0000
1000
,  // measure 48
0100
0000
0000
0000
0010
0000
0000
0001
,  // measure 49
0100
1000
0100
0010
,  // measure 50
0001
0010
2010
0000
,  // measure 51
0000
0000
3000
0000
,  // measure 52
0000
0000
0000
0000
,  // measure 53
0000
0000
0000
0000
,  // measure 54
0000
0000
0100
0000
,  // measure 55
0000
0000
0000
0000
,  // measure 56
0000
0000
0000
0000
,  // measure 57
0010
0000
0000
0000
,  // measure 58
0000
0000
0002
0000
,  // measure 59
0000
0000
0000
0000
,  // measure 60
0000
0000
1003
0010
,  // measure 61
1000
0000
0100
0001
,  // measure 62
0100
0000
0010
0001
0000
0000
0000
0000
,  // measure 63
0000
0000
0000
0000
,  // measure 64
0000
0000
1000
0010
,  // measure 65
1000
0000
0100
0001
,  // measure 66
0100
0000
0010
0001
0000
0000
0000
0000
,  // measure 67
0000
0000
0000
0000
,  // measure 68
0000
0000
1000
0001
,  // measure 69
0010
0000
0100
1000
,  // measure 70
0001
0000
1000
0010
1000
0000
0001
0000
,  // measure 71
0010
0000
0100
1000
,  // measure 72
0001
0000
1000
0010
1000
0000
0001
0000
,  // measure 73
0010
0000
0100
1000
,  // measure 74
0001
0000
1000
0010
1000
0000
1000
0000
,  // measure 75
0010
0010
0100
0100
,  // measure 76
0001
0001
2002
0000
,  // measure 77
0003
0000
3000
0000
,  // measure 78
0001
0010
0001
0000
0100
1000
0100
0000
1000
0000
0000
0000
1000
0000
0000
0000
,  // measure 79
0010
0010
1000
1000
,  // measure 80
0001
0001
1000
0100
,  // measure 81
1000
0000
0100
0000
0001
0000
0100
0010
,  // measure 82
0100
0000
1000
0010
2000
0000
0010
0000
,  // measure 83
0000
0000
3001
0000
0001
0100
0001
0000
,  // measure 84
1000
0010
1000
0001
0020
0000
1000
0000
,  // measure 85
0000
0000
0031
0000
1000
0001
1000
0000
,  // measure 86
0001
0010
0001
1000
0100
0000
0001
0000
,  // measure 87
0100
1000
0001
0010
,  // measure 88
0100
0001
0200
0000
,  // measure 89
1300
0000
0010
0000
1000
0001
0000
0001
,  // measure 90
1000
0000
0010
1000
0001
0000
1000
0001
,  // measure 91
1000
0001
0010
0100
,  // measure 92
1000
0100
0001
0100
,  // measure 93
1000
0010
0100
0001
,  // measure 94
0010
0000
0100
0000
1000
0100
0000
1000
,  // measure 95
0010
0000
1000
0002
0000
0000
0103
0000
,  // measure 96
0010
1000
0001
0010
,  // measure 97
0100
1000
0001
0100
,  // measure 98
0010
0001
0010
0100
,  // measure 99
0001
0000
0010
0000
0200
0000
0010
0300
,  // measure 100
2000
0000
0010
3000
0002
0000
0100
0003
,  // measure 101
0020
0000
0100
0030
0002
0000
1000
0003
,  // measure 102
0200
0000
1000
0300
1000
0000
0100
0000
,  // measure 103
0010
0000
1000
0000
0100
0000
0000
0010
,  // measure 104
0000
0000
0100
0000
0001
0000
0000
0100
,  // measure 105
0000
1000
1100
0100
,  // measure 106
0010
0001
1001
0000
,  // measure 107
0011
0000
0110
0000
,  // measure 108
1100
0000
0011
0000
,  // measure 109
1010
0000
1100
0000
,  // measure 110
0101
0000
0000
0000
0001
0000
1000
0010
,  // measure 111
1000
0000
0001
0000
0010
0000
0100
1000
,  // measure 112
0100
0000
1000
0000
0020
0000
0030
0200
,  // measure 113
0000
0300
0010
0000
1000
0000
0100
0000
,  // measure 114
0010
0000
0001
0000
0020
0000
0030
2000
,  // measure 115
0000
3000
0010
0000
0200
0000
0300
0002
,  // measure 116
0000
0003
0100
0000
0010
0000
0001
0000
,  // measure 117
0100
0000
0010
0000
1000
0000
0100
0010
,  // measure 118
0100
0000
0010
0000
0011
0000
0000
0101
,  // measure 119
0000
1010
1000
0100
,  // measure 120
0010
0000
0001
0000
0101
0000
0000
0110
,  // measure 121
0000
1001
0001
0010
,  // measure 122
0100
0000
1000
0000
0001
0010
0000
0001
,  // measure 123
0100
0000
0001
1000
0000
0000
0000
0000
,  // measure 124
1000
0100
0010
0002
0000
0000
0000
0003
,  // measure 125
0000
0000
0000
0000
,  // measure 126
0000
0020
0000
0000
0000
0000
0000
0000
,  // measure 127
0100
0000
0030
0000
0000
0000
0000
0000
1000
0001
0000
0000
0000
0000
0000
0000
,  // measure 128
1000
0001
0000
0000
1000
0000
0001
1000
0001
1000
0001
1000
0002
0000
0000
0000
,  // measure 129
0000
0000
0000
0000
,  // measure 130
0000
0000
0000
0000
,  // measure 131
0000
0000
0000
0000
,  // measure 132
0000
0000
0000
0000
,  // measure 133
0000
0000
0000
0000
,  // measure 134
0000
0000
0000
0000
,  // measure 135
0000
0000
0000
0000
,  // measure 136
0000
0000
0000
0003
0000
0000
0020
0130
0000
0000
0000
0000
0000
0000
0000
0000
0000
0000
0000
0000
0000
0000
0000
0000
;

//---------------dance-single - ----------------
#NOTES:
     dance-single:
     :
     Easy:
     7:
     0.406,0.761,0.143,0.195,0.154: // measure 1
0000
0000
0000
0000
,  // measure 2
0000
0000
0000
0000
,  // measure 3
0000
0000
0000
0000
,  // measure 4
1000
0000
0000
0010
0000
0000
1000
0000
0001
0000
0000
0100
0000
0000
0001
0000
,  // measure 5
1000
0010
0000
0001
0010
0000
0100
0001
0000
1000
0100
0000
,  // measure 6
0000
0010
0000
0100
0000
1000
0000
0000
0000
0001
0000
0100
0000
0010
0000
0000
,  // measure 7
0000
1000
0000
0001
0000
0100
0000
0000
0000
0001
0000
0100
0000
1000
0000
0100
,  // measure 8
0000
0010
0000
1000
0000
0001
0000
1000
0000
0010
0000
0100
0000
0001
0000
1000
,  // measure 9
0000
0100
0000
0000
0000
0010
0000
0000
0000
0001
0000
0000
0000
1000
0000
0000
,  // measure 10
0000
0010
0000
0000
0100
0000
0000
0010
0000
1000
0000
0001
0000
1000
0000
0010
,  // measure 11
0000
0001
0000
0000
0000
0010
0000
0000
0000
0100
0000
0000
0000
0001
0000
0000
,  // measure 12
0000
2002
0000
0000
0000
0000
3003
0000
,  // measure 13
0000
0020
0000
0000
,  // measure 14
0000
0000
0000
0000
,  // measure 15
0000
0030
1000
0000
,  // measure 16
0001
0000
0001
0000
,  // measure 17
1000
0000
1000
0010
,  // measure 18
1000
0000
0001
0100
,  // measure 19
0001
0000
1000
0100
,  // measure 20
1000
0000
0001
0010
,  // measure 21
0001
0000
1000
0000
,  // measure 22
0010
0000
1000
0100
,  // measure 23
0010
0000
0001
0000
,  // measure 24
0010
0000
0001
0100
,  // measure 25
0010
0000
1000
0000
,  // measure 26
0010
0000
0000
1000
0000
0001
0000
1000
,  // measure 27
0000
1000
0000
0001
0000
0000
0000
0000
,  // measure 28
0000
0000
0000
1000
0000
0001
0000
1000
,  // measure 29
0000
1000
0000
0001
0000
0000
0000
0000
,  // measure 30
0000
0000
1000
0000
,  // measure 31
0001
0000
1001
0000
,  // measure 32
1001
0000
1000
0001
,  // measure 33
1000
0000
0001
0000
1000
0000
0000
0100
,  // measure 34
0000
0000
0000
0000
0001
0000
0000
0100
,  // measure 35
0000
0000
1000
0000
0001
0000
0000
0100
,  // measure 36
0000
0000
0000
0000
1000
0000
0000
0100
,  // measure 37
0000
0000
0001
0000
1000
0000
0000
0010
,  // measure 38
0000
0000
0000
0000
0001
0000
0000
0010
,  // measure 39
0000
0000
1000
0000
0001
0000
0000
0010
,  // measure 40
0000
0000
0000
0000
1000
0000
0000
0010
,  // measure 41
0000
0000
0001
0000
0100
0000
0000
1000
,  // measure 42
0000
0000
0000
0000
0100
0000
0000
0001
,  // measure 43
0000
0000
1000
0000
0100
0000
0000
0001
,  // measure 44
0000
0000
0000
0000
0100
0000
0000
1000
,  // measure 45
0000
0000
0001
0000
0010
0000
0000
1000
,  // measure 46
0000
0000
0000
0000
0010
0000
0000
0001
,  // measure 47
0000
0000
1000
0000
0010
0000
0000
0001
,  // measure 48
0000
0000
0000
0000
0010
0000
0000
1000
,  // measure 49
0000
0001
0010
0100
,  // measure 50
1000
0001
2001
0000
,  // measure 51
0000
0000
3000
0000
,  // measure 52
0000
0000
0000
0000
,  // measure 53
0000
0000
0000
0000
,  // measure 54
0000
0000
0001
0000
,  // measure 55
0000
0000
0000
0000
,  // measure 56
0000
0000
0000
0000
,  // measure 57
0100
0000
0000
0000
,  // measure 58
0000
0000
0002
0000
,  // measure 59
0000
0000
0000
0000
,  // measure 60
0000
0000
1003
0000
,  // measure 61
0010
0000
0100
0001
,  // measure 62
1000
1001
0000
0000
,  // measure 63
0000
0000
0000
0000
,  // measure 64
0000
0000
1000
0000
,  // measure 65
0010
0000
0100
0001
,  // measure 66
1000
1001
0000
0000
,  // measure 67
0000
0000
0000
0000
,  // measure 68
0000
0000
1000
0000
,  // measure 69
0010
0000
0100
0001
,  // measure 70
0100
1000
0100
0000
,  // measure 71
0010
0000
1000
0100
,  // measure 72
0001
0100
1000
0000
,  // measure 73
0100
0000
0010
0001
,  // measure 74
0010
1000
0010
0000
,  // measure 75
0100
0000
1000
0010
,  // measure 76
0001
0010
2002
0000
,  // measure 77
0003
0000
3000
0000
,  // measure 78
0001
0010
0100
1000
0100
0000
0000
0000
,  // measure 79
0010
0000
0100
1000
,  // measure 80
0001
1000
0100
0000
,  // measure 81
0010
0000
0001
1000
,  // measure 82
0001
1000
0020
0000
,  // measure 83
0000
0130
1000
0100
,  // measure 84
0001
0100
0002
0000
,  // measure 85
0000
0013
0100
1000
,  // measure 86
0010
0100
0001
0000
,  // measure 87
0000
1000
0001
0010
,  // measure 88
1000
0010
0200
0000
,  // measure 89
1300
0000
0001
0000
0010
0000
0000
0100
,  // measure 90
0000
1000
0001
1000
,  // measure 91
0001
0010
0100
1000
,  // measure 92
0010
0100
0001
0010
,  // measure 93
0100
1000
0001
0100
,  // measure 94
0001
0000
0100
0000
1000
0000
0000
0100
,  // measure 95
0000
0002
0000
1003
,  // measure 96
0100
0010
0001
0000
,  // measure 97
0010
0000
1000
0000
,  // measure 98
0100
0000
0001
0000
,  // measure 99
1000
0000
0200
0000
,  // measure 100
0010
0000
0000
0300
2000
0000
0000
0000
,  // measure 101
0001
0000
0000
3000
0020
0000
0000
0000
,  // measure 102
0100
0000
0000
0030
1000
0000
0000
0000
,  // measure 103
0001
0000
0000
0000
1000
0000
0000
0010
,  // measure 104
0000
0000
1000
0000
0001
0000
0000
0010
,  // measure 105
0000
0001
2001
0000
,  // measure 106
0010
3000
0101
0000
,  // measure 107
0011
0000
1100
0000
,  // measure 108
1010
0000
1001
0000
,  // measure 109
0110
0000
1100
0000
,  // measure 110
0011
0000
0001
1000
,  // measure 111
1000
0010
0100
0001
,  // measure 112
0001
0000
0100
0000
0020
0000
0030
2000
,  // measure 113
0000
3000
0001
0000
1000
0000
0100
0000
,  // measure 114
0010
0000
0001
0000
0020
0000
0030
2000
,  // measure 115
0000
3000
0010
0000
0200
0000
0300
2000
,  // measure 116
0000
3000
0001
0000
0010
0000
1000
0000
,  // measure 117
0010
0100
1000
0010
,  // measure 118
0001
0000
0010
0000
2000
0000
0000
0100
,  // measure 119
0000
3000
0010
0000
1000
0000
0100
0000
,  // measure 120
0010
0000
0001
0000
0020
0000
0000
1000
,  // measure 121
0000
0030
0001
0000
0010
0000
0100
0000
,  // measure 122
1000
0000
0001
0000
0011
0000
0000
0101
,  // measure 123
0000
1001
0000
0000
,  // measure 124
0010
0000
1000
0020
0000
0000
0000
0030
,  // measure 125
0000
0000
0000
0000
,  // measure 126
0000
2000
0000
0000
0000
0000
0000
0000
,  // measure 127
0001
3000
0000
0000
0010
0000
0000
0000
,  // measure 128
0100
0000
1000
1000
0100
0010
0002
0000
,  // measure 129
0000
0000
0000
0000
,  // measure 130
0000
0000
0000
0000
,  // measure 131
0000
0000
0000
0000
,  // measure 132
0000
0000
0000
0000
,  // measure 133
0000
0000
0000
0000
,  // measure 134
0000
0000
0000
0000
,  // measure 135
0000
0000
0000
0000
,  // measure 136
0000
0003
0100
0000
0000
0000
0000
0000
;

//---------------dance-single - ----------------
#NOTES:
     dance-single:
     :
     Hard:
     10:
     0.701,1.000,0.270,0.278,0.274: // measure 1
0000
0000
0000
0000
,  // measure 2
0000
0000
0000
0000
,  // measure 3
0000
0000
0000
0000
,  // measure 4
0010
1000
0100
0010
0000
0100
1000
0001
0010
0100
1000
0100
0001
0100
1000
0010
,  // measure 5
1000
0001
0010
0001
0100
1000
0001
0010
1000
0100
0010
0001
,  // measure 6
0000
1000
0001
0010
0000
0000
1000
0010
0001
1000
0100
0010
0000
0001
0100
0010
,  // measure 7
0000
0001
0010
1000
0010
0100
1000
0100
0001
0010
0100
1000
0010
0100
0001
0010
,  // measure 8
0100
1000
0100
0001
0000
0001
0100
1000
0000
0100
0010
0100
1000
0001
0100
0010
,  // measure 9
1000
0000
0000
1100
0000
0000
0000
0000
0000
0000
0000
0000
0100
0000
0000
0001
0000
0000
0000
0000
0000
0000
0000
0000
0010
0000
0000
1000
0000
0000
0000
0001
0000
0000
0000
0100
0000
0000
0000
1000
0000
0000
0000
0100
0000
0000
0000
0001
,  // measure 10
0000
0010
0100
0001
0100
0000
1000
0010
0100
0010
0001
0010
1000
0100
0010
0001
,  // measure 11
0100
0000
0000
0010
0000
0000
1000
0000
0000
0010
0000
0000
0000
0000
0000
0100
0000
0000
1000
0000
0000
0100
0000
0000
0000
0000
0000
0001
0000
0000
0010
0000
0000
0001
0000
0000
0000
0000
0000
1000
0000
0000
0000
0000
0010
0000
0000
0000
,  // measure 12
0000
0001
0000
0000
0000
0000
0202
0000
0000
0000
0000
0000
0000
0000
0000
0000
0000
0000
0000
0000
0000
0000
0000
0000
0000
0000
0000
0000
0000
0000
0000
0000
0000
0000
0000
0000
0303
0000
0000
0000
0000
0000
0000
0000
0000
0000
0000
0000
,  // measure 13
0000
2000
0000
0000
,  // measure 14
0000
0000
0000
0000
,  // measure 15
0000
3000
0101
0000
,  // measure 16
0001
0010
1000
0000
,  // measure 17
1000
0010
0001
0100
,  // measure 18
0001
0100
0001
0001
,  // measure 19
0100
0100
0010
1000
,  // measure 20
0010
1000
0010
0010
,  // measure 21
1000
0000
1000
0000
0001
0000
0000
0010
,  // measure 22
1000
0000
0000
0000
0010
0000
0100
1000
,  // measure 23
0010
0000
0000
0000
1000
0000
0000
0100
,  // measure 24
0001
0000
0000
0000
0100
0000
0010
0001
,  // measure 25
1000
0000
0000
0000
0010
0000
0000
0100
,  // measure 26
0001
0000
0000
1000
0000
1000
0000
0001
,  // measure 27
0000
1000
0010
0001
0000
0000
0000
0000
,  // measure 28
0000
0000
0000
0010
0000
0010
0000
0100
,  // measure 29
0000
0010
0001
0100
0000
0000
0000
0000
,  // measure 30
0000
0000
1000
0000
,  // measure 31
0010
0000
0101
0000
,  // measure 32
1100
0000
0110
0110
,  // measure 33
1001
0000
1001
0000
0001
0000
0000
0010
,  // measure 34
0100
0000
0000
1000
0001
0000
0000
1000
,  // measure 35
0010
1000
0100
0000
0010
0000
0000
0001
,  // measure 36
0100
0000
0000
1000
0100
0000
0000
0001
,  // measure 37
0010
0001
0100
0000
0010
0000
0000
1000
,  // measure 38
0100
0000
0000
0001
0100
0000
0000
1000
,  // measure 39
0010
1000
0100
0000
0010
0000
0000
0001
,  // measure 40
0100
0000
0000
1000
0100
0000
0000
0001
,  // measure 41
0100
0001
0010
0000
0012
0003
0000
1000
,  // measure 42
0010
0000
0000
0001
0010
0000
0000
0100
,  // measure 43
1000
0100
0001
0000
1000
0000
0000
0001
,  // measure 44
0010
0000
0000
1000
0010
0000
0000
0100
,  // measure 45
0001
0100
1000
0000
0001
0000
0000
1000
,  // measure 46
0010
0000
0000
0001
0010
0000
0000
0100
,  // measure 47
1000
0100
0010
0000
1000
0000
0000
0100
,  // measure 48
0010
0000
0000
0100
1000
0000
0000
0010
,  // measure 49
1000
0010
1000
0010
0100
0010
0100
0001
,  // measure 50
0100
0001
0100
0000
2100
0000
0000
0000
,  // measure 51
0000
0000
3000
0000
,  // measure 52
0000
0000
0000
0000
,  // measure 53
0000
0000
0000
0000
,  // measure 54
0000
0000
0100
0000
,  // measure 55
0000
0000
0000
0000
,  // measure 56
0000
0000
0000
0000
,  // measure 57
0001
0000
0000
0000
,  // measure 58
0000
0000
0020
0000
,  // measure 59
0000
0000
0000
0000
,  // measure 60
0000
0000
0000
0000
0130
1000
0001
1000
,  // measure 61
0010
0100
0000
0000
1000
0100
0010
1000
,  // measure 62
0100
0010
0001
0010
0000
0000
0000
0000
,  // measure 63
0000
0000
0000
0000
,  // measure 64
0000
0000
0000
0000
0100
1000
0001
1000
,  // measure 65
0010
0100
0000
0000
1000
0100
0010
1000
,  // measure 66
0100
0010
0001
0010
0000
0000
0000
0000
,  // measure 67
0000
0000
0000
0000
,  // measure 68
0000
0000
0000
0000
0100
1000
0010
0100
,  // measure 69
0010
1000
0000
0000
0100
0010
0001
1000
,  // measure 70
0010
0100
0001
0010
0100
1000
0010
0100
,  // measure 71
0010
1000
0000
0000
0100
0010
0001
1000
,  // measure 72
0010
0100
0001
0010
0100
1000
0010
0100
,  // measure 73
0010
1000
0000
0000
0100
0010
0001
1000
,  // measure 74
0010
0100
0001
0010
0100
0000
1100
0000
,  // measure 75
1000
1010
0010
0110
,  // measure 76
0100
0001
1000
0000
2002
0000
0000
0000
,  // measure 77
0003
0000
3000
0000
,  // measure 78
0001
0010
0100
1000
0001
0010
0100
1000
0100
0000
0000
0000
0100
0000
1000
0000
,  // measure 79
0010
0000
0010
1000
0100
0000
0100
1000
,  // measure 80
0001
0000
0001
0010
0100
0000
0100
1000
,  // measure 81
0010
0000
0010
0000
1000
0010
1000
0010
,  // measure 82
1000
0010
1000
0001
2000
0000
0010
0000
,  // measure 83
0010
0000
3001
0000
0001
0010
0001
0010
,  // measure 84
0001
0010
0100
1000
0020
0000
0100
0000
,  // measure 85
0100
0000
1030
0000
1000
0001
1000
0001
,  // measure 86
1000
0001
0010
0100
1000
0000
0010
0000
,  // measure 87
0100
0000
0010
0000
0001
0010
0100
0010
,  // measure 88
1000
0100
0010
0001
0200
0000
0000
0000
,  // measure 89
0301
0010
0100
0010
0001
0100
0000
1000
,  // measure 90
0100
0000
0001
1000
0010
0000
0100
0001
,  // measure 91
0010
0000
0100
0000
1000
0010
1000
0001
,  // measure 92
0100
0001
0100
0000
0010
0001
0010
0100
,  // measure 93
1000
0100
1000
0000
0010
0100
0010
1000
,  // measure 94
0010
1000
0001
0000
1000
0100
0000
0100
,  // measure 95
0010
0000
0010
0002
0000
0000
0103
0000
,  // measure 96
1000
0000
0010
0000
0001
0010
0001
0000
,  // measure 97
1000
0100
1000
0000
0010
0100
0001
0000
,  // measure 98
1000
0100
0010
0000
0001
0010
0001
0000
,  // measure 99
0010
0100
0010
0000
0200
0000
0001
0300
,  // measure 100
2000
0000
0001
3000
0020
0000
0001
0030
,  // measure 101
0200
0000
0001
0300
0020
0000
1000
0030
,  // measure 102
0200
0000
0001
0300
0010
1000
0001
0000
,  // measure 103
0100
0010
1000
0000
1100
0000
0000
0101
,  // measure 104
0000
0000
1100
0000
0011
0000
0000
1010
,  // measure 105
0000
0011
1001
0100
,  // measure 106
0010
0001
0021
0031
,  // measure 107
1002
0003
1020
0030
,  // measure 108
0210
0300
1020
0030
,  // measure 109
2100
3000
0021
0030
,  // measure 110
1002
0000
0003
0000
0010
0000
0100
1000
,  // measure 111
0010
1000
0100
0010
0001
0000
0100
0001
,  // measure 112
1000
0001
0010
0100
0020
0000
0030
0200
,  // measure 113
0000
0300
0001
0000
0100
0000
1000
0000
,  // measure 114
0001
0000
1000
0000
0020
0000
0030
2000
,  // measure 115
0000
3000
0001
0000
0200
0000
0300
0020
,  // measure 116
0000
0030
1000
0000
0001
0000
0100
0000
,  // measure 117
1000
0000
0100
0000
0001
1000
0100
0010
,  // measure 118
0100
1000
0010
1000
1010
0000
0000
0110
,  // measure 119
0000
1001
0100
1000
,  // measure 120
0100
0000
0001
0000
0110
0000
0000
0011
,  // measure 121
0000
1100
0010
0001
,  // measure 122
0010
0000
1000
0000
0010
0001
0000
0001
,  // measure 123
0010
0000
0010
0100
0000
0000
0000
0000
,  // measure 124
1000
0100
0010
0002
2000
0000
0000
3003
,  // measure 125
0000
0000
0000
0000
,  // measure 126
0000
0020
0000
0000
0000
0000
0000
0000
,  // measure 127
1000
0000
0030
0000
0000
0000
0000
0000
0010
0001
0000
0000
0000
0000
0000
0000
,  // measure 128
0010
1000
0000
0000
1000
0000
0001
0100
0010
1000
0100
0010
0002
0000
0000
0000
,  // measure 129
0000
0000
0000
0000
,  // measure 130
0000
0000
0000
0000
,  // measure 131
0000
0000
0000
0000
,  // measure 132
0000
0000
0000
0000
,  // measure 133
0000
0000
0000
0000
,  // measure 134
0000
0000
0000
0000
,  // measure 135
0000
0000
0000
0000
,  // measure 136
0000
0000
0000
0003
0000
0000
2000
3100
0000
0000
0000
0000
0000
0000
0000
0000
0000
0000
0000
0000
0000
0000
0000
0000
;

//---------------dance-single - ----------------
#NOTES:
     dance-single:
     :
     Beginner:
     5:
     0.241,0.457,0.030,0.240,0.071: // measure 1
0000
0000
0000
0000
,  // measure 2
0000
0000
0000
0000
,  // measure 3
0000
0000
0000
0000
,  // measure 4
1000
0000
0010
0000
,  // measure 5
0100
0000
0000
0000
,  // measure 6
0000
0001
0000
0000
0000
1000
0000
0000
0000
0001
0000
0000
0000
0000
0000
0000
,  // measure 7
0000
0100
0000
0000
0000
0010
0000
0000
0000
1000
0000
0000
0000
0000
0000
0000
,  // measure 8
0000
0001
0000
0000
0000
0010
0000
0000
0000
1000
0000
0000
0000
0010
0000
0000
,  // measure 9
0000
0100
0000
0000
0000
0000
0000
0000
0000
1000
0000
0000
0000
0000
0000
0000
,  // measure 10
0000
0001
0000
0000
0000
0000
0000
0000
0000
0100
0000
0000
0000
0010
0000
0000
,  // measure 11
0000
1000
0000
0000
0000
0001
0000
0000
0000
0100
0000
0000
0000
0010
0000
0000
,  // measure 12
0000
2002
0000
0000
0000
0000
3003
0000
,  // measure 13
0000
0002
0000
0000
,  // measure 14
0000
0000
0000
0000
,  // measure 15
0000
0003
1000
0000
,  // measure 16
0000
0000
0001
0000
,  // measure 17
0000
0000
1000
0000
,  // measure 18
0010
0000
1000
0000
,  // measure 19
0010
0000
0100
0000
,  // measure 20
0001
0000
0100
0000
,  // measure 21
0001
0000
1000
0000
,  // measure 22
0001
0000
0000
1000
,  // measure 23
0001
0000
0100
0000
,  // measure 24
0001
0000
0000
0100
,  // measure 25
0001
0000
0000
0000
,  // measure 26
0000
0000
0000
0010
0000
0000
0000
1000
,  // measure 27
0000
0000
0000
0010
0000
0000
0000
0000
,  // measure 28
0000
0000
0000
1000
0000
0000
0000
0010
,  // measure 29
0000
0000
0000
1000
0000
0000
0000
0000
,  // measure 30
0000
0000
0000
0000
,  // measure 31
0000
0000
1000
0000
,  // measure 32
0001
0000
1000
0000
,  // measure 33
0001
0000
0010
0000
,  // measure 34
0000
0000
0001
0000
,  // measure 35
0000
0000
0010
0000
,  // measure 36
0000
0000
0001
0000
,  // measure 37
0000
0000
1000
0000
,  // measure 38
0000
0000
0001
0000
,  // measure 39
0000
0000
1000
0000
,  // measure 40
0000
0000
0001
0000
,  // measure 41
0000
0000
1000
0000
,  // measure 42
0000
0000
0010
0000
,  // measure 43
0000
0000
1000
0000
,  // measure 44
0000
0000
0010
0000
,  // measure 45
0000
0000
0100
0000
,  // measure 46
0000
0000
0001
0000
,  // measure 47
0000
0000
0100
0000
,  // measure 48
0000
0000
0001
0000
,  // measure 49
1000
0000
0010
0000
,  // measure 50
0100
0000
2001
0000
,  // measure 51
0000
0000
3000
0000
,  // measure 52
0000
0000
0000
0000
,  // measure 53
0000
0000
0000
0000
,  // measure 54
0000
0000
0010
0000
,  // measure 55
0000
0000
0000
0000
,  // measure 56
0000
0000
0000
0000
,  // measure 57
0100
0000
0000
0000
,  // measure 58
0000
0000
0002
0000
,  // measure 59
0000
0000
0000
0000
,  // measure 60
0000
0000
1003
0000
,  // measure 61
0000
0000
0001
0000
,  // measure 62
0100
0001
0000
0000
,  // measure 63
0000
0000
0000
0000
,  // measure 64
0000
0000
1000
0000
,  // measure 65
0000
0000
0001
0000
,  // measure 66
0100
0001
0000
0000
,  // measure 67
0000
0000
0000
0000
,  // measure 68
0000
0000
1000
0000
,  // measure 69
0000
0000
0001
0000
,  // measure 70
0100
0001
1000
0000
,  // measure 71
0000
0000
0001
0000
,  // measure 72
0100
0001
1000
0000
,  // measure 73
0000
0000
0001
0000
,  // measure 74
0100
0001
1000
0000
,  // measure 75
0100
0000
0010
0000
,  // measure 76
0001
0000
2002
0000
,  // measure 77
0003
0000
3000
0000
,  // measure 78
0001
0010
0100
0000
,  // measure 79
1000
0000
0010
0000
,  // measure 80
1000
0000
0100
0000
,  // measure 81
1000
0000
0001
0000
,  // measure 82
0001
0000
0020
0000
,  // measure 83
0000
0030
0100
0000
,  // measure 84
1000
0000
0002
0000
,  // measure 85
0000
0003
1000
0000
,  // measure 86
0010
0000
0100
0000
,  // measure 87
0000
0000
0001
0000
,  // measure 88
1000
0000
0200
0000
,  // measure 89
0300
0000
1001
0000
,  // measure 90
0000
0000
0001
0000
,  // measure 91
0001
0000
0010
0000
,  // measure 92
0100
0000
1000
0000
,  // measure 93
0010
0000
0100
0000
,  // measure 94
0001
0000
1000
0000
,  // measure 95
0000
0002
0000
0003
,  // measure 96
0100
0000
0010
0000
,  // measure 97
1000
0000
0001
0000
,  // measure 98
0010
0000
1000
0000
,  // measure 99
0010
0000
0200
0000
,  // measure 100
0000
0000
0000
0300
2000
0000
0000
0000
,  // measure 101
0000
0000
0000
3000
0020
0000
0000
0000
,  // measure 102
1000
0000
0000
0030
1000
0000
0000
0000
,  // measure 103
0000
0000
0100
0000
,  // measure 104
0000
0000
0010
0000
,  // measure 105
0000
0000
0200
0000
,  // measure 106
0310
0000
0002
0003
,  // measure 107
0020
0030
0200
0300
,  // measure 108
2000
3000
0002
0003
,  // measure 109
0200
0300
0020
0030
,  // measure 110
2000
3000
0001
0000
,  // measure 111
0000
0000
0100
0000
,  // measure 112
0000
0000
0020
0000
,  // measure 113
0000
0030
0000
0000
1000
0000
0000
0000
,  // measure 114
0100
0000
0020
0000
,  // measure 115
0000
0030
0000
0000
0200
0000
0000
0000
,  // measure 116
0000
0300
0000
0000
0001
0000
0000
0000
,  // measure 117
0100
0000
1000
0000
,  // measure 118
0010
0000
2000
0000
,  // measure 119
0000
3000
0000
0000
0001
0000
0100
0000
,  // measure 120
0001
0100
0020
0000
,  // measure 121
0000
0030
0000
0000
1000
0000
0100
0000
,  // measure 122
1000
0000
0100
0000
0010
0000
0000
0100
,  // measure 123
0000
1000
0000
0000
,  // measure 124
2000
0000
0000
0000
0002
0000
0000
3003
,  // measure 125
0000
0000
0000
0000
,  // measure 126
0000
2000
0000
0000
0000
0000
0000
0000
,  // measure 127
0010
3000
0000
0000
0100
0000
0000
0000
,  // measure 128
0001
1000
1000
0002
,  // measure 129
0000
0000
0000
0000
,  // measure 130
0000
0000
0000
0000
,  // measure 131
0000
0000
0000
0000
,  // measure 132
0000
0000
0000
0000
,  // measure 133
0000
0000
0000
0000
,  // measure 134
0000
0000
0000
0000
,  // measure 135
0000
0000
0000
0000
,  // measure 136
0000
0003
1000
0000
0000
0000
0000
0000
;
