#TITLE:The Disappearance of Hatsune Miku;
#SUBTITLE:;
#ARTIST:Hatsune Miku;
#TITLETRANSLIT:;
#SUBTITLETRANSLIT:;
#ARTISTTRANSLIT:;
#CREDIT:;
#BANNER:;
#BACKGROUND:;
#LYRICSPATH:;
#CDTITLE:;
#MUSIC:Disappearance.ogg;
#OFFSET:-0.020;
#SAMPLESTART:68.213;
#SAMPLELENGTH:12.000;
#SELECTABLE:YES;
#BPMS:0.000=240.020;
#STOPS:;
#BGCHANGES:;

//---------------dance-single - ----------------
#NOTES:
     dance-single:
     :
     Hard:
     11:
     0.795,1.000,0.261,0.440,0.295:
0000
0000
0000
0000
,
0000
0000
0000
0000
,
2000
0000
0000
3200
0000
0310
0001
0000
,
0010
0100
1000
0010
,
2010
0000
0000
3100
0000
0000
0010
0000
,
0001
0000
0000
1000
0000
0000
0100
0000
,
0010
0000
0001
0100
0000
0100
0001
0000
,
0010
0000
0100
0000
1000
0001
1000
0010
,
1000
0100
0000
0100
0010
0000
0001
0100
,
0001
0000
0101
0000
1010
0000
0010
1000
,
0100
0010
0000
0001
0000
0010
0100
0000
,
1000
0010
1000
0010
0100
0001
1000
0001
,
0100
0000
0000
0010
0000
0000
1000
0000
,
0100
0010
0000
0001
0000
0010
0100
0000
,
2000
0000
3200
0000
,
0310
0000
0001
0000
0100
0010
1000
0100
,
0020
0000
0000
0000
,
0000
0000
0032
0000
,
0023
0000
0000
0000
,
0230
0000
1300
0010
,
0200
0000
0000
0000
,
0302
0000
0023
0000
,
0230
0000
0000
0000
,
2300
0000
3200
0000
,
0320
0000
0000
0000
,
0032
0000
0000
0000
,
0203
0000
0000
0320
0000
0000
2030
0000
,
0000
3100
0010
0001
,
0020
0000
0000
0000
,
0230
0000
2300
0000
,
3020
0000
0000
0000
,
0230
0000
0000
0000
,
0301
0010
0001
0010
0100
1000
0100
1000
,
0001
1000
0001
1000
0010
1000
0010
1000
,
0100
1000
0100
0010
0001
0010
0001
1000
,
0001
1000
0001
0100
0001
0100
0001
1000
,
0001
1000
0001
0100
0001
0010
0100
1000
,
0100
0010
0001
0100
0001
0100
0010
1000
,
0010
1000
0100
1000
0001
1000
0010
1000
,
0100
0010
0001
1000
0100
0010
0001
0100
,
0010
1000
0001
0010
0100
1000
0100
0010
,
0001
0100
0010
0100
0001
0100
0010
1000
,
0100
0010
0001
0010
0100
1000
0010
0100
,
0001
0010
0100
1000
0001
0100
0001
0100
,
0010
1000
0010
1000
0000
0010
0100
0001
,
0100
0001
0010
0100
1000
0100
0010
0001
,
0100
0010
1000
0010
0100
0001
0010
0100
,
1000
0100
0010
0001
0100
0010
1000
0000
,
0000
0000
1010
0000
0110
0000
0100
0001
,
0000
0101
0000
0011
0000
0110
0000
0000
,
0000
1100
0000
1001
0000
0000
0001
0100
,
0000
0101
0000
0110
0000
1010
0000
0000
,
0000
0000
0010
1000
0010
1000
0100
1000
,
0100
0010
0100
0010
0100
0001
0100
0001
,
0100
0010
0100
0010
0100
1000
0010
1000
,
0010
0100
0010
0100
0010
0001
0010
0001
,
0010
0100
0010
0100
0010
1000
0010
1000
,
0100
0010
0001
0100
0010
1000
0001
0010
,
0011
0000
0000
0110
0000
0000
1100
0000
,
0000
0100
1000
0100
,
0010
0000
0001
0100
0000
0010
0000
1000
,
0000
0100
0000
0010
0000
0001
0010
0100
,
1000
0000
0010
0000
0100
0000
0001
0000
0010
0100
0010
0100
0010
0100
0010
0100
,
0010
0100
0010
0100
1000
0000
0000
0000
0000
0000
0000
0000
0000
0000
0000
0000
,
0200
0000
0000
0320
0000
0000
0031
0100
,
0010
0000
1000
0000
0010
0000
0100
0001
,
0010
0000
0100
1000
0000
1000
0100
0000
,
0020
0032
2003
3002
,
0023
0030
0200
2300
,
3200
0000
0000
0320
0000
0000
0032
0000
,
0203
0000
0320
0000
2030
0000
3100
0010
,
0000
0001
0010
0100
,
1000
0000
1000
0010
0000
0010
0100
0000
0100
0001
0000
0001
,
0100
0000
0100
0010
0000
0010
1000
0000
1000
0100
0000
0100
,
0010
0000
0010
0001
0000
0001
0010
0000
0010
0100
0000
0100
,
1000
0000
0010
0100
0000
0001
0100
0000
0010
1000
0000
0100
,
0010
0000
0001
0010
0000
0100
2000
0000
0000
3200
0000
0000
,
0320
0000
0000
0032
0000
0000
0023
0000
,
0230
0000
2300
0000
3020
0000
0130
0001
,
0000
0010
0100
1000
,
0100
0010
0100
0010
0000
0000
0001
0000
0000
0100
0000
0000
,
0010
1000
0010
1000
0000
0000
0100
0000
0000
0010
0000
0000
,
0001
0000
0001
0100
0000
0000
0010
0000
0000
1000
0000
0000
,
0010
0100
0010
0100
0000
0000
0001
0000
0000
0010
0000
0000
,
0100
1000
0100
1000
0000
0000
0100
0000
0000
0010
0000
0000
,
0001
0010
0001
0010
0000
0000
0100
0000
0000
1000
0000
0000
,
0100
0000
0100
0010
0000
0000
0001
0000
0000
0100
0000
0000
,
0010
1000
0010
1000
0000
0000
0010
0000
0000
0100
0000
0000
,
0001
0010
0001
0010
0001
0010
0001
0010
0001
0010
0001
0010
,
0100
0010
0100
0010
0100
0010
0100
0010
0100
0010
0100
0010
,
0100
1000
0100
1000
0100
1000
0100
1000
0100
1000
0100
1000
,
0001
0100
0001
0100
0001
0100
0001
0100
0001
0100
0001
0100
,
0002
0023
0230
2300
,
3200
0320
0032
0203
,
0320
2030
3020
0230
,
0302
0023
0130
1000
,
1100
0110
0011
0101
,
0110
1010
1001
0011
,
0110
1100
1010
0110
,
0101
1001
1100
0110
,
0011
0101
0110
1010
,
1001
0001
1000
0100
,
0010
0001
0010
0100
,
1000
0010
0100
0001
,
0010
0100
0010
0100
0000
0000
0010
0100
0010
0100
0000
0000
,
1000
0100
1000
0100
0000
0000
1000
0100
1000
0100
0000
0000
,
1000
0010
1000
0010
0000
0000
1000
0010
1000
0010
0000
0000
,
0100
0001
0100
0001
0000
0000
0100
0001
0100
0001
0000
0000
,
0010
0100
1000
0100
,
0010
0001
0100
0010
,
1000
0010
0100
0001
,
0010
0100
1000
0100
,
0010
0001
0010
0001
1000
0001
1000
0001
,
0100
0001
0100
0001
0010
0100
1000
0100
,
0010
0001
0100
0001
0100
0010
1000
0010
,
1000
0010
0100
0001
0100
0001
0010
0100
,
1000
0100
0010
0001
0100
0010
1000
0100
,
0010
0001
0010
0100
1000
0001
1000
0100
,
0010
0001
0010
0100
1000
0010
0100
0001
,
0100
0010
1000
0100
0010
0001
0010
0100
,
1000
0100
1000
0100
1000
0100
1000
0100
,
1000
0100
1000
0100
1000
0100
1000
0100
,
0010
0001
0010
0001
0010
0001
0010
0001
,
0010
0001
0010
0001
0010
0001
0010
0001
,
0010
0100
0010
0100
0010
0100
0010
0100
,
0010
0100
0010
0100
0010
0100
0010
0100
,
1000
0100
1000
0100
1000
0100
1000
0100
,
1000
0100
1000
0100
0010
0001
1000
0000
,
2002
0000
0000
0000
,
0000
0000
0000
0000
,
0000
0000
0000
0000
,
0000
0000
0000
0000
,
3003
0000
0000
0000
;

//---------------dance-single - Copied from----------------
#NOTES:
     dance-single:
     Copied from:
     Medium:
     10:
     0.655,0.816,0.227,0.632,0.117:
0000
0000
0000
0000
,
0000
0000
0000
0000
,
2000
0000
0000
3200
0000
0310
0001
0000
,
0010
0100
1000
0010
,
2010
0000
0000
3100
0000
0000
0010
0000
,
0001
0000
0000
1000
0000
0000
0100
0000
,
0010
0000
0001
0100
0000
0100
0001
0000
,
0010
0000
0100
0000
1000
0001
1000
0010
,
1000
0100
0000
0100
0010
0000
0001
0100
,
0001
0000
0010
0000
0100
0000
1000
0100
,
0010
0001
0000
0010
0000
0100
1000
0000
,
1000
0010
1000
0010
0100
0001
1000
0001
,
0100
0000
0000
0010
0000
0000
1000
0000
,
0100
0010
0000
0001
0000
0010
0100
0000
,
2000
0000
3200
0000
,
0310
0000
0001
0000
0100
0010
1000
0100
,
0020
0000
0000
0000
,
0000
0000
0032
0000
,
0023
0000
0000
0000
,
0230
0000
1300
0010
,
0200
0000
0000
0000
,
0302
0000
0023
0000
,
0230
0000
0000
0000
,
2300
0000
3200
0000
,
0320
0000
0000
0000
,
0032
0000
0000
0000
,
0203
0000
0000
0320
0000
0000
2030
0000
,
0000
3100
0010
0001
,
0020
0000
0000
0000
,
0230
0000
2300
0000
,
3020
0000
0000
0000
,
0230
0000
0000
0000
,
0301
0000
0010
0200
0000
0000
0000
0000
,
0000
0000
1300
0010
,
0200
0000
0000
0302
0000
0000
0023
0000
,
0000
0000
0000
0000
0000
0000
0130
1000
,
0200
0000
0000
0000
0000
0000
0310
0001
,
0200
0000
0320
0000
,
2030
0000
0000
3200
0000
0000
0320
0000
,
0032
0000
0000
0000
,
0013
0000
0100
2000
0000
0000
0000
0000
,
0000
0000
0000
3002
,
2003
0000
0000
3200
0000
0000
0320
0000
,
0032
0000
0023
0230
,
2300
0000
0000
3020
,
0230
0000
0302
0000
,
0023
0000
0230
0000
,
1300
0000
0010
0000
,
0000
0000
1010
0000
0110
0000
0100
0001
,
0000
0101
0000
0011
0000
0110
0000
0000
,
0000
1100
0000
1001
0000
0000
0001
0100
,
0000
0101
0000
0110
0000
1010
0000
0000
,
0010
1000
0100
0000
0010
0001
0010
0000
,
0100
1000
0001
0000
1000
0100
0010
0000
,
0001
0010
0100
0000
1000
0010
0100
0000
,
0001
0100
0010
0000
1000
0100
0010
0000
,
0001
0010
0100
0000
1000
0010
1000
0000
,
0001
1000
0001
0000
1000
0010
1000
0000
,
0200
0000
0000
0320
0000
0000
0032
0000
,
0000
1003
0100
0100
,
0010
0000
0001
0100
0000
0010
0000
1000
,
0000
0100
0000
0010
0000
0001
0010
0100
,
1000
0010
0100
0001
0010
0100
1000
0010
,
0100
0001
0010
0000
0000
0000
0000
0000
,
0200
0000
0000
2300
0000
0000
3100
0010
,
0001
0000
0100
0000
0010
0000
1000
0010
,
0100
0000
0001
0010
0000
0010
0100
0000
,
2000
3200
0320
0032
,
2003
3000
0002
0023
,
0230
0000
0000
2300
0000
0000
3200
0000
,
0320
0000
0032
0000
0203
0000
0310
1000
,
0000
0100
0010
0001
,
1000
0000
1000
0010
0000
0010
0100
0000
0100
0001
0000
0001
,
0100
0000
0100
0010
0000
0010
1000
0000
1000
0100
0000
0100
,
0010
0000
0010
0001
0000
0001
0010
0000
0010
0100
0000
0100
,
1000
0000
1000
0100
0000
0100
0010
0000
0010
0001
0000
0001
,
0010
0000
0010
0100
0000
0100
2000
0000
0000
3200
0000
0000
,
0320
0000
0000
0032
0000
0000
0023
0000
,
0230
0000
2300
0000
3020
0000
0130
0001
,
0000
0010
0100
1000
,
0100
0010
0001
0100
,
0010
1000
0100
0010
,
0001
0100
0010
1000
,
0010
0100
0001
0010
,
0100
1000
0100
0010
,
0001
0010
0100
1000
,
0100
0010
0001
0100
,
0010
1000
0010
0100
,
0001
0010
0001
0010
0000
0000
0100
0000
0000
1000
0000
0000
,
0100
0010
0100
0010
0000
0000
0001
0000
0000
0100
0000
0000
,
0010
1000
0010
1000
0000
0000
0010
0000
0000
0100
0000
0000
,
0001
0010
0001
0010
0000
0000
0100
0000
0000
1000
0000
0000
,
0200
0320
0032
0203
,
0320
2030
3020
0230
,
0302
0023
0230
2300
,
3020
0230
0301
0010
,
0011
0110
1100
1010
,
0110
0101
1001
1100
,
0110
0011
0101
0110
,
1010
1001
0011
0110
,
1100
1010
0110
0101
,
1001
0001
1000
0100
,
0010
0001
0010
0100
,
1000
0010
0100
0001
,
0010
0100
0010
0100
0000
0000
1000
0000
0000
0010
0000
0000
,
0100
0001
0100
0001
0000
0000
0100
0000
0000
0010
0000
0000
,
1000
0100
0010
0100
0000
0000
0010
0000
0000
0001
0000
0000
,
0100
0010
1000
0010
0000
0000
0100
0000
0000
0001
0000
0000
,
0010
0100
1000
0100
,
0010
0001
0100
0010
,
1000
0010
0100
0001
,
0010
0100
1000
0100
,
0010
0001
0010
0001
1000
0001
1000
0001
,
0100
0001
0100
0001
0010
0100
1000
0100
,
0010
0001
0100
0001
0100
0010
1000
0010
,
1000
0010
0100
0001
0100
0001
0010
0100
,
1000
0100
0010
0001
0100
0010
1000
0100
,
0010
0001
0010
0100
1000
0001
1000
0100
,
0010
0001
0010
0100
1000
0010
0100
0001
,
0100
0010
1000
0100
0010
0001
0010
0100
,
1000
0010
0100
0000
0001
0100
0010
0000
,
1000
0100
0010
0000
0001
0010
0100
0000
,
1000
0010
1000
0000
0001
1000
0001
0000
,
1000
0010
1000
0000
0100
0010
0001
0000
,
0100
0001
1000
0000
0001
0100
0001
0000
,
0010
0100
1000
0000
0100
0010
0001
0000
,
0100
0010
1000
0000
0010
0100
0001
0000
,
0010
0100
1000
0100
0010
0001
1000
0000
,
2002
0000
0000
0000
,
0000
0000
0000
0000
,
0000
0000
0000
0000
,
0000
0000
0000
0000
,
3003
0000
0000
0000
;

//---------------dance-single - Copied from Copied f----------------
#NOTES:
     dance-single:
     :
     Easy:
     7:
     0.482,0.771,0.007,0.673,0.000:
0000
0000
0000
0000
,
0000
0000
0000
0000
,
1000
0000
0000
0100
0000
0000
0010
0000
,
0001
0010
0100
1000
,
0010
0000
0100
0001
,
0100
0000
0000
0010
0000
0000
1000
0000
,
0100
0000
0000
0010
0000
0000
0001
0000
,
0010
0100
1000
0010
,
1000
0000
0000
0001
0000
0000
1000
0000
,
0010
1000
0100
0010
,
0001
0000
0000
0100
0000
0000
0001
0000
,
1000
0001
0100
0001
,
0010
0000
0000
0100
0000
0000
1000
0000
,
0100
0000
0000
0010
0000
0000
0001
0000
,
0100
0000
0010
0000
,
1000
0100
0010
0001
,
0020
0000
0000
0000
,
0000
0000
0032
0000
,
0023
0000
0000
0000
,
0230
0000
1300
0010
,
0200
0000
0000
0000
,
0302
0000
0023
0000
,
0230
0000
0000
0000
,
2300
0000
3200
0000
,
0320
0000
0000
0000
,
0032
0000
0000
0000
,
0203
0000
0000
0320
0000
0000
2030
0000
,
0000
3100
0010
0001
,
0020
0000
0000
0000
,
0230
0000
2300
0000
,
3020
0000
0000
0000
,
0230
0000
0000
0000
,
0301
0000
0010
0200
0000
0000
0000
0000
,
0000
0000
1300
0010
,
0200
0000
0000
0302
0000
0000
0023
0000
,
0000
0000
0000
0130
,
2000
0000
0000
3100
,
0020
0000
0032
0000
,
2003
0000
0000
3020
0000
0000
0230
0000
,
0302
0000
0000
0000
,
0013
0000
0100
2000
0000
0000
0000
0000
,
0000
0000
0000
3002
,
2003
0000
0000
3200
0000
0000
0320
0000
,
0032
0000
0023
0230
,
2300
0000
0000
3020
,
0230
0000
0302
0000
,
0023
0000
0230
0000
,
1300
0000
0010
0000
,
0000
0000
0100
0000
0001
0000
0010
0100
,
0000
1000
0000
0100
0000
0010
0000
0000
,
0000
0001
0000
0010
0000
0000
0100
1000
,
0000
0010
0000
0100
0000
0001
0000
0000
,
0020
0000
0000
0000
,
0230
0000
0000
0000
,
2300
0000
0000
0000
,
3200
0000
0000
0000
,
0320
0000
0000
0000
,
0032
0000
0000
0000
,
0203
0000
0000
0320
0000
0000
2030
0000
,
0000
3100
0010
0001
,
0100
0000
0010
1000
0000
0100
0000
0010
,
0000
0001
0000
0010
0000
0100
1000
0000
,
0010
0100
0001
0010
,
0100
1000
0000
0000
,
0200
0000
0000
0320
0000
0000
0031
0000
,
0100
0010
1000
0010
,
0100
0000
0001
0000
0000
0010
0000
0000
,
0200
2300
3200
0320
,
0032
0003
2000
3002
,
0023
0000
0000
0230
0000
0000
2300
0000
,
3200
0000
0320
0000
0032
0000
0103
0010
,
0000
1000
0100
0010
,
0001
0100
0010
1000
,
0010
0100
0001
0010
,
0100
1000
0010
0100
,
0001
0100
0010
1000
,
0100
0010
0002
0203
,
0320
0000
0000
2030
0000
0000
3020
0000
,
0230
0000
0302
0000
0023
0000
0000
0130
,
0000
1000
0100
0010
,
0100
0010
0001
0100
,
0010
1000
0100
0010
,
0001
0100
0010
1000
,
0010
0100
0001
0010
,
0100
1000
0100
0010
,
0001
0010
0100
1000
,
0100
0010
0001
0100
,
0010
1000
0010
0100
,
0001
0010
0100
1000
,
0100
0010
0001
0100
,
0010
1000
0010
0100
,
0001
0010
0100
1000
,
0200
0320
0032
0203
,
0320
2030
3020
0230
,
0302
0023
0230
2300
,
3020
0230
0301
0010
,
0200
0000
1300
0010
,
0200
0000
0301
0100
,
0020
0000
1030
0100
,
0020
0000
0031
0010
,
0200
0000
1300
0100
,
0010
0001
1000
0010
,
0100
0001
0010
0100
,
1000
0010
0100
0001
,
0010
0100
1000
0010
,
0100
0001
0100
0010
,
1000
0100
0010
0001
,
0100
0010
0100
0001
,
0010
0100
1000
0100
,
0010
0001
0100
0010
,
1000
0010
0100
0001
,
0010
0100
1000
0100
,
0010
0001
0100
0001
,
0100
0010
1000
0010
,
1000
0010
0100
0001
,
0100
0001
0010
0100
,
1000
0100
0010
0001
,
1000
0001
0010
0100
,
1000
0100
0010
0001
,
0100
0010
1000
0010
,
0100
0001
0010
0100
,
1000
0100
0010
0001
,
0100
0010
1000
0010
,
0100
0001
0010
0100
,
1000
0100
0010
0001
,
0100
0010
1000
0010
,
0100
0001
0010
0100
,
1000
0001
1000
0000
,
2002
0000
0000
0000
,
0000
0000
0000
0000
,
0000
0000
0000
0000
,
0000
0000
0000
0000
,
3003
0000
0000
0000
;

//---------------dance-single - Copied from Copied f----------------
#NOTES:
     dance-single:
     :
     Edit:
     16:
     1.000,1.000,0.337,0.543,1.000:
0000
0000
0000
0000
0000
0000
1000
0100
,
0010
0000
0001
0000
0010
0000
0100
0000
1000
0000
0010
0000
0100
0001
0100
0001
,
0100
0010
1000
0100
0010
0001
0100
0010
,
1000
0000
0010
0000
0100
0000
0001
0000
0010
0000
0100
0000
1000
0010
1000
0100
,
1000
0010
0100
0001
0100
0010
1000
0100
,
0010
0001
0100
1000
0100
0001
0010
1000
,
0010
0001
0100
0010
1000
0010
0100
0001
,
0010
0100
1000
0010
1000
0001
1000
0010
,
1000
0100
0000
0100
0010
0000
0001
0100
,
0001
0000
0000
0000
0101
0000
0000
0000
1010
0000
0000
0000
0100
0001
0010
0100
,
0010
0100
1000
0001
0000
0010
0100
0000
,
1000
0000
0010
0000
1000
0000
0010
0000
0100
0000
0001
0000
1000
0001
0100
0001
,
0020
0000
0000
0230
0000
0000
1300
0000
,
0010
0100
0000
0001
0000
0010
0100
0000
,
1000
0010
0100
0001
0100
0010
1000
0100
,
0010
0000
0001
0000
0000
0000
0010
0000
0000
0000
0100
1000
0100
0010
0001
0010
,
0200
0000
0000
0000
1000
1000
0000
0000
,
1000
1000
0000
1000
0302
1000
0000
0000
,
0023
0000
0000
0000
0001
0001
0000
0000
,
0230
1000
0000
1000
1300
0000
0010
0000
,
0200
0001
0001
0000
0010
0010
0010
0000
,
0302
0010
0000
0010
0023
0000
0000
0000
,
0230
0000
0000
0000
1000
1000
1000
0000
,
2300
0010
0000
0000
3200
0010
0000
0010
,
0320
0000
0001
0000
0001
0001
0000
0000
,
0032
0100
0000
0100
0000
1000
0000
0000
,
0203
0000
0000
0320
0000
0000
2030
0000
,
0000
0000
3100
0010
0001
0010
0100
1000
,
0002
0000
0000
0000
,
2003
0000
3200
0000
,
0320
0000
0000
0000
,
0032
0000
0000
0000
0000
0000
0000
0000
0013
0000
0000
0000
0100
1000
0100
0010
,
0002
0013
0002
0203
0310
1000
0100
1000
,
0001
1000
0001
1000
0020
1030
0020
1030
,
0200
1300
0100
0020
0031
0010
0002
1003
,
0001
1000
0001
0100
0001
0100
0002
2003
,
3002
1003
0001
0100
0001
0010
0200
2300
,
3200
0310
0001
0100
0002
0103
0010
1000
,
0020
1030
0100
2000
3001
1000
0020
1030
,
0200
0000
0310
0000
0001
0000
1000
0000
0100
0000
0010
0000
0001
0100
0010
1000
,
0020
1030
0002
0023
0130
1000
0100
0010
,
0001
0100
0010
0100
0001
0100
0020
1030
,
0200
0310
0001
0020
0130
1000
0020
0130
,
0002
0013
0100
1000
0002
0103
0002
0103
,
0020
1030
0010
1000
0000
0010
0200
0301
,
0200
0301
0010
0100
2000
3100
0010
0001
,
0200
0310
1000
0010
0200
0301
0010
0100
,
2000
3100
0010
0001
0200
0310
1000
0000
,
0000
0000
1010
0000
0110
0000
0100
0001
,
0010
0100
1000
0010
0100
0001
0100
0010
,
1000
0100
0010
0001
0010
0100
1000
0100
,
0010
0001
0100
0010
1000
0010
0100
0001
,
0010
0100
1000
0100
0010
0001
1000
0001
,
0010
0100
1000
0100
0010
0001
0100
0010
,
1000
0010
0100
0001
0100
0010
1000
0100
,
0010
0100
0010
0001
0010
0100
0010
0100
,
1000
0001
1000
0100
0010
0001
0010
0100
,
1000
0010
0100
0001
0100
0010
1000
0100
,
1100
0100
0010
0110
0010
0001
0011
0000
,
0000
0000
1001
1000
1010
0010
0110
0100
,
0001
1000
0001
0200
1300
0200
0301
0200
,
0310
0200
1300
0200
1300
0200
0301
0010
,
0100
0000
1000
0000
0100
0000
0010
0000
0001
0100
0001
0100
0001
1000
0001
1000
,
0001
0100
0001
0100
0001
0000
0000
0000
0000
0000
0000
0000
0000
0000
0000
0000
,
0200
0000
0000
0320
0000
0000
1030
0100
,
0010
0100
0110
0010
0011
0001
0100
0010
,
1000
0100
1100
0110
0010
0011
0101
0100
,
0110
0010
1010
1000
1001
0001
0011
0010
,
0110
0000
0020
0230
,
2300
0000
0000
3200
0000
0000
0320
0000
,
0032
0000
2003
0000
3002
0000
0013
0100
,
0000
1000
0010
0100
,
0001
0010
0100
1000
0001
0010
0100
1000
0001
0010
0100
1000
,
0001
0100
0010
1000
0001
0100
0010
1000
0001
0100
0010
1000
,
0100
0010
0001
0010
0001
0010
0100
1000
0100
1000
0100
0010
,
0001
0010
0001
1000
0001
1000
0001
0100
0010
1000
0010
0100
,
0001
0010
0100
1000
0010
1000
0100
0010
0001
0100
0001
0010
,
0100
1000
0010
0100
0001
0100
0010
1000
0010
0100
0001
0100
,
0010
1000
0100
0010
0001
0100
0001
0100
0010
1000
0010
1000
,
0001
0010
0001
0010
0100
1000
0100
1000
0010
1000
0010
0100
,
0001
0010
0100
1000
0010
0100
0001
0100
0010
1000
0100
0010
,
0001
0100
0001
0100
0010
1000
0010
1000
0100
0010
0000
0010
,
0001
0000
0001
0100
0010
1000
0010
0100
0001
0010
0100
1000
,
0010
0100
0001
0100
0010
1000
0100
0000
0100
0010
0001
0010
,
0100
1000
0100
1000
0010
1000
0010
0100
0001
0010
0001
0010
,
0001
0100
0001
0100
0001
1000
0001
1000
0100
0010
0001
0010
,
0100
0000
0100
1000
0010
1000
0010
0100
0010
0100
0001
0100
,
0001
0100
0010
0100
0010
0100
1000
0100
1000
0010
1000
0010
,
1000
0010
0100
0010
0100
0010
0001
0010
0001
0010
0100
0010
,
0100
0010
1000
0010
1000
0100
0010
0001
0010
0100
1000
0010
,
1000
0010
0100
0001
0100
0001
0010
0100
1000
0010
1000
0001
,
0100
0010
1000
0001
0100
0001
0010
0100
1000
0010
0100
0001
,
0010
0001
0010
0001
0010
0001
0010
0001
0010
0001
0010
0001
,
0010
0100
0010
0100
0010
0100
0010
0100
0010
0100
0010
0100
,
1000
0010
1000
0010
0100
0001
0100
0001
0010
0100
0000
0100
,
1000
0010
0100
0001
0100
0010
1000
0100
0010
0001
0010
0100
,
0110
0010
0011
0001
0101
0100
0110
0010
,
1010
1000
1001
0001
0011
0010
0110
0100
,
1100
1000
1010
0010
0110
0100
0101
0001
,
1001
1000
1100
0100
0110
0010
0011
0001
,
0101
0100
0110
0010
1010
1000
1001
0001
,
0011
0100
1000
0010
0100
0001
0100
0010
,
1000
0100
0010
0001
0010
0100
1000
0010
,
0100
0001
0100
0010
1000
0100
0010
0001
,
0010
0100
0010
0100
1000
0100
0010
0100
0010
0100
1000
0100
,
1000
0100
0010
0001
0100
0001
0100
0010
1000
0010
1000
0100
,
1000
0010
1000
0010
0100
0001
0100
0001
1000
0100
1000
0010
,
1000
0001
1000
0010
1000
0100
0010
0001
0100
0001
1000
0001
,
0100
0001
0010
0100
1000
0100
0010
0001
0100
0010
1000
0100
,
0010
0001
0100
0010
1000
0100
0010
0001
0010
0100
1000
0010
,
1000
0010
0100
0001
0100
0001
0010
0001
0010
0100
1000
0100
,
0010
0001
0100
0010
1000
0100
0010
0001
0100
0010
1000
0100
,
0010
0001
0010
0001
1000
0001
0100
0001
,
0101
0010
1000
0100
0010
0001
0010
0100
,
0110
0010
0001
0100
0010
1000
0001
0100
,
0101
0000
0010
0000
1000
0000
0100
0000
0010
0000
0001
0000
0010
0100
1000
0100
,
1000
0100
0010
0001
0100
0010
1000
0100
,
1100
0010
0001
0100
0010
1000
0001
0010
,
0011
0100
1000
0100
0010
0001
1000
0100
,
1100
0000
0010
0000
0001
0000
0100
0000
0010
1000
0010
0100
0001
0010
0100
1000
,
0100
0010
0100
0010
0100
0010
0100
0010
0100
0010
0100
0010
0100
0010
0100
0010
,
0001
0010
0001
0010
0001
0010
0001
0010
0001
0010
0001
0010
0001
0010
0001
0010
,
0001
0100
0001
0100
0001
0100
0001
0100
0001
0100
0001
0100
0001
0100
0001
0100
,
0010
1000
0010
0100
0001
0100
0010
1000
0001
0100
0010
1000
0001
0100
0010
1000
,
0001
0010
0100
1000
0100
0010
0100
0010
0001
0010
0100
0010
0100
1000
0100
0010
,
0001
0010
0001
0010
0100
1000
0100
1000
0001
0010
0001
0010
0100
1000
0100
1000
,
0100
0010
0001
0100
0010
1000
0010
0100
0001
0100
0010
1000
0010
0100
0001
1000
,
0010
0000
0000
0100
0000
0000
0001
0000
0000
0010
0000
0000
0100
0000
0000
1000
0000
0000
0001
0000
0000
0010
0000
0000
0100
0000
0000
1000
0000
0000
0001
0000
0000
0010
0000
0000
0100
0000
1000
0000
0001
0000
1000
0000
0010
0000
1000
0000
,
0002
0000
MMM0
MMM0
,
MMM0
MMM0
MMM0
MMM0
,
MMM0
MMM0
MMM0
MMM0
,
MMM0
0000
MMM0
0000
0MM0
2003
0MM0
0000
,
0MMM
3MMM
2MM2
0MM0
,
0MM0
0MM0
3MM3
0000
;

//---------------dance-single - Copied from Copied f----------------
#NOTES:
     dance-single:
     :
     Challenge:
     13:
     1.000,1.000,0.089,0.543,0.986:
0000
0000
0000
0000
0000
0000
1000
0100
,
0010
0000
0001
0000
0010
0000
0100
0000
1000
0000
0010
0000
0100
0001
0100
0001
,
0100
0010
1000
0100
0010
0001
0100
0010
,
1000
0000
0010
0000
0100
0000
0001
0000
0010
0000
0100
0000
1000
0010
1000
0010
,
1000
0010
0100
0001
0100
0010
1000
0100
,
0010
0001
0100
1000
0100
0001
0010
1000
,
0010
0001
0100
0010
1000
0010
0100
0001
,
0010
0100
1000
0010
1000
0001
1000
0010
,
1000
0100
0000
0100
0010
0000
0001
0100
,
0001
0000
0000
0000
0101
0000
0000
0000
1010
0000
0000
0000
0100
0001
0100
0001
,
0100
0010
1000
0001
0000
0010
0100
0000
,
1000
0000
0010
0000
1000
0000
0010
0000
0100
0000
0001
0000
0100
0001
1000
0001
,
0020
0000
0000
0230
0000
0000
1300
0000
,
0010
0100
0000
0001
0000
0010
0100
0000
,
1000
0010
0100
0001
0100
0010
1000
0100
,
0010
0000
0001
0000
0000
0000
0010
0000
0000
0000
0100
1000
0100
0010
0001
0010
,
0200
0000
0000
0000
1000
1000
0000
0000
,
1000
1000
0000
1000
0302
1000
0000
0000
,
0023
0000
0000
0000
0001
0001
0000
0000
,
0230
1000
0000
1000
1300
0000
0010
0000
,
0200
0001
0001
0000
0010
0010
0010
0000
,
0302
0010
0000
0010
0023
0000
0000
0000
,
0230
0000
0000
0000
1000
1000
1000
0000
,
2300
0010
0000
0000
3200
0010
0000
0010
,
0320
0000
0001
0000
0001
0001
0000
0000
,
0032
0100
0000
0100
0000
1000
0000
0000
,
0203
0000
0000
0320
0000
0000
2030
0000
,
0000
0000
3100
0010
0001
0010
0100
1000
,
0002
0000
0000
0000
,
2003
0000
3200
0000
,
0320
0000
0000
0000
,
0032
0000
0000
0000
0000
0000
0000
0000
0013
0000
0000
0000
0100
1000
0100
0010
,
0002
0013
0002
0203
0310
1000
0100
1000
,
0001
1000
0001
1000
0020
1030
0020
1030
,
0200
1300
0100
0020
0031
0010
0002
1003
,
0001
1000
0001
0100
0001
0100
0002
2003
,
3002
1003
0001
0100
0001
0010
0200
2300
,
3200
0310
0001
0100
0002
0103
0010
1000
,
0020
1030
0100
2000
3001
1000
0020
1030
,
0200
0000
0310
0000
0001
0000
1000
0000
0100
0000
0010
0000
0001
0100
0010
1000
,
0020
1030
0002
0023
0130
1000
0100
0010
,
0001
0100
0010
0100
0001
0100
0020
1030
,
0200
0310
0001
0020
0130
1000
0020
0130
,
0002
0013
0100
1000
0002
0103
0002
0103
,
0020
1030
0010
1000
0000
0010
0200
0301
,
0200
0301
0010
0100
2000
3100
0010
0001
,
0200
0310
1000
0010
0200
0301
0010
0100
,
2000
3100
0010
0001
0200
0310
1000
0000
,
0000
0000
1010
0000
0110
0000
0100
0001
,
0010
0100
1000
0010
0100
0001
0100
0010
,
1000
0100
0010
0001
0010
0100
1000
0100
,
0010
0001
0100
0010
1000
0010
0100
0001
,
0010
0100
1000
0100
0010
0001
1000
0001
,
0010
0100
1000
0100
0010
0001
0100
0010
,
1000
0010
0100
0001
0100
0010
1000
0100
,
0010
0100
0010
0001
0010
0100
0010
0100
,
1000
0001
1000
0100
0010
0001
0010
0100
,
1000
0010
0100
0001
0100
0010
1000
0100
,
1000
0100
0010
0100
0010
0001
0011
0000
,
0000
0000
1001
1000
0010
1000
0001
0010
,
0001
1000
0001
0200
1300
0200
0301
0200
,
0310
0200
1300
0200
1300
0200
0301
0010
,
0100
0000
1000
0000
0100
0000
0010
0000
0001
0010
0100
1000
0001
0010
0100
1000
,
0001
0010
0001
0010
0001
0000
0000
0000
0000
0000
0000
0000
0000
0000
0000
0000
,
0200
0000
0000
0320
0000
0000
1030
0100
,
0010
0001
0100
0010
1000
0001
0100
0010
,
1000
0100
1000
0100
0010
0001
0100
0010
,
1000
0010
0100
0001
0010
0100
1000
0010
,
0100
0000
0020
0230
,
2300
0000
0000
3200
0000
0000
0320
0000
,
0032
0000
2003
0000
3002
0000
0013
0100
,
0000
1000
0010
0100
,
0001
0010
0100
1000
0001
0010
0100
1000
0001
0010
0100
1000
,
0001
0100
0010
1000
0001
0100
0010
1000
0001
0100
0010
1000
,
0100
0010
0001
0010
0001
0010
0100
1000
0100
1000
0100
0010
,
0001
0010
0001
1000
0001
1000
0001
0100
0010
1000
0010
0100
,
0001
0010
0100
1000
0010
1000
0100
0010
0001
0100
0001
0010
,
0100
1000
0010
0100
0001
0100
0010
1000
0010
0100
0001
0100
,
0010
1000
0100
0010
0001
0100
0001
0100
0010
1000
0010
1000
,
0001
0010
0001
0010
0100
1000
0100
1000
0010
1000
0010
0100
,
0001
0010
0100
1000
0010
0100
0001
0100
0010
1000
0100
0010
,
0001
0100
0001
0100
0010
1000
0010
1000
0100
0010
0000
0010
,
0001
0000
0001
0100
0010
1000
0010
0100
0001
0010
0100
1000
,
0010
0100
0001
0100
0010
1000
0100
0000
0100
0010
0001
0010
,
0100
1000
0100
1000
0010
1000
0010
0100
0001
0010
0001
0010
,
0001
0100
0001
0100
0001
1000
0001
1000
0100
0010
0001
0010
,
0100
0000
0100
1000
0010
1000
0010
0100
0010
0100
1000
0001
,
1000
0100
0010
0100
0010
0100
1000
0100
1000
0010
1000
0010
,
1000
0010
0100
0010
1000
0100
0010
0001
0010
0100
1000
0010
,
1000
0010
0100
0010
1000
0100
0010
0001
0010
0100
1000
0010
,
1000
0010
0100
0001
0100
0001
0010
0100
1000
0010
1000
0001
,
0100
0010
1000
0001
0100
0001
0010
0100
1000
0010
0100
0001
,
0010
0001
0010
0001
0010
0001
0010
0001
0010
0001
0010
0001
,
0010
0100
0010
0100
0010
0100
0010
0100
0010
0100
0010
0100
,
1000
0010
1000
0010
0100
0001
0100
0001
0010
0100
0000
0100
,
1000
0010
0100
0001
0100
0010
1000
0100
0010
0001
0010
0100
,
1000
0010
0100
0001
0100
0001
0100
0010
,
1000
0010
0100
0001
0100
0010
1000
0010
,
0100
0001
0010
0100
1000
0010
0100
0001
,
0100
0010
1000
0010
1000
0010
0100
0001
,
0100
0010
1000
0010
0100
0001
0010
0001
,
0010
0100
1000
0010
0100
0001
0100
0010
,
1000
0100
0010
0001
0010
0100
1000
0010
,
0100
0001
0100
0010
1000
0100
0010
0001
,
0010
0100
0010
0100
1000
0100
0010
0100
0010
0100
1000
0100
,
1000
0100
0010
0001
0100
0001
0100
0010
1000
0010
1000
0100
,
1000
0010
1000
0010
0100
0001
0100
0001
1000
0100
1000
0010
,
1000
0001
1000
0010
1000
0100
0010
0001
0100
0001
1000
0001
,
0100
0001
0010
0100
1000
0100
0010
0001
0100
0010
1000
0100
,
0010
0001
0100
0010
1000
0100
0010
0001
0010
0100
1000
0010
,
1000
0010
0100
0001
0100
0001
0010
0001
0010
0100
1000
0100
,
0010
0001
0100
0010
1000
0100
0010
0001
0100
0010
1000
0100
,
0010
0001
0010
0001
1000
0001
0100
0001
,
0101
0010
1000
0100
0010
0001
0010
0100
,
0110
0010
0001
0100
0010
1000
0001
0100
,
0101
0000
0010
0000
1000
0000
0100
0000
0010
0000
0001
0000
0010
0100
1000
0100
,
1000
0100
0010
0001
0100
0010
1000
0100
,
1100
0010
0001
0100
0010
1000
0001
0010
,
0011
0100
1000
0100
0010
0001
1000
0100
,
1100
0010
0001
0100
0010
1000
0010
0100
,
0001
0010
1000
0010
0001
0100
1000
0100
,
0001
0010
1000
0010
0100
0010
0001
0100
,
1000
0100
0001
0010
0100
1000
0010
1000
,
0001
1000
0010
0100
0001
0100
0010
1000
,
0100
0010
0001
0100
0010
1000
0010
0100
,
0001
0000
0100
0000
0010
1000
0010
0000
0100
0000
0001
0000
0010
0100
0010
0000
,
0001
0000
0010
0000
0100
1000
0100
0000
0010
0000
0001
0000
1000
0100
0010
0001
,
1000
0100
0010
0001
1000
0100
0010
0001
1000
0100
0010
0001
1000
0100
0010
0001
,
2000
0000
0MM0
0MM0
,
0MM0
0MM0
0MM0
0MM0
,
0MM0
0MM0
0MM0
0MM0
,
0MM0
0000
3MM0
0000
0MM0
2000
0MM0
0000
,
0MMM
3MMM
2MM2
0MM0
,
0MM0
0MM0
3MM3
0000
;

//---------------dance-single - ----------------
#NOTES:
     dance-single:
     :
     Beginner:
     4:
     0.217,0.457,0.144,0.014,0.000: // measure 1
0000
0000
0000
0000
,  // measure 2
1000
0000
0000
0000
,  // measure 3
0100
0000
0000
0000
,  // measure 4
0010
0000
0000
0000
,  // measure 5
0001
0000
0000
0000
,  // measure 6
0100
0000
0000
0000
,  // measure 7
0010
0000
0000
0000
,  // measure 8
1000
0000
0000
0000
,  // measure 9
0001
0000
0000
0000
,  // measure 10
0100
0000
0000
0000
,  // measure 11
0010
0000
0000
0000
,  // measure 12
1000
0000
0000
0000
,  // measure 13
0100
0000
0000
0000
,  // measure 14
0010
0000
0000
0000
,  // measure 15
0001
0000
0000
0000
,  // measure 16
0100
0000
0010
0000
,  // measure 17
0100
0000
0000
0000
,  // measure 18
0000
0000
0001
0000
,  // measure 19
0010
0000
0000
0000
,  // measure 20
0100
0000
1000
0000
,  // measure 21
0010
0000
0000
0000
,  // measure 22
0100
0000
0001
0000
,  // measure 23
0010
0000
0000
0000
,  // measure 24
0100
0000
0000
0000
,  // measure 25
1000
0000
0000
0000
,  // measure 26
0010
0000
0000
0000
,  // measure 27
0100
0000
0000
0000
,  // measure 28
0000
0000
0001
0000
,  // measure 29
0010
0000
0000
0000
,  // measure 30
0100
0000
0000
0000
,  // measure 31
1000
0000
0000
0000
,  // measure 32
0001
0000
0000
0000
,  // measure 33
0010
0000
0000
0000
,  // measure 34
0000
0000
0100
0000
,  // measure 35
1000
0000
0000
0000
,  // measure 36
0000
0000
0000
0000
,  // measure 37
0001
0000
0000
0000
,  // measure 38
0010
0000
0000
0000
,  // measure 39
0100
0000
0000
0000
,  // measure 40
1000
0000
0000
0000
,  // measure 41
0010
0000
0000
0000
,  // measure 42
0000
0000
0000
0000
,  // measure 43
0100
0000
0000
0000
,  // measure 44
0001
0000
0000
0000
,  // measure 45
0010
0000
0000
0000
,  // measure 46
0100
0000
0000
0000
,  // measure 47
1000
0000
0010
0000
,  // measure 48
0100
0000
0001
0000
,  // measure 49
0000
0000
0010
0000
,  // measure 50
0000
0000
0001
0000
,  // measure 51
1000
0000
0010
0000
,  // measure 52
0010
0000
1000
0000
,  // measure 53
0000
0000
0000
0000
,  // measure 54
0100
0000
0010
0000
,  // measure 55
0001
0000
0010
0000
,  // measure 56
0100
0000
1000
0000
,  // measure 57
0001
0000
0000
0010
,  // measure 58
0000
0000
0100
0000
,  // measure 59
1000
0000
0000
0010
,  // measure 60
0000
0000
0100
0000
,  // measure 61
0001
0000
0000
0000
,  // measure 62
0010
0000
0000
0000
,  // measure 63
0100
0000
1000
0000
,  // measure 64
0001
0000
0000
0000
,  // measure 65
1000
0000
0000
0000
,  // measure 66
0100
0000
0000
0000
,  // measure 67
0010
0000
0000
0000
,  // measure 68
0001
0000
0010
0000
,  // measure 69
0100
0000
0000
0000
,  // measure 70
1000
0000
0000
0000
,  // measure 71
0010
0000
0000
0000
,  // measure 72
0100
0000
0000
0000
,  // measure 73
0001
0000
0001
0000
,  // measure 74
0010
0000
0010
0000
,  // measure 75
0100
0000
0100
0000
,  // measure 76
1000
0000
1000
0000
,  // measure 77
0010
0000
0010
0000
,  // measure 78
0100
0000
0100
0000
,  // measure 79
0001
0000
0001
0000
,  // measure 80
0010
0000
0010
0000
,  // measure 81
0100
0100
0100
0000
,  // measure 82
1000
0000
0010
0000
,  // measure 83
0100
0100
0100
0000
,  // measure 84
0001
0000
0010
0000
,  // measure 85
0100
0100
0100
0000
,  // measure 86
1000
0000
0010
0000
,  // measure 87
0100
0100
0100
0000
,  // measure 88
0001
0000
0010
0000
,  // measure 89
0100
0000
1000
0000
,  // measure 90
0010
0000
0100
0000
,  // measure 91
0001
0000
0100
0000
,  // measure 92
0010
0000
1000
0000
,  // measure 93
0010
0000
0100
0000
,  // measure 94
0001
0000
0010
0000
,  // measure 95
0100
0000
1000
0000
,  // measure 96
0001
0000
1000
0000
,  // measure 97
1001
0000
0110
0000
,  // measure 98
1001
0000
0110
0000
,  // measure 99
1001
0000
0110
0000
,  // measure 100
1001
0000
0110
0000
,  // measure 101
1001
0000
0110
0000
,  // measure 102
1001
0000
0110
0000
,  // measure 103
1001
0000
0110
0000
,  // measure 104
1001
0000
0110
0000
,  // measure 105
0100
0000
0100
0000
,  // measure 106
0010
0000
0010
0000
,  // measure 107
0100
0000
0100
0000
,  // measure 108
0010
0000
0010
0000
,  // measure 109
0001
0000
1000
0000
,  // measure 110
0100
0000
0010
0000
,  // measure 111
0001
0000
0010
0000
,  // measure 112
0100
0000
1000
0000
,  // measure 113
1001
0000
0000
0000
,  // measure 114
0100
0000
0000
0000
,  // measure 115
0110
0000
0000
0000
,  // measure 116
0010
0000
0000
0000
,  // measure 117
1001
0000
0000
0000
,  // measure 118
0100
0000
0000
0000
,  // measure 119
0110
0000
0000
0000
,  // measure 120
0001
0000
0000
0000
,  // measure 121
1000
1000
1000
0000
,  // measure 122
0100
0100
0100
0000
,  // measure 123
0010
0010
0010
0000
,  // measure 124
0001
0001
0001
0000
,  // measure 125
0100
0100
0100
0000
,  // measure 126
0010
0010
0010
0000
,  // measure 127
1000
1000
1000
0000
,  // measure 128
0100
0000
0010
0000
,  // measure 129
2002
0000
0000
0000
,  // measure 130
0000
0000
0000
0000
,  // measure 131
0000
0000
0000
0000
,  // measure 132
0000
0000
0000
0000
,  // measure 133
0000
0000
0000
0000
,  // measure 134
3003
0000
0000
0000
;
