#TITLE:星間飛行;
#SUBTITLE:;
#ARTIST:REDALiCE;
#TITLETRANSLIT:Seikan Hikou;
#SUBTITLETRANSLIT:;
#ARTISTTRANSLIT:;
#CREDIT:348 with Timer Rabbit;
#BANNER:;
#BACKGROUND:;
#LYRICSPATH:;
#CDTITLE:;
#MUSIC:Seikan Hikou.mp3;
#OFFSET:-1.335;
#SAMPLESTART:57.000;
#SAMPLELENGTH:15.000;
#SELECTABLE:YES;
#BPMS:0.000=172.084;
#STOPS:;
#BGCHANGES:;

//---------------dance-single - ----------------
#NOTES:
     dance-single:
     :
     Beginner:
     2:
     0.185,0.232,0.024,0.000,0.000:
0000
0000
0000
0000
,
0000
0000
0000
0000
,
0000
0000
0000
0000
,
0000
0000
0000
0000
,
1000
0000
0000
0000
,
0001
0000
0000
0000
,
1000
0000
0001
0000
,
1001
0000
0000
0000
,
0100
0000
0000
0000
,
0001
0001
0001
0000
,
1000
0000
0000
0000
,
0010
0010
0010
0000
,
1000
0000
0100
0000
,
0000
0010
0001
0000
,
0100
0000
0010
0000
,
0100
0000
0000
0000
,
0001
0000
0100
0000
,
0010
0000
0000
0000
,
1000
0000
0010
0000
,
0100
0000
0000
0000
,
0001
0000
1000
0000
,
0000
0000
0001
0000
,
0100
0000
0000
0000
,
0010
0000
0100
0000
,
0001
0000
0001
0000
,
1000
1000
1000
0000
,
0010
0000
0100
0000
,
0001
0000
0000
0000
,
0100
0000
0100
0000
,
0010
0010
0010
0000
,
1000
0000
0001
0000
,
0100
0000
0000
0000
,
0001
0000
0010
0000
,
0001
0000
0100
0100
,
0100
0000
0010
0000
,
0100
0000
0010
0010
,
0010
0000
1000
0000
,
0010
0000
1000
1000
,
1000
0000
0000
0000
,
0001
0100
0010
0000
,
1000
1000
1000
0000
,
0001
0000
0010
0000
,
0001
0001
0001
0000
,
0100
0000
0010
0010
,
0100
0100
0100
0000
,
0001
0000
1000
0000
,
0010
0010
0010
0000
,
1000
0000
0001
0001
,
0001
0000
0100
0000
,
0010
0000
1000
0000
,
0001
0000
0001
0000
,
0001
0000
1000
0000
,
1000
0000
1000
0000
,
1000
0000
0010
0000
,
0010
0000
0010
0000
,
0010
0000
0100
0000
,
0100
0000
0100
0000
,
0100
0000
0001
0001
,
0001
0000
1000
1000
,
1000
0000
0010
0010
,
0010
0000
0000
0000
,
1001
0000
0110
0000
,
1000
0000
0100
0100
,
0100
0000
0010
0010
,
0010
0000
0001
0000
,
1000
0000
0001
0000
,
1000
0000
0001
0001
,
0001
0000
0100
0000
,
0010
0000
1000
1000
,
1000
0000
0001
0000
,
1000
0000
0000
0000
,
0001
0001
0001
0000
,
0100
0000
0000
0000
,
0010
0010
0010
0000
,
1000
0000
0000
0000
,
0001
0000
1000
0000
,
0010
0000
0000
0000
,
0100
0000
0010
0000
,
1000
0000
0000
0000
,
0001
0000
0000
0000
,
0100
0000
0000
0000
,
0010
0000
0000
0000
,
1000
0000
0000
0000
,
0001
0000
0000
0000
;

//---------------dance-single - ----------------
#NOTES:
     dance-single:
     :
     Easy:
     5:
     0.375,0.441,0.264,0.335,0.020:
0000
0000
0000
0000
,
0000
0000
0000
0000
,
0000
0000
0000
0000
,
0000
0000
0000
0000
,
1000
0100
1000
0100
,
0010
0001
0010
0001
,
1000
0100
0010
0001
,
2002
0000
0000
3003
,
0100
0001
1000
0100
,
1000
0001
2200
3300
,
0001
0100
0001
1000
,
0010
1000
0202
0303
,
0010
0001
1000
0100
,
1000
0001
2020
3030
,
1001
0000
0000
0000
0110
0000
0000
1001
,
0000
0000
0101
1100
,
0001
0100
1001
0000
,
0100
0110
0000
0001
,
2000
3100
0002
0013
,
2000
3010
0002
0103
,
1000
0001
1100
0000
,
0001
1001
0000
0100
,
0020
1030
2000
3001
,
0002
0103
0200
0301
,
1000
0100
1000
0000
0001
0000
0000
0000
,
0200
0000
0310
0000
,
0001
0100
0001
0101
,
1000
0010
1000
1010
,
1001
0000
1000
0001
,
0100
0010
0100
0001
,
0100
0001
0100
0000
0001
0000
1000
0000
,
0002
0000
1003
0000
,
2020
0000
0000
3030
,
0001
0100
0100
0001
,
0202
0000
0000
0303
,
1000
0010
0010
1000
,
0001
0001
0001
0001
,
1000
1000
1000
1000
,
0011
0000
1100
0000
,
0010
0100
1001
0000
,
0100
0001
0010
1000
,
0100
0000
0000
0001
1000
0000
0001
0000
,
0100
0010
1000
0011
,
1000
0100
1010
0000
,
0001
0100
1000
0100
,
0001
0000
0000
0100
0010
0000
1000
0000
,
0001
0010
0001
0000
1000
0000
0100
0000
,
0002
0000
0103
0000
,
1010
0000
0011
0000
,
0101
0000
1100
0000
,
0001
0000
0000
0000
1000
0000
0000
0000
0010
0000
0000
0010
0000
0000
0010
0000
,
0100
0002
1003
1100
,
0001
0000
0000
0000
0100
0000
0000
0000
0001
0000
0000
0001
0000
0000
0001
0000
,
2000
0000
3010
0100
,
0001
0000
0000
0000
1000
0000
0000
0000
0100
0000
0000
0100
0000
0000
0100
0000
,
1000
0000
0010
0000
1000
0001
1000
0000
,
1000
0000
0000
0000
0100
0000
0000
0000
1000
0000
0000
1000
0000
0000
1000
0000
,
0002
0003
1000
0001
,
1000
0100
0001
0100
,
1000
0001
0100
0011
,
2000
0000
0000
0000
0000
0000
0000
0000
3001
0000
0000
0001
0000
0000
0001
0000
,
1000
0000
1001
0000
,
0001
0000
0010
0000
0100
0000
0010
0001
,
0010
0001
1000
0100
,
2000
3000
0002
0003
,
0100
0100
0010
0010
,
2000
0000
3100
0100
,
1000
0001
0010
0000
,
0002
0000
0103
0010
,
1000
0001
0100
0000
,
0020
0000
1030
0001
,
1000
0010
0100
0001
,
1100
0000
0000
0000
0011
0000
0000
0110
,
0000
0000
1000
0001
,
2000
0000
0000
3000
,
0020
0000
0000
0030
,
0200
0000
0000
0300
,
0002
0000
0000
0003
,
2000
0000
3100
0000
,
0020
0000
0031
0000
,
0200
0000
0000
0300
,
0002
0000
0013
0000
,
0200
0000
1300
0000
,
0020
0000
0000
0000
,
0000
0000
0000
0000
,
0030
0000
0000
0000
;

//---------------dance-single - ----------------
#NOTES:
     dance-single:
     :
     Medium:
     7:
     0.556,0.577,0.407,0.463,0.036: // measure 1
0000
0000
0000
0000
,  // measure 2
0000
0000
0000
0000
,  // measure 3
0000
0000
0000
0000
,  // measure 4
0000
0000
0000
0000
,  // measure 5
1000
0100
1000
0000
0001
0000
1100
0000
,  // measure 6
0001
0010
0001
0000
0100
0000
1010
0000
,  // measure 7
0001
0100
0010
0000
0100
0010
1000
0000
,  // measure 8
0001
0101
0001
0011
,  // measure 9
2000
3200
0320
0032
,  // measure 10
1003
0100
0010
0100
1000
0000
0110
0000
,  // measure 11
0002
2003
3020
0230
,  // measure 12
0301
0010
1000
0010
0001
0000
1100
0000
,  // measure 13
0020
2030
3002
0203
,  // measure 14
0301
0010
0001
0010
0001
0000
1100
0000
,  // measure 15
0110
0000
0000
0000
1001
0000
0010
0100
,  // measure 16
0000
0011
1100
1001
,  // measure 17
0010
0001
0010
0000
0002
0000
0103
0000
,  // measure 18
0100
0010
0100
0000
0020
0000
1030
0000
,  // measure 19
0100
0001
0010
0000
0100
1000
0010
0000
,  // measure 20
1100
1000
0011
0001
,  // measure 21
1000
0000
0100
0000
0010
0001
0010
0000
,  // measure 22
0100
1000
0100
0000
0010
0000
0001
0000
,  // measure 23
1000
0100
0001
0100
2000
0000
3001
0000
,  // measure 24
0220
0330
2002
3003
,  // measure 25
0010
0000
0100
0001
0100
0000
0001
1000
,  // measure 26
0001
1000
0001
0000
1100
0000
0101
0000
,  // measure 27
2000
3020
2030
3200
,  // measure 28
1300
0001
1100
0000
,  // measure 29
0001
0010
0001
0000
0100
0000
0110
0000
,  // measure 30
1000
0000
0100
1000
0100
0000
1100
0000
,  // measure 31
0010
1000
0001
1000
0010
0000
1001
0000
,  // measure 32
0110
0000
0011
1010
,  // measure 33
0002
0000
1000
1003
,  // measure 34
1000
0100
0010
0000
0100
0010
0001
0000
,  // measure 35
1000
0000
0110
0000
0001
0100
0000
1001
,  // measure 36
0000
0010
1000
0000
0110
0000
1001
0000
,  // measure 37
0002
0013
0020
0130
,  // measure 38
0200
1300
2000
3001
,  // measure 39
1000
0001
0100
0000
0100
0001
1000
0000
,  // measure 40
0110
1001
0220
0330
,  // measure 41
1000
0000
0000
0001
0000
0000
1000
0000
0002
0000
0000
0000
0103
0000
0000
0000
,  // measure 42
0100
0001
1000
0001
0100
0000
1001
0000
,  // measure 43
0010
0000
0000
0100
0000
0000
0010
0000
2000
0000
0000
0000
3010
0000
0000
0000
,  // measure 44
0001
0100
0010
0100
0000
0010
1000
0000
,  // measure 45
0001
0000
0000
1000
0000
0000
0010
0000
0200
0000
0000
0000
0301
0000
0000
0000
,  // measure 46
1000
0100
0010
0100
1000
0000
0101
0000
,  // measure 47
0001
0010
0001
0100
0010
1000
0100
0000
,  // measure 48
1001
1100
1001
0101
,  // measure 49
1000
0000
1100
0000
0001
0100
0010
0000
,  // measure 50
0100
0000
0101
0000
0010
1000
0100
0000
,  // measure 51
1000
0000
0100
0000
1000
0000
0000
0000
0001
0000
0000
0010
0000
0000
0100
0000
,  // measure 52
0010
0001
0010
0001
0010
0000
1001
0000
,  // measure 53
0200
0000
0000
0000
0310
0000
0000
0000
0010
0000
0000
1000
0000
0000
0001
0000
,  // measure 54
1000
0100
0010
0001
0000
0001
1000
0000
,  // measure 55
0001
0000
0100
0000
0010
0000
0000
0000
0100
0000
0000
0001
0000
0000
0100
0000
,  // measure 56
0001
0010
1000
0010
0001
0000
1010
0000
,  // measure 57
0200
0301
0020
1030
,  // measure 58
1000
0100
0010
0001
0010
0100
1000
0000
,  // measure 59
0002
1003
2000
3001
,  // measure 60
0100
0000
0000
0001
0000
0000
1000
0000
0010
0000
0100
0000
0001
0000
0000
0000
,  // measure 61
1000
0100
0010
0000
0100
0010
0001
0000
,  // measure 62
1000
0000
0100
0000
0001
0000
0100
0000
1000
0000
0000
0001
0000
0000
0100
0000
,  // measure 63
0020
0130
0200
0310
,  // measure 64
1000
0000
0000
1000
0000
0000
0001
0000
0001
0000
0000
0000
0110
0000
0000
0000
,  // measure 65
1000
0001
0010
0000
0100
1000
0001
0000
,  // measure 66
1000
0001
0010
0001
1000
0000
1001
0000
,  // measure 67
0020
0000
0000
0000
0031
0100
0001
0000
,  // measure 68
1000
0100
1000
0000
2002
0000
3003
0000
,  // measure 69
0200
0000
0000
0000
0310
1000
0010
0000
,  // measure 70
0100
0001
0100
0000
0220
0000
0330
0000
,  // measure 71
2000
0000
0001
3001
,  // measure 72
0010
0001
1000
0001
0010
0000
1100
0000
,  // measure 73
0001
0000
1000
0000
1001
0000
0010
0200
,  // measure 74
0000
0000
0301
0000
1000
0001
1000
0000
,  // measure 75
0002
0000
0000
0000
0013
0001
0010
0000
,  // measure 76
0002
0010
0100
1003
,  // measure 77
1000
0100
0010
0000
0001
0000
1001
0000
,  // measure 78
0100
0001
1000
0000
0002
0000
0103
0000
,  // measure 79
2000
0010
3001
0000
,  // measure 80
0002
0100
1003
0000
,  // measure 81
2002
0000
3003
1001
,  // measure 82
0020
0100
1030
0000
,  // measure 83
0200
0010
0301
0000
,  // measure 84
0002
0000
0000
0000
,  // measure 85
0000
0000
0000
0000
,  // measure 86
0003
0000
0000
0000
;

//---------------dance-single - ----------------
#NOTES:
     dance-single:
     :
     Hard:
     9:
     0.716,0.679,0.583,0.439,0.200: // measure 1
0000
0000
0000
0000
,  // measure 2
0000
0000
0000
0000
,  // measure 3
0000
0000
0000
0000
,  // measure 4
0000
0000
0000
0000
,  // measure 5
1000
0001
0100
0000
0100
0001
0010
0000
,  // measure 6
0010
0001
1000
0000
1000
0001
0100
0000
,  // measure 7
0010
1000
0010
0100
0010
0100
0001
0100
,  // measure 8
0001
1000
0010
0100
0010
0000
1001
0000
,  // measure 9
0100
0001
0100
0001
1000
0100
1000
0100
,  // measure 10
1000
0000
0100
0000
0001
0000
0100
0000
1000
0001
0000
0000
1100
0000
0000
0000
,  // measure 11
0001
0010
1000
0010
0001
0100
0001
0100
,  // measure 12
0010
0000
1000
0000
0001
0000
1000
0000
0100
2000
0000
0000
3001
0020
0000
0000
,  // measure 13
0031
0010
0001
0100
0010
0100
0001
1000
,  // measure 14
0100
0000
1000
0000
0100
0000
1000
0000
0001
1000
0001
0000
0010
0000
0000
0000
,  // measure 15
1001
0000
1100
0000
0101
0000
1000
0002
,  // measure 16
0000
0103
0001
0100
1000
0100
0001
0000
,  // measure 17
1100
0000
0000
0000
0001
1000
0000
0000
0012
0000
0000
0000
1003
0000
0000
0000
,  // measure 18
0001
0010
0100
0010
1000
0010
0001
0000
,  // measure 19
1100
0000
0000
0000
0010
0001
0000
0000
0210
0000
0000
0000
0301
0000
0000
0000
,  // measure 20
1000
0001
1000
0010
0100
0000
0011
0000
,  // measure 21
1010
0000
0000
0000
0001
0100
0000
0000
0101
0000
0000
0000
1000
0010
0000
0000
,  // measure 22
0100
0001
1000
0100
1000
0001
0100
0001
,  // measure 23
1000
0010
1010
0000
0001
0100
0101
0000
,  // measure 24
1000
0100
0010
0001
1001
0000
0110
0000
,  // measure 25
1000
0000
0100
0000
0001
0000
0000
0000
0100
1000
0000
0000
0011
0000
0000
1000
,  // measure 26
0100
1000
0001
0010
0001
1000
0100
0010
,  // measure 27
0001
1000
1001
0000
0010
0100
0110
0000
,  // measure 28
0001
1000
0010
0100
0110
0000
1001
0000
,  // measure 29
0100
0001
1000
0010
1000
0100
0001
0100
,  // measure 30
1000
0000
0001
0010
0001
0000
1000
0000
0010
0000
0000
0000
1001
0000
0000
0000
,  // measure 31
0200
0301
0020
1030
,  // measure 32
1001
0110
2002
3003
,  // measure 33
2200
3300
0202
0303
,  // measure 34
1001
0000
0000
1000
0100
0000
0000
0100
0010
0000
0000
0010
0001
0000
0000
0000
,  // measure 35
0022
0033
2020
3030
,  // measure 36
0110
0000
0000
0001
1000
0000
0000
1000
0010
0000
0000
0010
0100
0000
0000
0000
,  // measure 37
1010
0000
0110
0000
1000
0100
0010
0000
,  // measure 38
0012
0000
1003
0000
0001
1000
0010
0000
,  // measure 39
1000
0100
0001
0100
1000
0010
0001
0010
,  // measure 40
1000
0000
0010
0100
0010
0000
0100
0000
0002
0000
0000
0000
1003
0000
0000
0000
,  // measure 41
1000
0000
0001
0000
0001
0000
1000
0000
0001
0000
0000
0010
0000
0000
0100
0000
,  // measure 42
1000
0000
0001
0000
0010
0000
0001
0000
0100
0000
0010
1000
0010
0000
0100
0000
,  // measure 43
0002
0000
0000
0100
0000
0000
1003
0000
1000
0000
0000
0001
1000
0000
0001
0000
,  // measure 44
1000
0010
0100
0001
0100
0010
1000
0001
,  // measure 45
1000
0000
0100
0000
0010
0000
0000
0000
0001
0000
0000
0100
0010
0000
1000
0000
,  // measure 46
0010
0100
0010
1000
0001
0100
0010
0100
,  // measure 47
0001
0000
1000
0100
1000
0000
0001
0000
1000
0000
0001
0010
0001
0000
1000
0000
,  // measure 48
0001
0000
0000
1100
0000
0000
0011
0000
0000
1010
0000
0000
0101
0000
0000
0000
,  // measure 49
2000
3002
0203
0320
,  // measure 50
0230
0302
2003
3200
,  // measure 51
1300
0000
0000
0110
0000
0000
1001
0000
0011
0000
0000
0110
0000
0000
1001
0000
,  // measure 52
0010
0001
0100
0010
1000
0100
1000
0001
,  // measure 53
1000
0000
0001
0000
0100
0000
0010
0000
1000
0000
0010
0100
0010
0000
1000
0000
,  // measure 54
0001
0010
0001
0100
0010
0100
0001
1000
,  // measure 55
0002
0000
0000
0100
0000
0000
0013
0000
2000
0000
0000
0001
0000
0000
3100
0000
,  // measure 56
0001
0000
1000
0000
0010
0000
0100
0000
0010
0000
0000
1000
0000
0000
0001
0000
,  // measure 57
1000
0000
0100
0000
0010
0000
0001
0000
0010
0000
0001
0100
0001
0000
0010
0000
,  // measure 58
0001
0000
0000
0110
0000
0000
1100
0000
0000
0110
0000
0000
0011
0000
0000
0000
,  // measure 59
1000
0000
0100
0000
1000
0000
0010
0000
1000
0000
0000
0001
0000
0000
1000
0000
,  // measure 60
0001
0000
0100
0000
0010
0000
0100
0000
0010
0000
1000
0001
1000
0000
0010
0000
,  // measure 61
1000
0000
0000
0011
0000
0000
2000
0000
0001
0000
0000
0001
0000
0000
3001
0000
,  // measure 62
0001
0000
0100
0010
0100
0000
0010
0000
1000
0000
0001
0000
0100
0000
0010
0000
,  // measure 63
1000
0000
0001
0000
1000
0000
0000
0000
0001
0000
0000
0010
0000
0000
0001
0000
,  // measure 64
1000
0000
0010
1000
0010
0000
0100
0000
0001
0000
1000
0000
0001
0000
0100
0000
,  // measure 65
0010
0000
0000
1001
0000
0000
0010
0000
1000
0000
0000
0011
0000
0000
1000
0000
,  // measure 66
0001
0000
0000
1001
0000
0000
1010
0000
0000
1001
0000
0000
0101
0000
0000
0000
,  // measure 67
0220
0000
0330
0000
1000
0001
1000
0100
,  // measure 68
0001
0000
0100
0000
1000
0000
0001
0000
0100
0010
0000
0000
1001
0000
0000
0000
,  // measure 69
2002
0000
3003
0000
0100
0010
1000
0010
,  // measure 70
0001
0000
0010
0000
1000
0000
0001
0000
0010
0001
0000
0000
1000
0100
0000
0000
,  // measure 71
2020
0000
3030
0000
0001
1000
0101
0000
,  // measure 72
1000
0001
0100
0010
1000
0001
0110
0000
,  // measure 73
1100
0000
0011
0000
1001
0000
2000
0002
,  // measure 74
0000
3003
0000
0000
0101
0000
0000
0000
1000
0000
0010
0000
0100
0000
0001
0000
,  // measure 75
2000
3002
0203
0302
,  // measure 76
1003
0100
0010
0100
1000
0000
0011
0000
,  // measure 77
0200
0302
2003
3020
,  // measure 78
0130
0001
1000
0100
0010
0001
1000
0000
,  // measure 79
0012
0103
0120
1030
,  // measure 80
0001
0100
1000
0000
1000
0100
0001
0000
,  // measure 81
0220
0330
1001
0110
,  // measure 82
2001
3100
1200
0310
,  // measure 83
0010
0001
1000
0000
0001
1000
0100
0000
,  // measure 84
2002
0000
0000
0000
,  // measure 85
0000
0000
0000
0000
,  // measure 86
3003
0000
0000
0000
;

//---------------dance-single - ----------------
#NOTES:
     dance-single:
     :
     Challenge:
     10:
     0.799,0.984,0.471,0.503,0.363: // measure 1
0000
0000
0000
0000
,  // measure 2
0000
0000
0000
0000
,  // measure 3
0000
0000
0000
0000
,  // measure 4
0000
0000
0000
0000
,  // measure 5
1000
0100
0001
0100
1000
0100
0001
0100
,  // measure 6
1000
0001
0010
0100
0010
0001
1000
0001
,  // measure 7
0010
0001
1000
0001
0100
0010
1000
0001
,  // measure 8
1000
0000
0010
0100
0010
0000
1000
0001
1000
0000
0000
0000
0110
0000
0000
0000
,  // measure 9
1000
0000
0100
0000
0010
0000
0100
0000
1000
0000
0010
0100
0010
0000
1000
0000
,  // measure 10
0001
0000
0000
0000
0100
0000
0000
0000
0010
0000
0000
0000
1000
0000
0000
0000
0001
1000
0000
0000
0000
0000
0000
0000
1001
0000
0000
0000
0000
0000
0000
0000
,  // measure 11
0010
0000
1000
0000
0001
0000
1000
0000
0100
0000
0010
0001
0010
0000
0100
0000
,  // measure 12
1000
0000
0100
0000
1000
0000
0001
0000
1000
0100
1000
0000
0001
0010
0001
0000
,  // measure 13
0100
0010
1000
0001
1000
0001
0100
0010
,  // measure 14
1000
0000
0000
0000
0100
0000
0000
0000
1000
0000
0000
0000
0001
0000
0000
0000
0100
0010
0000
0000
0000
0000
0000
0000
0110
0000
0000
0000
0000
0000
0000
0000
,  // measure 15
2000
0001
3001
0000
0002
0013
0200
1300
,  // measure 16
0000
0000
0001
0000
1000
0000
0010
0000
1000
0001
1000
0000
0100
0000
0000
0000
,  // measure 17
1000
0100
1000
0000
0002
0000
0000
0000
1003
0000
0000
0000
1001
0000
0000
0000
,  // measure 18
0001
0000
0010
0000
0100
0000
1000
0000
0001
0000
0010
0000
0100
0000
1000
0010
,  // measure 19
1000
0001
1100
0000
0001
1000
0011
0000
,  // measure 20
1000
0100
0001
0100
0010
0001
0010
1000
,  // measure 21
0010
1000
0010
0000
2000
0000
0000
0000
3010
0000
0000
0000
0101
0000
0000
0000
,  // measure 22
1000
0100
0010
0001
0100
0010
1001
1000
,  // measure 23
0001
0010
1100
0000
1000
0100
0011
0000
,  // measure 24
1000
0000
0010
0100
0001
0000
1000
0010
0100
0000
0002
0000
1003
0000
0000
0000
,  // measure 25
0010
0100
0010
0000
0200
0000
0000
0000
0301
0000
1000
0000
0010
0000
0000
0000
,  // measure 26
1000
0100
0010
0110
0010
0001
1000
1001
,  // measure 27
0002
1003
2010
3010
,  // measure 28
0001
0000
0100
0010
0100
0000
0001
0000
1000
0000
0100
0000
0010
0000
0000
0000
,  // measure 29
1002
0000
0000
0000
0103
0000
0000
0000
1000
0010
1000
0000
0001
0000
0000
0000
,  // measure 30
0100
0000
0001
0000
1000
0000
0001
0000
0010
0000
0001
0000
1000
0000
0000
0001
,  // measure 31
0100
0010
1000
0100
0010
0100
1000
0001
,  // measure 32
1000
0100
0001
0100
1000
0000
0110
0000
,  // measure 33
2000
0000
3002
0000
0203
0010
0320
0000
,  // measure 34
0130
0000
0000
0001
0100
0000
0000
1000
0100
0000
0000
0001
0100
0000
0000
1000
,  // measure 35
0200
0302
0023
0230
,  // measure 36
1300
0000
0000
0010
1000
0000
0000
1000
0010
0000
0000
0010
0001
0000
0000
0001
,  // measure 37
0020
1000
1030
0000
0200
0001
0301
0000
,  // measure 38
0002
0010
0010
0013
0200
1000
1000
1300
,  // measure 39
1100
0101
0011
1010
,  // measure 40
0001
0000
0100
0001
1000
0000
0001
1000
0010
0000
0000
0000
1001
0000
0000
0000
,  // measure 41
0100
0000
0001
0000
1000
0000
0010
0000
1100
0000
0000
0011
0000
0000
1001
0000
,  // measure 42
0001
0000
0100
0000
0010
0000
1000
0000
0101
0000
0000
1010
0000
0000
0101
0000
,  // measure 43
1000
0000
0010
0100
0001
0000
1000
0000
0001
0000
0010
0100
1000
0000
0001
0000
,  // measure 44
0100
0000
0010
1000
0010
0000
0100
0001
0100
0000
0001
0000
1000
0000
0010
0000
,  // measure 45
0100
0000
0001
0000
0100
0000
0001
0000
1010
0000
0000
0110
0000
0000
0101
0000
,  // measure 46
1000
0000
0010
0000
1000
0000
0010
0000
0101
0000
0000
1001
0000
0000
1010
0000
,  // measure 47
0001
0000
0010
0001
0010
0000
0100
0000
1000
0000
0100
1000
0100
0000
0010
0000
,  // measure 48
0001
0200
0000
0310
2000
0000
3001
0020
0000
0130
1000
0000
0001
0000
1000
0000
,  // measure 49
0022
0000
0000
0033
2200
0000
0000
3300
0001
0000
1000
0000
0220
0000
0000
0330
,  // measure 50
2020
0000
0000
3030
0202
0000
0000
0303
0010
0000
0100
0000
2002
0000
0000
3003
,  // measure 51
0010
0001
0010
0000
0001
0000
0100
0000
0020
0000
0000
1000
0000
0000
0100
0000
,  // measure 52
1030
0100
1000
0000
0001
0000
0010
0000
0002
0000
0000
0010
0000
0000
1003
0000
,  // measure 53
0010
0001
0010
0001
0010
0000
0100
0000
1000
0100
1000
0100
1000
0000
0010
0000
,  // measure 54
0100
0000
0001
0100
0010
0000
0100
0010
1000
0000
0001
0000
0010
0000
0001
0000
,  // measure 55
1000
0100
1000
0000
0001
0000
0000
0000
1000
0000
0100
0000
0010
0000
0000
0000
,  // measure 56
0001
0010
0001
0000
0100
0000
0000
0000
0010
0000
1000
0000
0100
0000
0000
0000
,  // measure 57
1000
0000
0001
0010
0100
0000
0010
0000
0001
0000
1000
0010
0100
0000
0010
0000
,  // measure 58
2000
0000
0000
0002
0000
3000
0200
0000
0003
0020
0000
0300
2000
0000
0030
0000
,  // measure 59
3001
0000
0000
0100
0000
0000
1000
0000
0100
0000
0001
0010
1000
0000
0010
0000
,  // measure 60
0001
0000
0000
1000
0000
0000
0100
0000
0001
0000
0100
1000
0100
0000
0010
0000
,  // measure 61
0001
0000
1000
0100
1000
0000
0010
0000
0100
0000
0001
0010
0001
0000
1000
0000
,  // measure 62
0020
0000
0000
1000
0000
0000
0130
0000
0200
0000
0000
0001
0000
0000
0310
0000
,  // measure 63
0010
0000
1000
0001
0100
0000
0001
0000
1000
0000
0000
0100
0000
0000
1100
0000
,  // measure 64
0001
0000
1000
0010
0100
0000
0001
0000
0010
0000
0000
0001
0000
0000
0011
0000
,  // measure 65
1000
0010
1000
0010
1000
0000
0001
0000
0100
0001
0100
0001
0100
0000
0010
0000
,  // measure 66
1000
0020
0000
0130
0002
0000
1003
0200
0000
0310
0002
0000
2000
0000
3003
0000
,  // measure 67
1001
0000
0000
0000
0000
0000
0001
0000
1000
0100
1000
0000
0001
0000
0100
0000
,  // measure 68
0001
0000
0000
0000
1000
0000
0000
0000
0010
0000
0000
0000
1000
0000
0000
0000
0001
0100
0000
0000
0000
0000
0000
0000
1010
0000
0000
0000
0000
0000
0000
0000
,  // measure 69
0110
0000
0000
0000
0000
0000
1000
0000
0010
0100
0010
0000
1000
0000
0100
0000
,  // measure 70
0010
0000
0001
0100
0001
0000
0100
0010
0100
0000
0010
1000
0010
0000
2000
0000
,  // measure 71
0002
0000
3003
0100
0001
1000
0100
0010
,  // measure 72
1000
0000
0000
0000
0001
0000
0100
0000
0001
0000
0000
0000
0010
0000
0000
0000
0100
1000
0000
0000
0000
0000
0000
0000
0011
0000
0000
0000
0000
0000
0000
0000
,  // measure 73
1001
0000
0110
0000
1001
0000
0200
0301
,  // measure 74
0000
2000
3010
0100
0001
1000
0001
0000
,  // measure 75
2010
0000
3100
0000
0001
0010
0100
0000
,  // measure 76
0012
0000
0103
0000
1000
0001
0100
0000
,  // measure 77
0100
0001
1000
0000
0001
1000
0010
0000
,  // measure 78
1000
0000
0000
1000
0001
0000
0000
0001
0100
0000
0000
0100
0010
0000
0000
0000
,  // measure 79
0201
0000
0310
0000
0001
1000
0001
0000
,  // measure 80
0120
0000
1030
0000
0100
0001
1000
0000
,  // measure 81
2002
3000
1000
1003
,  // measure 82
0011
0000
0000
0000
1100
0000
0000
0000
1001
0000
0000
0100
0010
0000
0000
0000
,  // measure 83
0101
0000
0000
0000
1010
0000
0000
0000
0110
0000
0000
1000
0001
0000
0000
0000
,  // measure 84
0220
0000
0000
0000
,  // measure 85
0000
0000
0000
0000
,  // measure 86
0330
0000
0000
0000
;
