#TITLE:LASER CRUSTER;
#SUBTITLE:;
#ARTIST:L.E.D.;
#TITLETRANSLIT:;
#SUBTITLETRANSLIT:;
#ARTISTTRANSLIT:;
#GENRE:;
#CREDIT:;
#MENUCOLOR:;
#METERTYPE:DDR;
#BANNER:LASER CRUSTER-bn.png;
#BACKGROUND:LASER CRUSTER-bg.png;
#LYRICSPATH:;
#CDTITLE:;
#MUSIC:LASER CRUSTER.mp3;
#OFFSET:-0.395;
#SAMPLESTART:82.520;
#SAMPLELENGTH:12.000;
#SELECTABLE:YES;
#LISTSORT:;
#DISPLAYBPM:*;
#BPMS:0.000=303.920,192.000=151.960,208.000=303.920,336.000=75.980,348.000=151.960,356.000=303.920,484.000=151.960;
#STOPS:;
#BGCHANGES:;
#ATTACKS:;

//---------------dance-single - ----------------
#NOTES:
     dance-single:
     :
     Hard:
     10:
     0.925,1.000,0.214,0.291,0.128: // measure 1
0000
0000
0000
0000
,  // measure 2
0000
0000
0000
0000
,  // measure 3
0000
0000
0000
0000
,  // measure 4
0000
0000
0000
0000
,  // measure 5
0000
0000
0000
0000
,  // measure 6
0000
0000
0000
0000
,  // measure 7
0000
0000
0000
0000
,  // measure 8
0000
0000
0000
0000
,  // measure 9
1000
0001
0000
1000
,  // measure 10
0100
0001
0010
1000
,  // measure 11
0010
0100
0000
0001
,  // measure 12
1000
0100
0010
1000
,  // measure 13
1000
0010
1000
0010
0100
0001
0100
0001
,  // measure 14
1000
0001
1000
0001
0100
0010
0100
0010
,  // measure 15
0110
0000
0001
0100
0000
0000
1001
0000
,  // measure 16
0100
0010
0000
0000
1000
0000
0001
0010
,  // measure 17
0100
1000
0100
0000
0001
0000
0010
0001
,  // measure 18
0010
1000
0001
0100
,  // measure 19
0001
1000
0001
0000
0100
0000
1000
0100
,  // measure 20
1000
0010
0001
1000
,  // measure 21
0010
0001
0010
0000
0100
0000
1000
0010
,  // measure 22
1000
0100
0001
1000
,  // measure 23
0010
0100
0010
0000
0001
0000
0010
1000
,  // measure 24
0010
0100
0001
0100
,  // measure 25
1000
0010
0100
0000
0001
0000
1000
0100
,  // measure 26
0010
1000
0100
0001
,  // measure 27
0010
0100
0001
0000
1000
0000
0001
0010
,  // measure 28
1000
0100
0010
1000
,  // measure 29
0100
0010
1000
0000
0100
0000
0010
0001
,  // measure 30
1000
0100
0001
0010
,  // measure 31
0100
0010
0001
0000
0100
0000
0001
1000
,  // measure 32
0100
0010
0001
0100
,  // measure 33
1000
0010
0200
0010
,  // measure 34
1300
0002
0010
0100
,  // measure 35
2003
0000
0100
0000
3010
0100
0001
0000
,  // measure 36
1000
0010
0100
0001
0010
0100
1000
0010
,  // measure 37
0100
0010
2000
0001
,  // measure 38
0100
3020
1000
0100
,  // measure 39
0032
0010
0100
2003
,  // measure 40
0010
0000
0001
0000
3100
1000
0001
0100
,  // measure 41
0010
0000
1000
0001
0010
0000
2000
0000
,  // measure 42
0100
0001
3020
0001
,  // measure 43
1000
0230
0001
0310
,  // measure 44
0001
1000
0100
0010
0001
0100
0010
1000
,  // measure 45
1001
0000
1000
0100
0010
0000
0200
0000
,  // measure 46
0010
1000
0320
0001
,  // measure 47
0100
2030
0100
0010
,  // measure 48
3002
0000
1000
0000
0010
0000
0103
0010
,  // measure 49
1000
0100
0001
0010
1000
0010
0001
0100
,  // measure 50
1000
0001
0100
0010
1000
0001
0010
0100
,  // measure 51
0011
0000
0101
0000
0010
0000
1000
0000
0100
0000
0010
0000
0001
0000
0100
0010
,  // measure 52
0110
0000
0001
0100
0000
0000
0011
0000
1000
0100
0000
0000
0010
0000
0001
0100
,  // measure 53
0101
1000
0001
0010
,  // measure 54
0100
1000
0010
0001
,  // measure 55
0010
0100
0001
1000
,  // measure 56
0100
0000
0010
0000
0001
0000
1000
0001
,  // measure 57
1001
0100
0001
1000
,  // measure 58
0100
0000
1000
0000
0001
0010
0100
1000
,  // measure 59
0010
0001
1010
0100
,  // measure 60
0001
0000
1000
0000
0100
0010
1000
0010
,  // measure 61
0001
0000
1000
0000
0010
0100
0000
0010
,  // measure 62
1000
0000
0001
0000
0100
0000
0010
0100
,  // measure 63
0010
0000
1000
0000
0010
0000
0100
0001
,  // measure 64
0000
0100
1000
0000
0001
0000
0100
0001
,  // measure 65
0010
0000
1000
0000
0001
0100
0010
1000
,  // measure 66
0100
0001
0100
0110
,  // measure 67
0010
0001
0100
0011
,  // measure 68
1000
0000
0010
0100
0001
0010
0100
1000
,  // measure 69
1001
0000
0100
0000
0010
0001
0010
0000
,  // measure 70
1000
0010
1000
0000
1000
0001
1000
0000
,  // measure 71
0100
0001
0100
0000
0010
1000
0010
0000
,  // measure 72
0100
0010
0100
0000
0001
0100
0001
0000
,  // measure 73
1000
0100
0010
0001
1001
0000
0100
0000
,  // measure 74
0010
0100
0010
0000
0001
0000
0011
0000
,  // measure 75
0100
0001
0100
0000
0010
1000
0100
0010
,  // measure 76
0110
0000
0010
0000
0100
0001
0100
0000
,  // measure 77
1010
0000
0100
0000
0001
1000
0100
0000
,  // measure 78
0010
0100
0001
0000
0010
0100
1000
0000
,  // measure 79
0100
0010
1000
0000
0001
0100
0010
0000
,  // measure 80
1000
0001
0100
0000
0010
0001
1000
0000
,  // measure 81
0110
0000
1000
0000
0100
1000
0010
0000
,  // measure 82
0001
1000
0100
0000
0010
0000
1100
0000
,  // measure 83
0001
0010
0100
0000
0101
0000
0010
0000
,  // measure 84
0100
0001
1000
0100
0010
0001
0100
0010
,  // measure 85
2010
0000
0001
3020
0000
1000
1000
0000
0230
0000
0010
0302
0000
0010
0010
0000
,  // measure 86
2003
0000
0000
0000
0001
0000
3200
0000
0000
0000
0001
0000
0001
0000
0000
0000
0320
0000
0000
0000
1000
0000
0032
0000
0000
0000
0100
0000
0013
0100
0000
0001
,  // measure 87
2001
0000
0001
3020
0000
1000
1000
0000
0230
0000
0010
0302
0000
0100
0100
0000
,  // measure 88
1003
0001
0100
0010
1000
0100
0010
0001
0100
0010
0001
0010
0001
0010
0100
1000
,  // measure 89
1100
0000
0010
0100
0000
0000
0101
0000
1000
0010
0000
0000
1000
0100
0010
0001
,  // measure 90
0100
0010
1000
0100
0010
0000
1000
0010
,  // measure 91
0100
0001
1000
0000
0010
0100
0001
0000
,  // measure 92
1000
0010
0100
0010
0001
0000
0100
0010
,  // measure 93
0001
0010
0001
0000
1000
0001
0100
0000
,  // measure 94
0001
0010
0100
1000
0100
0000
0010
1000
,  // measure 95
0001
0100
0001
0000
1000
0010
0100
0000
,  // measure 96
1000
0010
0001
0010
1000
0000
0100
0001
,  // measure 97
0010
0100
0010
0000
1000
0010
0100
0000
,  // measure 98
0100
0010
0001
0010
1000
0000
0100
0010
,  // measure 99
0001
0010
0100
0010
0001
0010
1000
0000
,  // measure 100
0010
1000
0001
0010
0100
0000
0001
0100
,  // measure 101
1000
0100
0010
0001
0010
0100
0010
0000
,  // measure 102
0001
0100
0010
0100
1000
0000
0001
1000
,  // measure 103
0100
0010
0001
0100
0010
1000
0100
0000
,  // measure 104
0001
1000
0100
0010
0100
0000
0010
1000
,  // measure 105
0001
0010
0100
1000
0100
0010
0001
0000
,  // measure 106
1000
0100
0010
0000
1000
0001
1000
0001
,  // measure 107
1000
0001
0100
0010
0100
0010
0100
0010
,  // measure 108
1000
0100
1000
0100
1000
0100
0010
0000
,  // measure 109
1000
0100
0010
0001
0100
1000
0010
0100
,  // measure 110
0010
0100
0001
0000
0010
0001
0010
0001
,  // measure 111
0010
0001
1000
0010
1000
0010
1000
0010
,  // measure 112
0100
0010
0100
0010
0100
0010
1000
0001
,  // measure 113
1000
0001
1000
0001
0100
0010
0001
0000
,  // measure 114
1000
0100
0010
0001
1000
0100
0010
0001
,  // measure 115
0100
0010
1000
0100
0010
0100
0010
0001
,  // measure 116
0100
1000
0100
0010
0100
0001
1000
0100
,  // measure 117
0010
0001
0100
0010
0001
0010
0100
0001
,  // measure 118
1000
0100
0010
0100
1000
0100
0010
0100
,  // measure 119
1000
0001
0100
0010
0001
0010
1000
0100
,  // measure 120
0010
0001
0010
0100
0010
0001
0010
0100
,  // measure 121
0001
0100
0010
1000
0100
0010
0001
1000
,  // measure 122
2001
0000
0000
0020
0000
0000
0000
3000
,  // measure 123
0002
0000
0030
0200
0000
0000
0000
0003
,  // measure 124
0020
0000
0300
0002
0000
0000
0000
0030
,  // measure 125
0200
0000
0003
0020
0000
0000
0000
0000
,  // measure 126
0330
0000
0000
0000
;

//---------------dance-single - ----------------
#NOTES:
     dance-single:
     :
     Medium:
     9:
     0.738,1.000,0.137,0.350,0.107: // measure 1
0000
0000
0000
0000
,  // measure 2
0000
0000
0000
0000
,  // measure 3
0000
0000
0000
0000
,  // measure 4
0000
0000
0000
0000
,  // measure 5
0000
0000
0000
0000
,  // measure 6
0000
0000
0000
0000
,  // measure 7
0000
0000
0000
0000
,  // measure 8
0000
0000
0000
0000
,  // measure 9
1000
0010
0000
0100
,  // measure 10
0001
0000
1000
0000
,  // measure 11
0010
0001
0000
0100
,  // measure 12
0010
0000
1000
0000
,  // measure 13
1000
0001
1000
0001
1000
0001
1000
0001
,  // measure 14
1000
0001
1000
0001
1000
0001
1000
0001
,  // measure 15
0100
0000
0010
0100
0000
0000
1010
0000
,  // measure 16
0001
0100
0000
0000
0010
0000
0010
0100
,  // measure 17
0010
1000
0001
0100
,  // measure 18
1000
0100
0010
1000
,  // measure 19
0100
1000
0001
0100
,  // measure 20
0010
0001
0010
0100
,  // measure 21
0001
0010
0100
0001
,  // measure 22
0100
1000
0010
0100
,  // measure 23
0001
1000
0010
0001
,  // measure 24
0010
0100
0001
0010
,  // measure 25
0100
1000
0001
0100
,  // measure 26
1000
0100
0010
1000
,  // measure 27
0100
0010
0001
0100
,  // measure 28
1000
0100
0010
1000
,  // measure 29
0001
0010
0100
0010
,  // measure 30
0001
0100
0010
0001
,  // measure 31
0010
1000
0100
0010
,  // measure 32
0100
1000
0010
0100
,  // measure 33
0010
0100
0002
0000
,  // measure 34
0103
0020
0000
1030
,  // measure 35
0200
0000
0310
0001
,  // measure 36
0010
1000
0100
1000
,  // measure 37
0010
1000
0002
0000
,  // measure 38
1003
0020
0000
1030
,  // measure 39
0002
0000
1003
0200
,  // measure 40
0000
0310
0001
1000
,  // measure 41
0001
0000
0010
1000
0010
0000
0200
0000
,  // measure 42
0000
0310
2000
0000
,  // measure 43
3001
0020
0000
0130
,  // measure 44
0010
0001
1000
0010
,  // measure 45
1100
0000
0010
0001
0010
0000
2000
0000
,  // measure 46
0000
3010
0200
0000
,  // measure 47
0301
0020
0000
0031
,  // measure 48
0200
0000
0000
0000
0301
0000
0010
0100
,  // measure 49
0010
0100
0001
1000
0010
0000
0001
0100
,  // measure 50
1000
0010
0100
0000
0100
1000
0001
0010
,  // measure 51
0110
0110
0010
0100
0001
0000
0100
0010
,  // measure 52
0011
0000
0100
0010
0000
0000
1100
0000
0001
0100
0000
0000
0001
0000
0010
0000
,  // measure 53
0101
1000
0100
0010
,  // measure 54
0001
0000
0100
0010
,  // measure 55
1000
0100
1000
0000
,  // measure 56
0001
0000
0010
0000
0100
0000
1000
0001
,  // measure 57
1000
0100
0001
1000
,  // measure 58
0100
0000
0000
0000
0001
1000
0001
1000
,  // measure 59
0100
1000
0010
0000
,  // measure 60
0100
0000
0001
0000
1000
0001
1000
0001
,  // measure 61
0010
0100
1000
0001
,  // measure 62
0010
0000
0001
0100
,  // measure 63
0010
1000
0100
0000
,  // measure 64
1000
0000
0001
0000
0100
0000
0010
1000
,  // measure 65
0010
0000
0001
0000
0010
0001
0010
0001
,  // measure 66
0100
0000
0001
0110
,  // measure 67
0000
0001
0010
1010
,  // measure 68
0000
0000
0001
0100
0001
0100
0001
0100
,  // measure 69
0010
0100
0010
1000
,  // measure 70
0001
0100
1000
0100
,  // measure 71
0010
1000
0100
0010
,  // measure 72
0001
0100
0001
1000
,  // measure 73
0010
0100
0010
0100
0001
0000
0100
0000
,  // measure 74
0001
1000
0010
1100
,  // measure 75
0001
0000
0100
0000
0001
0010
0001
0010
,  // measure 76
0100
1000
0001
0010
,  // measure 77
0110
0001
0100
1000
,  // measure 78
0100
0001
1000
0100
,  // measure 79
0010
0001
0100
0010
,  // measure 80
1000
0001
0010
0100
,  // measure 81
0011
0100
1000
0001
,  // measure 82
0100
0010
0001
1010
,  // measure 83
0100
0010
0110
1000
,  // measure 84
0010
0100
0010
0100
0010
0100
0010
0100
,  // measure 85
2000
0000
0010
3020
0000
0100
0000
0000
0230
0000
0001
0302
0000
1000
0000
0000
,  // measure 86
0023
0000
0100
0230
0000
0001
0000
0000
2300
0000
0001
3002
0000
0100
0013
0000
,  // measure 87
2001
0000
0100
3200
0000
0001
0000
0000
0320
0000
0100
0230
0000
1000
0000
0000
,  // measure 88
1300
0001
1000
0001
1000
0001
1000
0001
0100
0010
0100
0010
0100
0010
0100
0010
,  // measure 89
1000
0000
0001
0100
0000
0000
1001
0000
0010
0100
0000
0000
0001
0010
0001
0000
,  // measure 90
1000
0100
1000
0000
0010
0000
0100
0001
,  // measure 91
0100
0010
1000
0100
,  // measure 92
1000
0100
1000
0000
0001
0000
0100
0010
,  // measure 93
0100
0001
0100
0010
,  // measure 94
1000
0100
1000
0000
0010
0000
0001
1000
,  // measure 95
0001
0100
0001
0010
,  // measure 96
1000
0001
1000
0000
0100
0000
0010
0100
,  // measure 97
0010
1000
0100
0010
,  // measure 98
0001
0100
0001
0000
1000
0000
1000
0010
,  // measure 99
1000
0010
1000
0000
0010
0000
0100
0000
,  // measure 100
1000
0010
1000
0000
0001
0000
0100
0010
,  // measure 101
0100
0010
0100
0000
0001
0000
0010
0000
,  // measure 102
0100
0001
0100
0000
0010
0000
1000
0001
,  // measure 103
1000
0001
1000
0000
0010
0000
0100
0000
,  // measure 104
0001
0010
0001
0000
0100
0000
0010
1000
,  // measure 105
0010
1000
0010
0000
0100
0000
0010
0000
,  // measure 106
1000
0100
0020
1000
,  // measure 107
0001
0230
0001
0010
,  // measure 108
0302
0010
0103
1000
,  // measure 109
0010
0100
0010
0100
0010
0100
0010
0100
,  // measure 110
0001
0100
0020
0001
,  // measure 111
1000
0230
0001
0010
,  // measure 112
0302
0010
0100
2003
,  // measure 113
0010
0000
3100
0000
0010
0100
0010
0000
,  // measure 114
0001
0100
0001
0000
1000
0100
1000
0000
,  // measure 115
0010
0001
0010
0000
0100
1000
0100
0000
,  // measure 116
0100
0001
0100
0000
0010
0100
0010
0000
,  // measure 117
1000
0100
1000
0000
0001
0010
0001
0000
,  // measure 118
1000
0100
1000
0000
0001
0100
0001
0000
,  // measure 119
0010
0100
0010
0000
0100
1000
0100
0000
,  // measure 120
0001
0010
0001
0000
1000
0010
1000
0000
,  // measure 121
0100
0010
0100
0010
0100
0010
0100
0010
,  // measure 122
2000
0000
0000
0002
0000
0000
0000
3000
,  // measure 123
0200
0000
0003
0020
0000
0000
0000
0300
,  // measure 124
2000
0000
0030
0200
0000
0000
0000
3000
,  // measure 125
0020
0000
0300
0002
0000
0000
0000
0000
,  // measure 126
0033
0000
0000
0000
;

//---------------dance-single - ----------------
#NOTES:
     dance-single:
     :
     Easy:
     7:
     0.518,1.000,0.043,0.385,0.026:
0000
0000
0000
0000
,
0000
0000
0000
0000
,
0000
0000
0000
0000
,
0000
0000
0000
0000
,
0000
0000
0000
0000
,
0000
0000
0000
0000
,
0000
0000
0000
0000
,
0000
0000
0000
0000
,
2000
0000
0000
3020
,
0000
0000
0130
0000
,
0002
0000
0000
2003
,
0000
0000
3010
0000
,
0001
0010
0100
1000
,
0001
0010
0100
1000
,
1001
1000
0000
0110
,
0010
0000
1000
0000
,
0100
0001
0000
1000
,
0010
0000
0100
0000
,
0001
0010
0000
1000
,
0010
0000
0100
0000
,
0001
0010
0000
1000
,
0010
0000
0100
0000
,
0001
1000
0000
0100
,
1000
0000
0010
0000
,
0001
1000
0000
0001
,
0010
0000
0100
0000
,
1000
0010
0000
0100
,
0001
0000
0010
0000
,
0001
0010
0000
0010
,
0100
0000
1000
0000
,
0001
0100
0000
1000
,
0001
0000
0010
0000
,
0010
1000
0002
0000
,
0000
2003
0000
0000
,
3020
0000
0000
0130
,
0001
0010
0100
1000
,
0010
0100
0002
0000
,
0000
2003
0000
0000
,
3200
0000
0000
0320
,
0000
0000
0130
0001
,
0010
0100
0010
0002
,
0000
0000
0023
0000
,
0000
0230
0000
0000
,
0310
0001
0100
0010
,
0100
0001
0020
0000
,
0000
0230
0000
0000
,
0302
0000
0000
0203
,
0000
0000
0310
1000
,
0010
0000
0100
0010
0100
0000
0001
0000
,
1000
0001
1000
0000
0100
0000
0010
0100
,
0001
0100
0010
0000
1000
0100
0010
0000
,
0010
0000
0100
0001
1000
0000
0010
0100
,
0001
0000
1000
0010
,
0100
0000
0001
0000
,
1000
0010
0100
0000
,
0001
0010
0100
1000
,
0010
0000
0100
0001
,
0010
0000
0001
0000
,
1000
0100
1000
0000
,
0001
0010
0100
0010
,
0100
0000
0001
0100
,
0010
0000
1000
0000
,
0001
0010
0100
0000
,
1000
0001
0100
0010
,
1000
0000
0001
0010
,
0100
0000
1000
0000
,
0001
0100
0010
0000
,
1000
0100
0010
0001
,
0100
0001
1000
0000
,
0001
0010
0100
0000
,
1000
0001
0100
0000
,
0010
1000
0100
0010
,
0001
0100
0010
0000
,
1000
0001
0100
0000
,
0001
0010
0100
0000
,
1000
0001
0100
0010
,
1000
0100
0010
0000
,
0001
0100
0010
0000
,
1000
0001
0100
0000
,
0001
0010
0100
1000
,
0010
0100
0010
0000
,
1000
0100
0010
0000
,
0001
0100
0010
0000
,
1000
0100
0010
0001
,
2000
0000
0000
0020
0000
0000
3000
0000
0200
0030
0000
0002
0000
0000
0300
0000
,
2000
0003
0000
0020
0000
0000
3000
0000
0200
0030
0000
0002
0300
0000
0013
0000
,
2100
0000
0000
0002
0000
0000
3000
0000
0200
0003
0000
0020
0000
0000
0300
0000
,
1030
0001
0100
0010
1000
0100
0010
0001
,
0101
0100
0000
1100
1000
0000
0100
0010
,
1000
0001
0100
1000
,
0100
0010
1000
0001
,
0010
0100
0010
0001
,
0100
0010
1000
0001
,
0100
0010
1000
0100
,
1000
0001
0100
1000
,
0100
0010
0001
0010
,
1000
0100
0010
0100
,
1000
0001
0100
0010
,
0001
0010
0100
0001
,
0010
0001
0100
0001
,
1000
0001
0100
0010
,
0001
0010
0100
0001
,
1000
0100
0010
0001
,
0100
0010
1000
0100
,
1000
0001
0100
0010
,
1000
0001
0200
0000
,
0301
2000
0000
3010
,
0200
0000
0310
1000
,
0001
0010
0100
1000
,
0010
0100
0002
0000
,
0103
0020
0000
1030
,
0200
0000
0310
0002
,
0000
0103
0010
1000
,
0001
0100
1000
0100
,
0001
1000
0100
0010
,
0001
0100
0010
0001
,
0010
1000
0001
0010
,
0001
0100
0010
0001
,
0010
1000
0100
1000
,
0001
0100
1000
0100
,
0010
1000
0100
0010
,
0002
0000
0000
0020
0000
0000
0000
0003
,
0200
0000
0030
2000
0000
0000
0000
0300
,
0200
0000
3000
0020
0000
0000
0000
0300
,
0002
0000
0030
2000
0000
0000
0000
0000
,
3003
0000
0000
0000
;
