#TITLE:Heaven or Hell;
#SUBTITLE:;
#ARTIST:44teru-k;
#TITLETRANSLIT:;
#SUBTITLETRANSLIT:;
#ARTISTTRANSLIT:;
#GENRE:;
#CREDIT:;
#BANNER:;
#BACKGROUND:;
#LYRICSPATH:;
#CDTITLE:;
#MUSIC:Heaven or Hell.mp3;
#OFFSET:-0.920;
#SAMPLESTART:57.213;
#SAMPLELENGTH:13.620;
#SELECTABLE:YES;
#BPMS:0.000=140.000,18.000=105.000,19.500=70.000,22.500=35.000,24.000=45.000,40.000=90.000,72.000=100.000,76.000=110.000,80.000=120.000,84.000=130.000,88.000=140.000,90.000=150.000,92.000=160.000,94.000=170.000,96.000=180.000,97.000=190.000,98.000=200.000,99.000=210.000,100.000=220.000,101.000=230.000,104.000=460.000,132.000=180.000,179.000=360.000,180.000=180.000;
#STOPS:179.000=0.083
,179.500=0.083
,194.000=0.167
,194.500=0.083
,194.750=0.083
;
#BGCHANGES:;
#KEYSOUNDS:;

//---------------dance-single - EXTRA----------------
#NOTES:
     dance-single:
     EXTRA:
     Challenge:
     13:
     1.000,1.000,0.723,0.032,1.000,773.000,89.000,4.000,0.000,0.000,0.000,1.000,1.000,0.723,0.032,1.000,773.000,89.000,4.000,0.000,0.000,0.000: // measure 1
1001
0000
1001
0000
0001
0100
1000
0100
0010
1000
0100
0000
0100
1000
0001
0100
,  // measure 2
0101
0000
0101
0000
0001
1000
0100
1000
0010
0001
0010
0000
1000
0001
1000
0010
,  // measure 3
1010
0000
1010
0000
1000
0001
0100
0001
0010
1000
0010
0000
0001
1000
0001
0100
,  // measure 4
1000
0100
0001
0000
1100
0000
0001
0010
1000
0000
0011
0000
0100
0010
1000
0000
,  // measure 5
1001
0000
0000
0000
0000
0000
0000
0000
0001
0000
0000
0000
1000
0000
0000
0000
0100
0000
0000
0000
0000
0000
0000
0000
1100
0000
0000
0000
0000
0000
0000
0000
1000
0000
0000
0001
0000
0000
0100
0000
0000
0010
0000
0000
1000
0000
0000
0001
0000
0000
0010
0000
0000
0001
0000
0000
0200
0000
0000
0000
0000
0000
1000
0000
,  // measure 6
0000
0001
0000
0000
0000
0000
0000
0000
0000
0000
0020
0000
0000
0000
0000
0330
,  // measure 7
0001
1000
0100
1000
0010
0100
0001
0010
0000
0010
0001
0000
0001
1000
0100
0000
0100
1000
0001
0100
1000
0100
0010
1000
0000
1000
0100
0000
0100
0010
0001
0000
,  // measure 8
0100
1000
0100
0001
0010
0100
0010
0010
0000
0000
0001
0000
1000
0000
0001
0000
1010
0000
0100
0000
0011
0000
0100
0000
1001
0000
1010
0000
0110
0000
0001
0000
,  // measure 9
1000
0100
1000
0001
0100
0010
0001
0010
0000
1000
0100
0000
1000
0001
0100
0000
0001
0010
0001
1000
0100
1000
0010
0100
0000
0100
0001
0000
0001
1000
0100
0000
,  // measure 10
0010
0000
0000
0000
0000
0000
0001
0000
0000
0000
0000
0000
1000
0000
0000
0000
0000
0000
0010
0000
0000
0000
0000
0000
0100
0000
0000
0000
0000
0000
0000
0000
0000
0000
0000
0000
1010
0000
0000
0000
0000
0000
0000
0000
0000
0000
0000
0000
0101
0000
0000
0000
0000
0000
0000
0000
0000
0000
0000
0000
0100
0000
0000
0000
0000
0000
0001
0000
0000
0000
0000
0000
0010
0000
0000
0000
0000
0000
0001
0000
0000
0000
0000
0000
1000
0000
0000
0000
0000
0000
0000
0000
0000
0000
0000
0000
1100
0000
0000
0000
0000
0000
0000
0000
0000
0000
0000
0000
0001
0000
0000
0000
0000
0000
0000
0000
0000
0000
0000
0000
0110
0000
0000
0000
0000
0000
0000
0000
0000
0000
0000
0000
0100
0000
0000
0000
0000
0000
0000
0000
0000
0000
0000
0000
1001
0000
0000
0000
0000
0000
0000
0000
0001
0000
0000
0000
0100
0000
0000
0000
0000
0000
0000
0000
0000
0000
0000
0000
0011
0000
0000
0000
0000
0000
0000
0000
0010
0000
0000
0000
0100
0000
0000
0000
0010
0000
0000
0000
0001
0000
0000
0000
,  // measure 11
1000
0000
0010
0000
0110
0000
0100
0001
1000
0000
0100
0001
0100
0000
1100
0000
,  // measure 12
0010
0000
0100
0000
0101
0000
0001
0000
1000
0010
1000
0100
1100
0010
0001
0000
,  // measure 13
0110
0000
0100
0010
0001
0000
0001
0110
0100
1000
0001
0000
0110
0000
1000
0000
,  // measure 14
1100
1100
0100
0110
0010
0000
1001
0000
0010
0100
0000
0001
1001
0010
0000
0001
,  // measure 15
1001
0010
0101
1000
1100
0010
1100
0001
,  // measure 16
0110
0000
0100
0000
1001
0000
0010
0000
1100
0001
0000
0100
0110
0000
1000
0000
,  // measure 17
1001
0000
0001
1000
0100
0000
0010
0110
0010
0100
1000
0000
1001
0000
0001
0100
,  // measure 18
0010
0000
0100
0001
0100
0000
1010
1010
0001
0010
0001
0000
1001
0001
0010
0010
,  // measure 19
0100
0000
1000
0001
0100
0000
0010
0010
1000
0001
0100
0000
0010
0000
0101
0000
,  // measure 20
1001
0000
0100
0010
1000
0000
0001
0001
1000
0001
0100
0000
0010
0000
0101
0000
,  // measure 21
1001
0000
1000
0100
1000
0000
0001
0100
0101
0000
0000
0000
1010
0000
0000
0000
,  // measure 22
1001
0000
0001
0010
0100
0000
1100
0000
1001
0001
0100
0000
0010
0100
0001
1000
,  // measure 23
1100
0000
0000
0000
1001
0000
0001
1000
0001
0010
0100
0000
0110
0000
0110
0000
,  // measure 24
1100
0000
0010
0001
0010
0000
0100
0010
0100
1000
0100
0000
1100
0000
1100
0000
,  // measure 25
1001
0000
0100
0000
0010
0000
1000
0001
1000
0010
0100
0000
0001
0000
1000
0000
,  // measure 26
0100
0000
1000
0000
0001
0000
0100
0010
0100
0001
1000
0000
0100
1000
0100
1000
,  // measure 27
0100
1000
0001
1000
0100
1000
0010
0100
,  // measure 28
0001
0010
0001
1000
0100
0010
0100
2000
,  // measure 29
0200
0000
0000
0000
,  // measure 30
0000
0000
0000
0000
,  // measure 31
3300
0000
0000
0000
0010
0000
0000
0001
,  // measure 32
0010
0000
0000
0000
0100
0000
1000
0001
,  // measure 33
1001
0110
0000
0000
,  // measure 34
1000
0000
0001
0100
1000
0000
0100
0001
0010
0100
0010
0001
1000
0010
0100
0000
,  // measure 35
0001
0000
1000
0100
0010
0000
0100
1000
0010
0100
1000
0100
0001
1000
0100
0000
,  // measure 36
0100
1000
0001
1000
0010
1000
0100
0000
0100
1000
0100
1000
0001
0100
0001
0100
,  // measure 37
0010
0000
0010
0000
0100
0001
0100
0001
1000
0010
1000
0000
0010
0100
0010
0100
,  // measure 38
0001
0000
1000
0100
0001
0000
0100
1000
0001
0100
0010
0100
0001
1000
0100
0000
,  // measure 39
0100
0000
1000
0001
0100
0000
0010
0100
0010
1000
0010
0100
0001
0010
0100
0000
,  // measure 40
1000
0100
1000
0001
0010
0100
0010
0000
0001
0100
0001
1000
0100
1000
0010
0100
,  // measure 41
0010
0100
1001
0010
0100
1001
0010
0100
,  // measure 42
1001
0000
1000
0001
0100
0000
0010
0100
0001
1000
0100
1000
0001
0100
0001
0000
,  // measure 43
0010
0000
0100
1000
0001
0000
0100
0001
1000
0100
1000
0010
0001
0010
0100
0000
,  // measure 44
0100
0001
0100
1000
0100
0010
1000
0100
1000
0001
1000
0001
0010
0100
0010
0100
,  // measure 45
1000
0000
0100
0000
0010
0001
0010
0100
1000
0010
1000
0000
1001
0000
0101
0000
,  // measure 46
0110
0000
1000
0001
0100
0000
0010
0100
0001
1000
0100
0001
0100
1000
0001
0000
,  // measure 47
0100
0000
0010
0100
0001
0000
1000
0010
0001
1000
0100
0001
0010
1000
0010
0000
,  // measure 48
0001
0100
0010
1000
0001
0010
0001
1000
0010
0100
1000
0100
0001
1000
0100
0010
,  // measure 49
0001
0000
1000
0000
0100
0000
1000
0000
0000
0001
0000
0000
0100
0000
0000
0010
0000
0000
0100
0000
0000
0000
0000
0000
0100
0000
0000
0000
0000
0000
1001
0000
0000
0101
0000
0000
1010
0000
0000
0000
0000
0000
0001
0000
0000
0100
0000
0000
,  // measure 50
0010
0000
1000
0100
0001
0100
0010
0001
0010
0100
1000
0001
0100
0000
0010
0100
,  // measure 51
0001
0000
1000
0100
0001
0100
0010
0001
1000
0010
0100
0001
0100
0000
0010
1000
,  // measure 52
0010
0000
0100
0001
0010
1000
0001
0100
1000
0001
0100
0010
0001
0000
0010
1000
,  // measure 53
0100
0000
1000
0100
1000
0001
0100
0010
0100
0001
0010
0100
1000
0000
0100
1000
,  // measure 54
0001
0000
0100
0010
0001
0010
1000
0100
0001
1000
0010
0001
0100
0000
0010
0100
,  // measure 55
0001
0000
1000
0100
1000
0010
0100
0001
0010
1000
0010
0001
0100
0000
0010
0100
,  // measure 56
0001
0000
1000
0100
0010
0100
1000
0001
0100
0010
1000
0000
1100
0000
0000
0011
,  // measure 57
0000
0000
1100
0000
0101
0000
0000
1010
0000
0000
1100
0000
0011
0000
0001
0100
,  // measure 58
0010
0000
1000
0100
0001
0100
0010
0001
0100
0010
1000
0001
0100
0000
0001
1000
,  // measure 59
0100
0000
0010
0100
1000
0001
0100
0010
0001
0010
1000
0100
0010
0000
0001
0100
,  // measure 60
0010
0000
0100
0001
0010
1000
0001
0100
1000
0001
0100
0010
0100
0000
0001
1000
,  // measure 61
0100
0000
1000
0010
0100
0001
0010
0100
0010
0001
1000
0100
1000
0000
0010
0100
,  // measure 62
0001
0000
1000
0100
0001
0100
1000
0010
0100
0001
1000
0100
1000
0000
0010
0100
,  // measure 63
0001
0000
0010
0100
1000
0001
0100
0010
0001
0010
0100
0001
1000
0000
0100
1000
,  // measure 64
0010
0000
0100
0001
0010
0100
1000
0001
0100
0001
1000
0000
1100
0000
0000
0011
,  // measure 65
0000
0101
0000
1010
1001
0101
1010
0000
;

//---------------dance-single - Blank----------------
#NOTES:
     dance-single:
     Blank:
     Hard:
     10:
     0.783,1.000,0.455,0.073,0.792,610.000,56.000,9.000,0.000,0.000,0.000,0.783,1.000,0.455,0.073,0.792,610.000,56.000,9.000,0.000,0.000,0.000: // measure 1
0001
0000
1000
0000
0001
0100
0001
0100
0010
1000
0100
0000
0010
0001
0010
0001
,  // measure 2
0100
0000
0010
0000
1000
0001
1000
0001
0010
0001
0010
0000
0100
1000
0100
1000
,  // measure 3
0010
0000
0100
0000
0001
1000
0001
1000
0010
0001
0010
0000
0100
0001
0100
0001
,  // measure 4
0010
0100
1000
0000
1010
0000
0010
0100
0001
0000
0011
0000
0100
1000
0100
1000
,  // measure 5
0001
0000
0000
0000
0000
0000
0000
0000
0001
0000
0000
0000
0100
0000
0000
0000
0000
0000
0000
0000
0100
0000
0000
0000
0010
0000
0000
0000
0000
0000
0000
0000
0000
0000
0000
1000
0000
0000
0001
0000
0000
0100
0000
0000
0010
0000
0000
1000
0000
0000
0001
0000
0000
0010
0000
0000
0200
0000
0000
0000
0000
0000
0000
0000
,  // measure 6
0000
0000
0000
0000
0000
2000
0000
3300
,  // measure 7
1000
0100
1000
0100
0010
0001
1000
0010
0000
0010
0100
0000
0001
0000
0010
0000
0100
1000
0100
1000
0010
0100
0001
1000
0000
1000
0100
0000
0010
0000
0001
0000
,  // measure 8
2000
0000
0000
0000
0000
0000
0100
0100
3000
0000
0000
0000
0000
0000
0001
0000
0101
0000
1000
0000
1100
0000
0010
0000
0100
0000
0001
0000
1000
0000
0010
0000
,  // measure 9
1000
0001
1000
0001
0010
0100
1000
0010
0000
0010
0100
0000
0001
0000
0010
0000
0100
1000
0100
1000
0010
0100
0001
0010
0000
0010
0001
0000
1000
0000
0010
0000
,  // measure 10
0200
0000
0000
0000
0000
0000
0000
0000
0000
1000
0000
0000
0001
0000
0000
0000
0000
0000
0300
0000
0000
0100
0000
0000
0001
0000
0000
0000
0000
0000
1000
0000
0000
0000
0000
0000
1001
0000
0001
1000
0000
0000
1010
0000
0010
1000
0001
0010
,  // measure 11
0100
0000
1100
0010
1000
0010
1000
0010
,  // measure 12
0001
0010
1000
0000
0101
0010
0010
1000
,  // measure 13
0002
0000
0100
0010
0013
1100
0001
0100
,  // measure 14
0010
0010
1000
0011
0100
0000
0100
1000
0010
0100
0000
0001
1100
0010
0000
0000
,  // measure 15
1001
0000
1100
0010
0001
0010
0001
0010
,  // measure 16
1000
0010
0001
0000
0010
0100
0100
0001
,  // measure 17
2000
0000
0100
0001
3001
0110
1000
0001
,  // measure 18
0011
0000
0100
1100
1000
0000
0001
0001
0100
0010
1000
0000
0001
0010
0001
1000
,  // measure 19
1100
0000
0010
0100
0001
0000
1000
0100
0010
0001
1000
0000
0001
0100
0110
0000
,  // measure 20
1100
0000
0001
0010
0100
0000
0010
0001
1000
0010
0100
0000
0010
1000
1001
0000
,  // measure 21
1100
0000
0000
0000
0001
0000
0100
0010
1100
0000
0000
0000
0101
0000
0000
0000
,  // measure 22
1010
0000
0001
0010
0100
0000
0011
0000
1100
0000
0010
0000
0100
0000
0001
0100
,  // measure 23
0101
0000
1010
0000
1100
0000
0101
0101
,  // measure 24
1100
0000
0011
0000
1010
0000
0101
0101
,  // measure 25
1000
0100
0010
0001
0100
0010
1000
0001
,  // measure 26
1000
0100
0010
0001
1000
0010
1000
0001
,  // measure 27
0100
0001
0100
0001
0100
0001
0100
0001
,  // measure 28
0100
0001
0100
0001
0100
0001
0100
0002
,  // measure 29
0200
0000
0000
0000
,  // measure 30
0000
0000
0000
0000
,  // measure 31
0303
0000
0000
0000
1000
0000
0000
0001
,  // measure 32
1000
0000
0010
0000
,  // measure 33
0110
1001
0000
0000
,  // measure 34
1000
0000
1000
0010
0000
0010
0100
0000
0001
0010
0100
0000
0010
0000
0001
0000
,  // measure 35
1000
0000
1000
0001
0000
0001
0100
0000
0010
1000
0100
0000
1000
0000
0001
0000
,  // measure 36
0100
0001
0100
0001
1000
0100
1000
0100
0010
0000
0001
0000
1000
0000
0010
0000
,  // measure 37
0100
0000
0100
0000
0001
0100
0001
0000
0010
0000
0100
0000
1000
0001
1000
0001
,  // measure 38
0100
0000
0100
0010
0000
0010
1000
0000
0001
0010
0100
0000
0010
0000
0001
0000
,  // measure 39
1000
0000
1000
0010
0000
0010
0100
0000
0001
0010
0100
0000
0010
0000
0001
0000
,  // measure 40
1000
0001
1000
0001
0100
0010
0100
0010
1000
0000
0001
0000
0010
0000
0100
0000
,  // measure 41
1100
0010
0000
0101
1000
0000
0110
1000
,  // measure 42
0001
0000
0001
0010
0000
0010
0100
0000
1000
0001
0100
0000
0010
0000
1000
0000
,  // measure 43
0001
0000
0001
0010
0000
0010
0100
0000
0010
0001
1000
0000
0010
0000
0100
0000
,  // measure 44
0001
1000
0001
1000
0010
0100
0010
0100
0001
0000
0010
0000
0001
0000
1000
0000
,  // measure 45
0020
0000
0001
0000
1030
0000
0110
0110
,  // measure 46
1000
0000
1000
0100
0000
0100
0010
0000
0001
0100
0010
0000
0100
0000
0001
0000
,  // measure 47
0010
0000
0010
0100
0000
0100
1000
0000
0001
0100
0010
0000
1000
0000
0001
0000
,  // measure 48
0010
0001
0010
0001
1000
0010
1000
0010
0100
0000
0001
0000
0010
0000
0001
0000
,  // measure 49
1000
0000
0001
0100
0001
0000
0010
0000
0110
0000
0001
0001
1000
0000
1000
0001
,  // measure 50
0000
0001
1000
0000
0010
0100
0001
0000
1000
0000
0100
0000
1000
0000
1000
0010
,  // measure 51
0000
0010
0100
0000
0001
0010
0100
0000
0010
0000
0001
0000
0010
0000
0010
0100
,  // measure 52
0000
0100
1000
0000
0001
0100
0010
0000
1000
0000
0001
0000
0010
0000
0010
0100
,  // measure 53
0000
0100
1000
0000
0001
0100
0010
0000
0100
0001
1000
0000
0010
0000
0100
0001
,  // measure 54
0000
0001
0010
0000
0100
1000
0001
0000
0010
0000
0001
0000
0100
0000
0100
0010
,  // measure 55
0000
0010
1000
0000
0010
0100
0001
0000
0010
0000
0100
0000
1000
0000
1000
0001
,  // measure 56
0000
0001
0100
0000
0001
1000
0100
0000
1000
0001
0100
0000
0101
0000
0000
0110
,  // measure 57
0000
0000
1010
0000
1001
0000
0000
0011
0000
0000
1100
0000
0001
0000
0001
0100
,  // measure 58
0000
0100
0010
0000
1000
0100
0010
0000
0001
0000
0100
0000
0001
0000
0001
0010
,  // measure 59
0000
0010
0100
0000
1000
0010
0100
0000
0001
0000
1000
0000
0010
0000
0010
0100
,  // measure 60
0000
0100
0001
0000
1000
0100
0001
0000
1000
0000
0010
0000
0100
0000
0100
1000
,  // measure 61
0000
1000
0010
0000
0001
0010
0100
0000
0001
0010
0100
0000
1000
0000
1000
0001
,  // measure 62
0000
0001
0100
0000
0010
1000
0100
0000
1000
0000
0001
0000
0100
0000
0100
0010
,  // measure 63
0000
0010
1000
0000
0001
0010
1000
0000
0001
0000
0100
0000
0010
0000
0010
0001
,  // measure 64
0000
0001
1000
0000
0010
0001
1000
0100
0010
0000
1000
0000
1100
0000
0000
1010
,  // measure 65
0000
0011
0000
1100
0101
1000
1100
0000
;

//---------------dance-single - Blank----------------
#NOTES:
     dance-single:
     Blank:
     Medium:
     7:
     0.399,0.684,0.073,0.130,0.142,319.000,9.000,16.000,0.000,0.000,0.000,0.399,0.684,0.073,0.130,0.142,319.000,9.000,16.000,0.000,0.000,0.000: // measure 1
0000
0000
0000
0000
,  // measure 2
0000
0000
0000
0000
,  // measure 3
0001
0000
1000
0000
0010
0100
0010
0000
,  // measure 4
1000
0001
0000
1000
0001
0000
0010
0100
,  // measure 5
2000
0000
0000
0000
0000
0000
0100
0000
0000
0000
0000
0000
3100
0000
0000
0000
0000
0000
0000
0010
0000
0000
0001
0000
0000
1000
0000
0000
0200
0000
0000
0000
,  // measure 6
0000
0000
0000
0000
0000
0000
0000
0300
,  // measure 7
0010
0000
0001
0000
1000
0000
0010
1000
0000
0000
0001
0000
0010
0000
0001
0000
1000
0000
0010
0000
0100
0000
0001
0100
0000
0000
0010
0000
1000
0000
0001
0000
,  // measure 8
0010
0000
0000
0000
0000
0000
0100
0100
0000
0000
0000
0000
0000
0000
1000
0000
0001
0000
0000
0000
1000
0000
0000
0000
0100
0000
1000
0000
0001
0000
0010
0000
,  // measure 9
0001
0000
0100
0000
0010
0000
1000
0010
0000
0000
0100
0000
0001
0000
1000
0000
0100
0000
0010
0000
0001
0000
0100
0001
0000
0000
0010
0000
0010
0000
0001
0000
,  // measure 10
1000
0000
0000
0010
0100
0000
0000
0001
0100
0000
1010
0000
0100
0000
0011
0000
,  // measure 11
1000
0000
0000
0001
0100
0001
0100
0001
,  // measure 12
1000
0001
1000
0000
0000
0001
0001
0010
,  // measure 13
0200
0000
0000
0020
0000
0330
0001
1000
,  // measure 14
0200
0000
0000
0020
0000
0330
1001
0000
,  // measure 15
0100
0000
0000
0010
0001
0010
0001
0010
,  // measure 16
1000
0010
1000
0000
0000
0001
0001
0010
,  // measure 17
0200
0000
0000
2000
0000
3300
1000
0001
,  // measure 18
0020
0032
2003
3001
,  // measure 19
1001
0000
0000
0010
0100
0010
0100
0010
,  // measure 20
1000
0010
1000
0000
0000
0100
0100
0010
,  // measure 21
0001
0000
1000
0010
0100
0000
0001
1000
,  // measure 22
0100
0000
0010
0001
0100
0000
0010
0000
,  // measure 23
1000
0000
0000
0001
0100
0001
0100
0001
,  // measure 24
1000
0001
1000
0000
0000
0010
0010
1000
,  // measure 25
0001
0000
1000
0001
0010
0000
0100
0000
,  // measure 26
1000
0001
1000
0001
,  // measure 27
2002
0000
0000
0000
,  // measure 28
0000
0000
0000
0000
,  // measure 29
3003
0000
0000
0000
,  // measure 30
0000
0000
0000
0000
,  // measure 31
0000
0000
0000
0000
,  // measure 32
0000
0000
0000
0000
,  // measure 33
0010
0010
0000
0000
,  // measure 34
0100
0000
0001
0100
0000
0010
0100
0000
,  // measure 35
0001
0000
1000
0100
0000
1000
0100
0000
,  // measure 36
0010
0001
0100
0001
,  // measure 37
1000
0000
0100
0000
0010
0000
0001
1000
,  // measure 38
0010
0000
0100
0010
0000
0100
0010
0000
,  // measure 39
1000
0000
0001
0010
0000
0001
0010
0000
,  // measure 40
0100
1000
0001
0100
,  // measure 41
0010
0000
0100
0001
1000
0000
0010
1000
,  // measure 42
0100
0000
0010
0100
0000
0010
0100
0000
,  // measure 43
1000
0000
0001
0100
0000
0001
0100
0000
,  // measure 44
0010
1000
0002
0000
0010
0000
0100
0000
,  // measure 45
2003
0000
0100
0000
3010
0000
0100
0100
,  // measure 46
0001
0000
0010
0100
0000
0010
0100
0000
,  // measure 47
1000
0000
0001
0100
0000
0001
0100
0000
,  // measure 48
0010
1000
0001
0010
,  // measure 49
0100
0000
1000
0000
0000
0000
0001
0000
0200
0000
0010
0310
1000
0000
0000
0000
,  // measure 50
0001
0100
0000
0001
0100
0000
0010
0000
,  // measure 51
1000
0100
0000
1000
0100
0000
0010
0000
,  // measure 52
0001
1000
0000
0001
1000
0000
0010
0000
,  // measure 53
0100
0001
0000
0010
0001
1000
0100
0000
,  // measure 54
1000
0010
0000
1000
0010
0000
0100
0000
,  // measure 55
0001
0010
0000
0001
0010
0000
0100
0000
,  // measure 56
1000
0000
0001
0000
0000
0000
1000
0000
0001
0000
0000
0000
0011
0000
0000
0001
,  // measure 57
0000
0000
1000
0000
1010
0000
0000
0010
0000
0000
0100
0000
0001
0000
0000
0000
,  // measure 58
1000
0100
0000
1000
0100
0000
0010
0000
,  // measure 59
0001
1000
0000
0001
1000
0000
0010
0000
,  // measure 60
0100
0001
0000
0100
0001
0000
0010
0000
,  // measure 61
0100
1000
0000
0010
1000
0001
0010
0000
,  // measure 62
0100
0010
0000
0100
0010
0000
0001
0000
,  // measure 63
1000
0010
0000
1000
0010
0000
0100
0000
,  // measure 64
0001
0000
0010
0000
0000
0000
0001
0000
0010
0000
0100
0000
1000
0000
0000
0001
,  // measure 65
0000
0101
0000
0010
0100
0010
1001
0000
;

//---------------dance-single - Blank----------------
#NOTES:
     dance-single:
     Blank:
     Easy:
     5:
     0.310,0.473,0.106,0.130,0.032,238.000,13.000,16.000,0.000,0.000,0.000,0.310,0.473,0.106,0.130,0.032,238.000,13.000,16.000,0.000,0.000,0.000: // measure 1
0000
0000
0000
0000
,  // measure 2
0000
0000
0000
0000
,  // measure 3
0001
1000
0010
0100
,  // measure 4
0001
0000
0000
1000
0000
0000
0001
0000
,  // measure 5
0010
0000
0000
0000
0000
0000
0000
0000
0100
0000
0000
2000
0000
0000
0002
0000
,  // measure 6
0000
0000
0000
0000
0000
3003
0000
0000
,  // measure 7
1000
0000
0001
0000
0100
0000
0010
1000
0001
0000
0100
0000
0001
0000
1000
0100
,  // measure 8
2000
0000
0000
0000
3001
0000
0000
0100
0010
0000
1000
0000
0001
0000
0010
0000
,  // measure 9
0001
0000
0100
0000
0010
0000
1000
0001
0010
0000
0001
0000
0100
0000
0010
1000
,  // measure 10
0001
0000
0000
0010
0100
0000
0000
0100
1000
0000
0001
0000
1000
0000
0001
0000
,  // measure 11
0010
0000
0000
0001
0100
0000
0010
0000
,  // measure 12
0100
0001
0100
0000
0000
0001
1000
0000
,  // measure 13
0200
0000
0000
0320
0000
0000
0031
0000
,  // measure 14
2000
0000
0000
3020
0000
0000
0130
0000
,  // measure 15
0001
0000
0000
1000
0100
0000
0010
0000
,  // measure 16
0100
1000
0100
0000
0000
0010
0001
0000
,  // measure 17
2000
0000
0000
3020
0000
0000
0130
0000
,  // measure 18
0020
2030
3002
0203
,  // measure 19
0301
0000
1000
0000
0001
0000
0010
0001
,  // measure 20
1000
0000
0010
0000
0100
0000
0001
0010
,  // measure 21
0100
0000
1100
0011
,  // measure 22
0100
0000
0010
1000
0001
0000
0000
1000
,  // measure 23
0001
0000
0010
0000
0001
0000
0100
0001
,  // measure 24
0100
0000
0001
0000
1000
0000
0100
1000
,  // measure 25
0100
0010
0001
1000
,  // measure 26
0010
0100
0001
1000
,  // measure 27
2002
0000
0000
0000
,  // measure 28
0000
0000
0000
0000
,  // measure 29
3003
0000
0000
0000
,  // measure 30
0000
0000
0000
0000
,  // measure 31
0000
0000
0000
0000
,  // measure 32
0000
0000
0000
0000
,  // measure 33
0000
0000
0000
0000
,  // measure 34
0100
0001
1000
0100
,  // measure 35
1000
0010
0100
0001
,  // measure 36
1000
1000
0001
0001
,  // measure 37
0010
0001
0100
0010
,  // measure 38
1000
0001
1000
0100
,  // measure 39
0010
0001
0010
0100
,  // measure 40
1000
0010
0100
0001
,  // measure 41
1100
0000
0101
1001
,  // measure 42
0010
0100
0001
0010
,  // measure 43
0001
1000
0010
0100
,  // measure 44
0002
1000
0010
0000
,  // measure 45
0100
0000
1003
0010
,  // measure 46
0100
0001
0010
0100
,  // measure 47
0010
0001
1000
0010
,  // measure 48
0100
0100
0001
0001
,  // measure 49
1000
0001
0010
0100
,  // measure 50
1000
0010
0100
0001
,  // measure 51
1000
0100
1000
0010
,  // measure 52
0100
0001
0010
0100
,  // measure 53
0100
0000
1000
0001
0100
0000
0010
0000
,  // measure 54
1000
0001
0010
0001
,  // measure 55
0100
0010
1000
0001
,  // measure 56
1000
0010
0100
0101
,  // measure 57
0000
1100
0000
1001
,  // measure 58
0100
0010
1000
0001
,  // measure 59
0010
0001
0100
0010
,  // measure 60
1000
0001
0010
0100
,  // measure 61
0100
0000
1000
0000
0001
0100
0010
0000
,  // measure 62
1000
0001
0010
0001
,  // measure 63
0100
0010
1000
0001
,  // measure 64
0001
0100
0100
1010
,  // measure 65
0000
0101
0110
1001
;

//---------------dance-single - Blank----------------
#NOTES:
     dance-single:
     Blank:
     Beginner:
     3:
     0.175,0.263,0.024,0.065,0.000,140.000,3.000,8.000,0.000,0.000,0.000,0.175,0.263,0.024,0.065,0.000,140.000,3.000,8.000,0.000,0.000,0.000: // measure 1
0000
0000
0000
0000
,  // measure 2
0000
0000
0000
0000
,  // measure 3
0000
0000
0000
0000
,  // measure 4
0000
0000
0000
0000
,  // measure 5
0010
0000
0000
0000
0001
0000
0000
1000
,  // measure 6
0000
0000
0000
0000
,  // measure 7
0010
1000
0001
0010
,  // measure 8
0001
0000
1000
0000
0100
0000
0010
0010
,  // measure 9
0001
1000
0010
0100
,  // measure 10
0001
0000
1000
0000
0001
1000
0001
1000
,  // measure 11
0010
0000
0100
0100
,  // measure 12
0001
1000
0000
0010
,  // measure 13
1000
0000
0001
0000
,  // measure 14
0010
0000
0100
0000
,  // measure 15
1000
0000
0001
0001
,  // measure 16
0100
0010
0000
1000
,  // measure 17
0100
0000
0010
0000
,  // measure 18
0002
0023
0230
2300
,  // measure 19
3001
0000
0010
0010
,  // measure 20
0001
1000
0000
0010
,  // measure 21
0100
0000
0010
0000
,  // measure 22
1000
0000
0001
0000
,  // measure 23
1000
0000
0100
0100
,  // measure 24
0010
0001
0000
1000
,  // measure 25
0001
0000
1000
0000
,  // measure 26
0020
0000
0200
0000
,  // measure 27
0000
0000
0000
0000
,  // measure 28
0000
0000
0000
0000
,  // measure 29
0000
0000
0000
0000
,  // measure 30
0000
0000
0000
0000
,  // measure 31
0000
0000
0000
0000
,  // measure 32
0000
0000
0000
0000
,  // measure 33
0330
0000
0000
0000
,  // measure 34
0001
0000
1000
0001
,  // measure 35
1000
0000
0100
0010
,  // measure 36
0100
0000
1000
0000
,  // measure 37
0100
0000
0010
0000
,  // measure 38
0001
0100
0001
0000
,  // measure 39
1000
0010
1000
0000
,  // measure 40
0100
0000
0010
0000
,  // measure 41
1001
0000
0000
0110
,  // measure 42
0100
0001
0100
0000
,  // measure 43
0010
1000
0010
0000
,  // measure 44
0100
0000
0001
0000
,  // measure 45
1000
0000
0200
0000
,  // measure 46
0310
0001
0010
0000
,  // measure 47
0100
1000
0100
0000
,  // measure 48
1000
0000
0010
0000
,  // measure 49
0200
0000
0000
0300
,  // measure 50
0000
0001
0000
1000
,  // measure 51
0000
0100
0000
0010
,  // measure 52
0000
0001
0000
1000
,  // measure 53
0000
0010
0100
0010
,  // measure 54
0000
1000
0000
0001
,  // measure 55
0000
0010
0000
0100
,  // measure 56
0000
1000
0000
0001
,  // measure 57
0001
1000
1000
0010
,  // measure 58
0000
0100
0000
0001
,  // measure 59
0000
1000
0000
0100
,  // measure 60
0000
1000
0000
0010
,  // measure 61
0000
0100
0001
0100
,  // measure 62
0000
0001
0000
0010
,  // measure 63
0000
0100
0000
1000
,  // measure 64
0000
0001
0000
0100
,  // measure 65
0000
0100
0010
0110
;
