#TITLE:Gaussian Mist;
#SUBTITLE:;
#ARTIST:Kang;
#TITLETRANSLIT:;
#SUBTITLETRANSLIT:;
#ARTISTTRANSLIT:;
#CREDIT:;
#BANNER:;
#BACKGROUND:;
#LYRICSPATH:;
#CDTITLE:;
#MUSIC:Gaussian Mist.ogg;
#OFFSET:-0.380;
#SAMPLESTART:75.450;
#SAMPLELENGTH:15.920;
#SELECTABLE:YES;
#DISPLAYBPM:267.000;
#BPMS:0.000=267.000,9.000=133.500,23.000=267.000,139.000=265.000,143.000=267.000,207.000=133.500,231.000=267.000,380.000=266.000,384.000=267.000,399.000=271.000,403.000=270.000,404.000=267.000,411.000=133.500;
#STOPS:;
#BGCHANGES:;

//---------------dance-single - ----------------
#NOTES:
     dance-single:
     :
     Medium:
     11:
     0.913,0.984,0.257,0.543,0.000:
0000
2002
0000
0000
,
3003
0002
0203
0320
,
2030
0000
3010
0100
0001
0100
0010
1000
,
0100
0010
0001
0100
0010
1000
0100
0010
,
0001
0100
0001
0100
0001
1000
0010
1000
,
0100
0010
0001
1000
0010
0100
0002
0000
,
0203
0320
2030
3001
,
0000
0000
0000
0000
0000
0001
0100
0000
,
0010
2000
0000
3010
,
0100
0001
0000
0010
,
0100
0000
0000
1000
,
0000
0000
0000
0000
0000
1000
0100
0000
,
0010
0001
0000
0100
,
0000
0000
0020
2030
,
3002
0023
0030
1100
,
0000
1000
0100
0010
0001
0010
0100
1000
,
0010
1000
0010
0100
0001
0100
0001
0100
,
0010
1000
0010
1000
0001
0010
0011
0000
,
0000
0100
1000
0001
1000
0100
1000
0001
,
1000
0010
1000
0001
1000
0010
1000
0001
,
0010
0000
0000
0110
,
0000
0010
1000
0010
1000
0001
1000
0010
,
1000
0010
1000
0001
1000
0010
1000
0010
,
1000
0001
0100
0001
0100
0001
1000
0001
,
0100
0001
0100
0001
0010
0100
1000
0100
,
0010
0001
0010
0100
1000
0010
1000
0010
,
0100
0001
0100
0001
0010
0100
1000
0010
,
1000
0010
1000
0010
1000
0010
1000
0010
,
1000
0010
1000
0010
1000
0010
0100
0001
,
0100
0001
0100
0001
0100
0001
0100
0001
,
0100
0001
0100
0001
0100
0001
0010
0001
,
0010
0001
0010
0001
0010
0001
0010
0001
,
1000
0010
1000
0010
1000
0010
1000
0010
,
1000
0010
1000
0010
1000
0010
1000
0010
,
0100
0001
0100
0001
0100
0010
1000
0100
,
1000
0100
0010
0001
0010
0001
0100
0010
,
1000
0010
0100
0001
0100
0010
1000
0010
,
0100
0001
0010
0001
0010
0100
1000
0100
,
1000
0010
1000
0010
0100
0001
0100
0001
,
0010
0100
1000
0100
0010
0001
0100
0001
,
1000
0001
0100
0001
0010
0000
0100
0000
,
1000
0010
0100
0001
,
0100
0010
1000
0020
,
0230
0302
2003
3002
,
0000
0000
0000
0000
0000
0013
0100
0000
,
1000
0020
0000
0230
,
0000
0000
0000
0301
,
0010
0100
1000
0200
,
0310
0001
0100
0020
,
0130
0001
0010
0100
,
1000
0010
0100
0110
,
0011
0000
0101
0000
0110
0000
1010
0010
,
1000
0100
0010
0001
0100
1000
0100
0001
,
0010
1000
0010
0001
0100
0010
1000
0010
,
0100
0001
0010
0100
1000
0010
0100
0001
,
1000
0001
0010
0100
1000
0010
0100
0001
,
0100
0010
1000
0000
0000
0100
0010
0000
,
0110
0000
0000
0011
,
0001
0010
0100
1000
,
0100
0010
0001
0100
,
0001
0100
0001
0010
,
0100
1000
0010
0100
,
0001
0100
0010
1000
,
0010
0100
0001
1000
,
0010
1000
0001
1000
,
0010
1000
0001
1000
,
0010
0100
0001
0010
,
0000
0000
0100
1000
,
0000
1100
0000
0000
,
0000
0000
0000
2002
,
0000
0000
0000
0000
3003
0000
0001
0010
,
0100
1000
0100
0010
0001
0100
0010
1000
,
0010
0100
0001
0010
0100
1000
0010
1000
,
0010
0100
0001
0100
0001
0010
0100
1000
,
0010
1000
0010
1000
0001
0100
0001
0100
,
0010
1000
0010
1000
0001
0100
0001
1000
,
0010
1000
0001
1000
0010
1000
0100
0010
,
0001
0010
0100
1000
0010
0100
0001
0000
,
1000
0000
0002
0000
0000
0000
0023
0130
,
0010
0100
1000
0010
1000
0010
0200
0301
,
0100
0001
0010
0100
0010
0100
2000
3010
,
1000
0010
0100
0001
0100
0001
0020
0130
,
0010
0100
1000
0100
0010
0001
2000
3010
,
0100
0001
1000
0100
0010
0001
2000
3010
,
1000
0010
0100
0001
0100
0001
0020
0130
,
0010
0100
1000
0010
1000
0010
0200
0301
,
0100
0001
0010
0100
0010
0100
2000
3001
,
0100
0001
1000
0010
0100
0001
0020
0130
,
1000
0010
0100
0001
0100
0020
2000
0000
,
0000
3030
2010
0000
,
0001
3100
0000
0202
,
0000
0303
0011
0000
,
0010
0110
0000
2200
,
0000
3300
2002
3003
,
0001
0202
0303
2020
,
0000
3030
2200
3300
,
0110
0022
0033
0101
,
0000
0000
1010
0000
,
1000
0000
0100
0000
0000
0000
1000
0100
,
0010
0001
0010
0100
1000
0010
0100
0001
,
0100
0010
1000
0010
0100
0000
0002
0000
,
0000
0000
0000
0000
,
0000
0000
0000
0000
0000
0000
0103
0010
,
1000
0010
0100
0001
0010
0100
1000
0010
,
1000
0010
0100
0001
1000
0100
0010
0001
,
0010
0100
1000
0010
0100
0001
1000
0010
,
0100
0001
0010
0100
1000
0010
0100
0001
,
1000
0010
0100
0000
0000
0001
1000
0000
,
2002
0000
0000
3003
;

//---------------dance-single - Copied from----------------
#NOTES:
     dance-single:
     Copied from:
     Hard:
     13:
     1.000,1.000,0.448,0.324,0.352:
0000
2002
0000
0000
,
3003
0000
0000
0000
0001
0000
0000
0001
0100
0000
0000
0100
0010
0000
0000
0010
,
0100
0000
0000
0100
0001
0000
0001
0000
0010
0000
0010
0000
0100
0000
0100
0000
,
1000
1000
0010
0010
0100
0100
0001
0001
,
0100
0100
0010
0010
1000
1000
0010
0010
,
0100
0000
0100
0000
0001
0000
0001
0000
0100
0000
0100
0000
0010
0000
0000
0010
,
0100
0000
0000
0100
0001
0000
0000
0001
0100
0000
0000
0100
0010
0000
0000
0000
,
2000
0000
3010
0000
0100
0002
0203
0000
,
0320
2030
0000
3020
,
0230
0302
0103
0020
,
0230
1300
0001
0020
,
0130
0000
1000
0000
0010
2000
3200
0000
,
0320
0032
0103
0020
,
1030
0000
0000
0000
0010
0000
0000
0000
1000
0000
0000
1000
0100
0000
0000
0100
,
0010
0000
0000
0010
0001
0000
0000
0001
1000
0000
0000
0000
1100
0000
0000
0000
,
0000
1000
0100
0001
0100
0010
0100
1000
,
0010
0100
0001
0010
1000
0010
0100
0010
,
0001
0010
0100
1000
0100
0010
0110
0000
,
0000
0010
0001
0100
1000
0100
0001
0010
,
1000
0010
0001
0100
0010
1000
0010
0100
,
0001
0000
0000
MMMM
0000
0000
0110
0000
,
0000
0010
0100
0001
0100
0001
1000
0100
,
0010
0001
0100
1000
0100
0001
0010
1000
,
0010
0001
0100
0001
1000
0100
1100
0000
,
0000
0000
0010
0001
0100
0010
1000
0010
,
0100
0001
0100
0010
1000
0010
1000
0010
,
0100
0000
0001
0000
0100
0000
0001
0000
0010
0000
0100
0000
1000
0010
1000
0010
,
1000
0000
0000
0000
0001
0100
0001
0100
0001
0000
0000
0000
1000
0010
1000
0010
,
1000
0000
0000
0000
0001
0010
0001
0010
0001
0000
0000
0000
1000
0100
0010
0000
,
0001
0000
0010
0000
0001
1000
0001
0000
0010
0000
0100
0000
1000
0010
1000
0000
,
0100
0000
0010
0000
0001
1000
0001
0000
0100
0000
0010
0000
0001
0100
0001
0000
,
1000
0000
0010
0000
0100
0001
0100
0000
0010
0000
0000
0000
0010
1000
0010
1000
,
0001
0100
0001
1000
0010
1000
0010
1000
0001
0000
0010
0000
0100
1000
0100
0000
,
0010
0000
0001
0000
1000
0010
1000
0000
0001
0000
0100
0000
0010
1000
0010
0000
,
0100
0000
0001
0000
1000
0100
1000
0000
0100
0000
1000
0000
0020
0000
0000
0000
,
0000
0000
0000
0000
0000
0000
0130
0001
,
0100
0001
1000
0001
0011
0010
0100
1000
,
0100
0000
0010
0000
0001
0000
1000
0100
1000
0000
0001
0000
0010
0000
0100
0000
,
1000
0010
0100
0001
0101
0010
1000
0100
,
0010
0000
0001
0010
0001
0000
0010
0001
0010
0000
0100
1000
0001
0000
1000
0000
,
0010
0100
0001
0010
0011
0100
1000
0010
,
0100
0001
0100
0010
1000
0100
0010
0001
,
0100
0000
0010
0000
1000
0000
0010
0000
1010
0000
0000
0000
1000
0000
0000
1000
,
0010
0000
0000
0010
0100
0000
0000
0100
0001
0000
0000
0001
0100
0000
0000
0000
,
0010
1000
0010
0100
0002
0103
0010
1000
,
0020
0130
0001
0010
0100
1000
0020
0130
,
0001
0100
0010
1000
0002
0103
0010
1000
,
0010
0100
0002
0013
0100
1000
0200
0310
,
0001
0100
0010
1000
0002
0103
0010
1000
,
0010
1000
0002
0103
0010
1000
0001
0100
,
0001
0000
1000
0000
0010
0000
1000
0000
0001
0000
0100
0000
0010
0000
0000
0010
,
1000
0000
0000
1000
0010
0000
0000
0010
0100
0000
0000
0100
0001
0000
0010
0000
,
0100
1000
0001
0010
0100
1000
0100
0001
,
0100
1000
0010
0001
0010
1000
0010
0100
,
0001
0100
0010
1000
0010
0100
0001
0010
,
0100
1000
0010
0100
0001
0100
0010
1000
,
0010
0100
0001
0000
0000
0100
0010
0000
,
0110
0000
0000
0011
,
0001
0010
0100
1100
,
0100
0110
0001
0100
,
0010
1010
0010
0110
,
0100
0001
0010
1100
,
0100
0110
0010
0001
,
0100
0010
1000
1100
,
0100
0010
0001
0011
,
0010
0110
0100
1000
,
0010
0110
0100
0101
,
0000
0000
0101
0101
,
0000
0001
0000
1000
,
0000
0000
0000
2002
,
0000
0000
0000
0000
3003
0000
0001
0100
,
1000
0100
0001
0010
1000
0010
0001
0100
,
0010
1000
0010
0001
0010
0100
0001
0100
,
0010
1000
0010
0001
0010
1000
0010
0100
,
0001
0100
0010
0100
1000
0100
0010
0100
,
0001
0010
1000
0010
0100
1000
0010
0100
,
0001
0100
0010
0100
0001
0100
0010
1000
,
0010
0100
0001
0010
0100
1000
0100
0000
,
0010
0000
0000
0000
0002
0000
0000
0000
0000
0000
0000
0000
1003
0100
1000
0000
,
0100
1000
0100
0000
0010
0001
0010
0000
0001
0010
0001
0000
0100
0000
0010
0000
,
1000
0000
0010
0000
0100
0000
0001
0000
0010
0000
0100
0000
1000
0100
1000
0000
,
0100
1000
0100
0000
1000
0100
1000
0000
0001
0010
0001
0000
0100
0000
0001
0000
,
0100
0000
0010
0000
1000
0000
0001
0000
0100
0000
0010
0000
1000
0100
1000
0100
,
1000
0000
0000
0000
0001
0010
0001
0010
0001
0000
0000
0000
1000
0010
0100
0001
,
1000
0000
0000
0000
0001
0010
0100
0010
0100
0000
0000
0000
1000
0010
1000
0000
,
0100
0000
0010
0000
0001
0100
0001
0000
0010
0000
0100
0000
1000
0001
1000
0000
,
0010
0000
0010
0000
1000
0010
1000
0000
0001
0000
0100
0000
0010
1000
0010
0000
,
0100
0000
0001
0000
0100
0001
0100
0000
0010
0000
1000
0000
0010
0000
1000
0000
,
0100
1000
0001
0100
0001
1000
0001
0100
0001
0000
0010
0000
0100
0000
1000
0000
,
0010
0100
0001
0010
0011
0001
0100
0001
,
0101
0000
1010
0000
0000
0000
0101
0100
,
0001
0010
0100
1000
0002
0103
0001
0100
,
1010
0000
1100
0000
0000
0000
0010
0001
,
0100
0010
1000
0010
1010
0100
0001
0100
,
0001
0010
0100
1000
0010
0001
0010
1000
,
0010
0100
0001
1000
1100
0001
0010
0100
,
1000
0010
0100
0001
0100
0010
1000
0100
,
0010
0001
1000
0100
1100
0010
0001
0100
,
0010
1000
0010
0100
0001
0100
0001
1000
,
0010
0100
0001
0100
0010
0100
0001
1000
,
0010
0100
0001
0100
0010
0000
2000
0000
,
0000
0000
0000
0000
,
0000
0000
0000
0000
0000
0000
3001
0010
,
0100
1000
1100
0100
0110
0010
0001
0100
,
0101
0100
0110
0010
1000
0001
0011
0010
,
0110
0100
1000
0010
0100
0001
0100
0010
,
1000
0100
0011
0001
0011
0001
1000
0100
,
1100
1000
1100
0000
0000
1010
1010
0000
,
2002
0000
0000
3003
;

//---------------dance-single - ----------------
#NOTES:
     dance-single:
     :
     Challenge:
     13:
     1.000,1.000,0.552,0.286,0.495:
0000
2002
0000
0000
,
3003
0000
0000
0000
0001
0100
0001
0000
1000
0100
1000
0000
0001
0010
0001
0000
,
1000
0100
1000
0000
0001
0000
0010
0000
1000
0000
0010
0000
0001
0000
0100
0000
,
1000
0100
0001
0010
0100
0001
0100
1000
,
0010
0001
0010
0100
0001
0100
1000
0100
,
0001
0000
0010
0000
1000
0000
0010
0000
0001
0000
0010
0000
0100
1000
0100
0000
,
0010
0001
0100
0000
0010
1000
0010
0000
0100
0001
0100
0000
0010
0000
0000
0000
,
2000
0000
3010
0000
0100
0002
0203
0000
,
0320
2030
0000
3020
,
0230
0302
0103
0020
,
0230
1300
0001
0020
,
0130
0000
1000
0000
0010
2000
3200
0000
,
0320
0032
0103
0020
,
1030
0000
0000
0000
0010
0000
0000
0000
1000
0000
0100
1000
0100
0000
0010
0100
,
0010
0000
0001
0010
0001
0000
0010
0001
1000
0000
0000
0000
1100
0000
0000
0000
,
0000
1000
0100
0010
0100
0010
0100
1000
,
0010
0100
0001
0010
0100
0010
0100
0010
,
0001
0010
0100
1000
0100
0010
0110
0000
,
0000
0010
0001
0100
0001
0100
0001
0010
,
0100
0010
0001
0100
0010
1000
0010
0100
,
0001
0000
0000
MMMM
0000
0000
0110
0000
,
0000
0010
0100
0001
0100
0001
1000
0100
,
0010
0001
0100
0010
0100
0001
0010
0100
,
0010
0001
0100
0001
1000
0100
1100
0000
,
0000
0000
0010
0001
0100
0010
1000
0010
,
0100
0001
0100
0010
1000
0010
1000
0010
,
0100
0000
0001
0000
0100
0000
0001
0000
0010
0000
0100
0000
1000
0100
1000
0100
,
1000
0100
1000
0100
1000
0100
1000
0100
1000
0100
1000
0100
1000
0000
0010
0000
,
0100
0000
0001
0000
0100
0000
0010
0000
1000
0000
0010
0000
0100
0001
0100
0001
,
0100
0001
0100
0001
0100
0001
0100
0001
0100
0001
0100
0001
0100
0000
0010
0000
,
1000
0000
0010
0000
0100
0000
0001
0000
0010
0000
0100
0000
0010
0100
0010
0100
,
0010
0100
0010
0100
0010
0100
0010
0100
0010
0100
0010
0100
0010
0000
0001
0000
,
0010
0000
0100
0000
1000
0000
0100
0000
0010
0000
0001
0000
1000
0010
1000
0010
,
1000
0010
1000
0010
1000
0010
1000
0010
1000
0010
1000
0010
1000
0010
1000
0010
,
1000
0010
1000
0010
1000
0010
1000
0010
1000
0010
1000
0010
2000
0000
0000
0000
,
0000
0000
0000
0000
0000
0000
3100
0010
,
0001
1000
0001
0010
0011
0010
0100
1000
,
0100
0000
0010
0000
0001
0000
1000
0100
1000
0000
0001
0000
0010
0000
0100
0000
,
1000
0010
0100
0001
0101
0010
1000
0100
,
0010
0000
0001
0010
0001
0000
1000
0010
0100
0000
0001
0100
0010
0000
1000
0000
,
0010
0100
0001
0010
0011
0100
1000
0010
,
0100
0001
0100
0010
1000
0100
0010
0001
,
0100
0000
0010
0000
1000
0000
0010
0000
1010
0000
0000
0000
1000
0010
1000
0000
,
0100
0010
0001
0000
1000
0100
0010
0000
0001
0010
0001
0000
1000
0000
0000
0000
,
0010
1000
0010
0100
0002
0103
0010
1000
,
1010
0100
0001
0010
0100
1000
0020
0130
,
0001
0100
0010
1000
1100
1000
0010
1000
,
0010
0100
0002
0013
0100
1000
1100
0010
,
0001
0100
0010
1000
0002
0103
0010
1000
,
0010
1000
1100
0010
0001
1000
0001
0100
,
0001
0000
1000
0000
0010
0000
1000
0000
0001
0000
0100
0000
0010
1000
0010
0000
,
1000
0100
1000
0000
0010
0100
0010
0000
1000
0100
0010
0000
0001
0000
0010
0000
,
0100
1000
1100
0100
0110
0010
0001
0010
,
0011
0001
1001
1000
0010
1000
0010
0100
,
0001
0100
0010
1000
0001
0100
1010
1000
,
1010
0010
0100
0001
0100
0010
1000
0010
,
0100
0001
1000
0000
0000
0100
0010
0000
,
0110
0000
0000
0011
,
0001
0010
0100
1100
,
0100
0110
0001
0100
,
0010
1010
0010
0110
,
0100
0001
0010
1100
,
0100
0110
0010
0001
,
0100
0010
1000
1100
,
0100
0010
0001
0011
,
0010
0110
0100
1000
,
0010
0110
0100
0101
,
0000
0000
0101
0101
,
0000
0001
0000
1000
,
0000
0000
0000
2002
,
0000
0000
0000
0000
3003
0000
0001
0100
,
1000
0100
0001
0010
1000
0010
0001
0100
,
0010
1000
0010
0001
0010
0100
0001
0100
,
0010
1000
0010
0001
0010
1000
0010
0100
,
0001
0100
0010
0100
1000
0100
0010
0100
,
0001
0010
1000
0010
0100
1000
0010
0001
,
0010
1000
0100
0001
0100
1000
0010
0001
,
0010
1000
0100
0010
0100
1000
0100
0000
,
0010
0000
0000
0000
0002
0000
0000
0000
0000
0000
0000
0000
1003
0100
1000
0100
,
1000
0100
1000
0100
1000
0000
0010
0000
0100
0000
0001
0000
1000
0100
1000
0100
,
1000
0100
1000
0100
1000
0000
0010
0000
0100
0000
0001
0000
1000
0100
1000
0100
,
1000
0100
1000
0100
1000
0000
0001
0000
0010
0000
0100
0000
1000
0010
1000
0010
,
1000
0010
1000
0010
1000
0000
0100
0000
0010
0000
0001
0000
0010
0001
0010
0001
,
0010
0001
0010
0001
0010
0000
0100
0000
0010
0000
0001
0000
1000
0010
1000
0010
,
1000
0010
1000
0010
1000
0000
0100
0000
0010
0000
0001
0000
1000
0100
1000
0100
,
1000
0100
1000
0100
1000
0000
0100
0000
1000
0000
0100
0000
0010
0001
0010
0001
,
0010
0001
0010
0001
0010
0000
0100
0000
1000
0000
0100
0000
0010
0001
0010
0001
,
0010
0001
0010
0001
0010
0000
0100
0000
1000
0000
0100
0000
0010
0001
0010
0001
,
0010
0001
0010
0001
0010
0000
0100
0000
1000
0000
0100
0000
1100
0000
1000
0000
,
0010
0100
0001
0010
0011
0001
0100
0001
,
0101
0000
1010
0000
0000
0000
0101
0100
,
0001
0010
0100
1000
0002
0103
0001
0100
,
1010
0000
1100
0000
0000
0000
0010
0001
,
0100
0010
1000
0010
1010
0100
0001
0100
,
0001
0010
0100
1000
0010
0001
0010
1000
,
0010
0100
0001
1000
1100
0001
0010
0100
,
1000
0010
0100
0001
0100
0010
1000
0100
,
0010
0001
1000
0100
1100
0010
0001
0100
,
0010
1000
0010
0100
0001
0100
0001
1000
,
0010
0100
0001
0100
0010
0100
0001
1000
,
0010
0100
0001
0100
0010
0000
2000
0000
,
0000
0000
0000
0000
,
0000
0000
0000
0000
0000
0000
3001
0010
,
0100
1000
1100
0100
0110
0010
0001
0100
,
0101
0100
0110
0010
1000
0001
0011
0010
,
0110
0100
1000
0010
0100
0001
0100
0010
,
1000
0100
0011
0001
0011
0001
1000
0100
,
1100
1000
1100
0000
0000
1010
1010
0000
,
2002
0000
0000
3003
;

//---------------dance-single - ----------------
#NOTES:
     dance-single:
     :
     Easy:
     9:
     0.637,0.880,0.324,0.562,0.000: // measure 1
0000
2002
0000
0000
,  // measure 2
3003
0002
0203
0320
,  // measure 3
2030
3010
1000
0001
,  // measure 4
0100
0001
0010
0100
,  // measure 5
1000
0010
1000
0010
,  // measure 6
0100
0001
0010
0002
,  // measure 7
0203
0320
2030
3001
,  // measure 8
0000
0000
0000
0100
,  // measure 9
0010
2000
0000
3010
,  // measure 10
0100
0001
0000
0010
,  // measure 11
0100
0000
0000
1000
,  // measure 12
0000
0000
0000
0100
,  // measure 13
0010
0001
0000
0100
,  // measure 14
0000
0000
0020
2030
,  // measure 15
3002
0023
0030
1100
,  // measure 16
0000
1000
0100
0000
0010
0000
0001
0000
,  // measure 17
0100
0010
1000
0010
,  // measure 18
0100
0010
0001
0010
,  // measure 19
0000
0100
1000
0000
0001
0000
0100
0000
,  // measure 20
0010
1000
0010
0100
,  // measure 21
0001
0000
0000
0110
,  // measure 22
0000
0010
1000
0000
0100
0000
0010
0001
,  // measure 23
0010
0001
0010
0000
0100
1000
0010
0100
,  // measure 24
0001
0000
0100
0001
0100
0000
0020
0000
,  // measure 25
1030
0010
0100
0001
,  // measure 26
0100
0002
0000
0000
,  // measure 27
0000
0000
0000
0000
0000
0000
1003
0100
,  // measure 28
1000
0100
1000
0001
1000
0000
0100
0010
,  // measure 29
0100
0010
0001
0010
0001
0000
0010
0100
,  // measure 30
1000
0001
0010
0100
1000
0000
0001
0010
,  // measure 31
0001
0010
0001
0000
0100
0000
0010
1000
,  // measure 32
0010
1000
0001
0000
0100
0000
0010
1000
,  // measure 33
0010
0100
0001
0000
1000
0000
1000
0010
,  // measure 34
1000
0010
1000
0000
0001
0000
0010
0001
,  // measure 35
1000
0001
0100
0000
0010
0000
2000
0000
,  // measure 36
0000
0000
0000
3100
,  // measure 37
0010
0001
0011
0100
,  // measure 38
1000
0010
1000
1001
,  // measure 39
0001
0010
0011
0001
,  // measure 40
0010
0100
1000
1100
,  // measure 41
0100
0010
0110
0010
,  // measure 42
0001
0001
0100
1010
,  // measure 43
1000
0010
1010
0020
,  // measure 44
0230
0302
2003
3002
,  // measure 45
0000
0000
0000
0000
0000
0003
1000
0000
,  // measure 46
1000
0020
0000
0230
,  // measure 47
0000
0000
0000
0301
,  // measure 48
0010
0100
1000
0200
,  // measure 49
0310
0001
0100
0020
,  // measure 50
0130
0001
0010
0100
,  // measure 51
1000
0010
0100
1100
,  // measure 52
1100
1100
1100
1000
,  // measure 53
0010
0100
0001
0100
,  // measure 54
0010
1000
0100
1000
,  // measure 55
0001
0010
0100
1000
,  // measure 56
0010
0100
0001
0100
,  // measure 57
0010
0000
1000
0000
0000
1100
0110
0000
,  // measure 58
0110
0000
0000
0011
,  // measure 59
0001
0010
0100
1000
,  // measure 60
0100
0010
0001
0100
,  // measure 61
0001
0100
0001
0010
,  // measure 62
0100
1000
0010
0100
,  // measure 63
0001
0100
0010
1000
,  // measure 64
0010
0100
0001
1000
,  // measure 65
0010
1000
0001
1000
,  // measure 66
0010
1000
0001
1000
,  // measure 67
0010
0100
0001
0010
,  // measure 68
0000
0000
0100
1000
,  // measure 69
0000
1100
0000
0000
,  // measure 70
0000
0000
0000
2002
,  // measure 71
0000
0000
0000
0000
3003
0000
0001
0010
,  // measure 72
0001
0000
1000
0010
1000
0000
0001
0010
,  // measure 73
0100
0000
1000
0100
0010
0000
0001
0100
,  // measure 74
0010
0000
1000
0010
0100
0000
0001
0010
,  // measure 75
0100
1000
0001
0010
0100
1000
0001
0100
,  // measure 76
0010
0100
0001
0100
0010
1000
0010
1000
,  // measure 77
0001
1000
0001
0100
0010
1000
0100
0010
,  // measure 78
0001
0010
0100
1000
0010
0100
0001
0000
,  // measure 79
1000
0002
0000
0203
,  // measure 80
0000
0000
0000
0320
,  // measure 81
0000
0000
0000
2030
,  // measure 82
0000
0000
0000
3020
,  // measure 83
0000
0000
0000
2030
,  // measure 84
0000
0000
0000
3002
,  // measure 85
0000
0000
0000
0023
,  // measure 86
0000
0000
0000
0032
,  // measure 87
0000
0000
0000
0203
,  // measure 88
0000
0000
0000
0320
,  // measure 89
0000
0000
0000
2030
,  // measure 90
0000
3000
2010
0000
,  // measure 91
0001
3100
0000
0202
,  // measure 92
0000
0303
0011
0000
,  // measure 93
0010
0110
0000
2200
,  // measure 94
0000
3300
2002
3003
,  // measure 95
0001
0202
0303
2020
,  // measure 96
0000
3030
2200
3300
,  // measure 97
0110
0022
0033
0101
,  // measure 98
0000
0000
1010
0000
,  // measure 99
1000
0000
0100
0000
0000
0000
1000
0001
,  // measure 100
0100
0010
1000
0000
0010
0000
0100
0001
,  // measure 101
0100
0010
1000
0000
0100
0000
0020
0000
,  // measure 102
0000
0000
0000
0000
,  // measure 103
0000
0000
0000
0031
,  // measure 104
1000
0100
0010
0001
,  // measure 105
0100
0010
1000
0010
,  // measure 106
0100
0001
0100
0010
,  // measure 107
1000
0100
0010
0001
,  // measure 108
1000
0001
0000
0000
,  // measure 109
2002
0000
0000
3003
;

//---------------dance-single - ----------------
#NOTES:
     dance-single:
     :
     Beginner:
     4:
     0.340,0.360,0.324,0.038,0.000:
0000
1001
0000
0000
,
0000
1000
0000
0000
,
0000
1000
0000
0100
,
0000
0010
0000
0001
,
0000
0010
0000
0100
,
0000
1000
0000
1001
,
0000
0000
0000
0110
,
0000
0000
0000
0100
,
0100
0100
0000
0010
,
0000
0001
0000
0010
,
0010
0000
0000
0100
,
0000
0000
0000
1000
,
1000
1000
0000
0010
,
0000
0100
0000
2002
,
0000
3003
0000
0110
,
0000
0100
0000
0100
,
0000
0010
0000
0010
,
0000
0100
0000
0110
,
0000
0100
0000
0100
,
0000
0010
0000
0010
,
0000
0000
0000
0110
,
0000
0001
0000
1000
,
0000
0100
0000
0010
,
0000
0001
0000
0110
,
0000
0001
0000
0001
,
0000
0100
0000
0001
,
0000
1000
1000
0000
,
1000
0000
0000
1000
,
1000
1000
0000
0100
,
0100
0100
0000
0010
,
0010
0010
0000
0001
,
0001
0001
0000
0010
,
0010
0010
0000
0100
,
0100
0100
0000
1000
,
1000
1000
0000
2002
,
0000
0000
3003
0100
,
0000
0100
0000
0100
,
0000
0010
0000
0110
,
0000
0100
0000
0010
,
0000
0100
0000
1001
,
0000
0001
0000
0010
,
0000
0100
0000
0110
,
0000
0100
0000
1000
,
0000
0100
0000
0110
,
0000
0001
0000
0010
,
0000
0100
0000
0110
,
0000
0100
0000
1000
,
0000
0100
0000
1001
,
0000
0100
0000
0010
,
0000
0100
0000
1001
,
0000
0100
0000
0010
,
0000
0010
0000
0110
,
0000
0100
0100
0000
,
1000
1000
0000
0010
,
0010
0010
0010
0010
,
0000
0100
0100
0000
,
0001
0001
0000
0010
,
0010
0000
0000
0100
,
0000
1000
0000
0010
,
0000
0100
0000
0001
,
0000
0010
0000
0100
,
0000
1000
0000
0010
,
0000
0100
0000
0001
,
0000
1000
0000
0010
,
0000
0100
0000
0001
,
0000
0100
0000
0010
,
0000
1000
0000
0100
,
0000
0000
0010
0010
,
0000
0001
0000
0000
,
0000
0000
0000
1001
,
0000
0000
0000
0100
,
0100
0100
0000
0010
,
0010
0010
0000
0001
,
0001
0001
0000
0100
,
0100
0100
0000
0010
,
0010
0010
0000
1000
,
1000
1000
0000
0100
,
0100
0100
0000
0010
,
0010
0010
0000
0110
,
0000
0000
0000
0110
,
0000
0000
0000
0110
,
0000
0000
0000
0110
,
0000
0000
0000
0110
,
0000
0000
0000
0110
,
0000
0000
0000
0110
,
0000
0000
0000
0110
,
0000
0000
0000
0110
,
0000
0000
0000
0110
,
0000
0000
0000
0001
,
0000
0000
1001
0000
,
0000
0000
0000
0000
,
0000
0000
0110
0000
,
0100
0100
0000
0100
,
0000
0000
0110
0000
,
0100
0100
0000
0100
,
0000
0000
0110
0000
,
0100
0100
0000
0100
,
0000
0000
0110
0000
,
0010
0010
0000
0100
,
0000
0010
0000
0001
,
0000
0000
0000
1100
,
0000
0000
0000
0000
,
0000
0000
0000
0001
,
0000
0010
0010
0000
,
0100
0100
0000
1000
,
1000
0000
0000
0010
,
0000
0100
0100
0000
,
0001
0001
0000
0100
,
0100
0000
0000
0000
;
