#TITLE:ERaSeR EnGinE DistorteD;
#SUBTITLE:;
#ARTIST:L.E.D.-G vs GUHROOVY;
#TITLETRANSLIT:;
#SUBTITLETRANSLIT:;
#ARTISTTRANSLIT:;
#GENRE:;
#CREDIT:Telperion;
#BANNER:;
#BACKGROUND:;
#LYRICSPATH:;
#CDTITLE:;
#MUSIC:ERaSeR EnGinE DistorteD.mp3;
#OFFSET:-5.944;
#SAMPLESTART:11.367;
#SAMPLELENGTH:16.271;
#SELECTABLE:YES;
#DISPLAYBPM:177.000;
#BPMS:0.000=177.000;
#STOPS:;
#BGCHANGES:;
#KEYSOUNDS:;

//---------------dance-single - Telperion----------------
#NOTES:
     dance-single:
     Telperion:
     Challenge:
     11:
     0.819,0.836,0.351,0.335,0.412:
1000
0100
0001
0100
0010
0010
0001
0000
,
0001
0100
1000
0100
0010
0010
1000
0000
,
0001
1000
0001
0000
1000
0000
0100
1000
0100
0000
1000
0000
0001
0000
0100
0000
,
1001
0000
0000
0000
,
0001
0000
1000
0000
0010
0000
0100
0010
0100
0000
0001
0000
1000
0000
0001
0000
,
0010
0000
0100
0000
1000
0000
0100
0010
0100
0000
1000
0000
1000
0000
0000
0000
,
0001
0100
1000
0001
0010
1000
0100
0100
,
2002
0000
0003
0000
3001
0001
1000
0000
,
0100
0000
1000
0000
0001
0000
1000
0001
1000
0000
0100
0000
0010
0000
0100
0010
,
0100
1000
0001
0100
2002
3003
0000
0000
,
0001
0100
1000
1200
0000
1300
0100
0010
,
1000
0000
0100
0000
0010
0000
0001
0000
0010
0001
0010
0001
1000
0001
1000
0000
,
0001
1000
0001
1000
0100
0000
0000
0000
1000
0001
1000
0001
0100
0000
0000
0000
,
0001
1000
0001
1000
0100
0000
0000
0000
1000
0001
1000
0001
0100
0000
0000
0000
,
0001
0100
0001
0100
0010
0000
0000
0000
1000
0010
1000
0010
0100
0000
0000
0000
,
0001
0010
0001
0010
0100
0000
0000
0000
1000
0100
0010
0001
0010
0000
0000
0000
,
0001
0100
1000
0010
,
0001
0101
0100
0010
0110
0010
1000
1000
,
0010
0001
0100
1000
,
0010
0000
1000
0010
1000
0000
0100
1000
0100
0000
1000
0010
1000
0000
0100
0010
,
0100
0000
1000
0000
0100
0000
1000
0100
1000
0000
0100
0000
0000
0000
0100
0000
,
0010
0000
0001
0000
0100
0000
0001
0100
0001
0000
0100
0000
0000
0000
0100
0000
,
0010
1000
0010
0001
0010
0100
0001
0010
,
0100
0000
0010
0000
0001
0000
1000
0001
1000
0000
0001
0000
0010
0000
2002
0000
,
0000
0003
3001
0001
1000
1000
0100
0100
,
0010
0000
0010
0000
1000
0000
0010
0100
0010
0000
0001
0000
0100
0000
0010
0000
,
0000
0010
0100
2002
3003
0001
1000
0010
,
0100
1000
0100
0010
0100
1000
0100
0001
,
1000
0010
0100
1000
1000
0100
0001
0001
,
0010
0000
2002
0000
3003
0000
0010
0000
2002
0000
0000
0000
3003
0000
0001
1000
,
0100
0000
0000
0000
0100
0000
2002
0000
3003
0000
0001
1000
0001
0000
1000
0001
,
1000
0000
0100
0002
0000
0000
0000
0000
,
2000
0000
0000
3003
,
1001
0000
0001
0000
0100
0000
0010
0100
0010
0000
1000
0000
0010
1000
0010
0000
,
1000
0100
1000
0000
0001
0000
0010
0001
0010
0001
0010
0000
0100
0000
0000
0000
,
0010
0001
0100
1000
0001
0010
0100
0010
,
2002
0000
0000
3003
0011
0000
1100
0000
,
1000
0001
0100
0101
0010
0000
0001
0100
,
1000
0100
0100
0010
2002
3003
0000
0000
,
0001
0000
0010
0000
0100
0000
0201
0000
0000
0000
0301
0000
0100
0000
0010
0100
,
0010
0000
0100
0000
1000
0000
0100
1000
0100
1000
0100
0000
1000
0001
1000
0000
,
0001
1000
0001
1000
0100
0000
0000
0000
1000
0001
1000
0001
0100
0000
0000
0000
,
0001
1000
0001
1000
0100
0000
0000
0000
1000
0001
1000
0001
0100
0000
0000
0000
,
0001
0100
0001
0100
0010
0000
0000
0000
1000
0010
0100
0001
0100
0000
0000
0000
,
0001
0010
0100
1000
0100
0000
0000
0000
1000
0100
0010
0001
0010
0000
0000
0000
,
0001
0100
1000
0010
,
0001
0101
0100
0010
0110
0001
0010
0100
,
0001
0100
1000
0001
,
0011
0000
1000
0000
1010
0000
0010
0000
0110
0000
0101
0000
1001
0000
1000
0001
,
1000
0000
0010
0000
0100
0000
0010
0100
0010
0100
0010
0000
1000
0000
0100
0000
,
0010
0000
0001
0000
1000
0000
0001
1000
0001
1000
0001
0000
1000
0000
0010
0000
,
1000
0010
1000
0000
0010
0100
0010
0000
0100
0001
0100
0000
0001
0010
0001
0000
,
1000
0010
1000
0000
0100
1000
0100
0000
0010
0100
0010
0000
0001
0100
0001
0000
,
0010
0010
0100
0100
1000
1000
0001
1000
,
0001
0011
0000
0110
0000
1010
0000
0110
,
0000
0100
2002
0000
0000
0000
3003
1000
,
0001
0001
1000
1000
0100
0010
0001
1000
,
0100
0000
1000
0000
0001
0000
0100
0001
0100
0000
0010
0000
1000
0000
0100
0000
,
0010
0010
0020
0000
0031
0100
0020
0000
,
0130
0000
0001
0000
1000
0000
0100
1000
0100
0000
0020
0000
0030
0000
0010
0100
,
1000
0000
0001
0100
0001
0000
1000
0100
1000
0000
0001
0000
2002
0000
0000
0000
,
0000
0000
0000
0000
0000
0000
0000
0000
0000
0000
0000
0000
0000
0000
0000
3003
,
1001
0000
0001
0000
0100
0000
0010
0100
0010
0000
0100
0000
1000
0000
0100
0000
,
0110
0000
1000
0000
0100
0000
0010
0100
0010
0000
0001
0000
0001
0000
1000
0000
,
1001
0000
0000
0000
0010
0001
1000
0001
1000
0000
0100
0000
1000
0000
1100
0000
,
0000
0000
1000
0000
0010
1000
0001
1000
0001
0000
0100
0000
0100
0000
0001
0100
,
0002
0000
1000
0023
,
0130
1000
0200
0000
0001
0000
1300
0000
,
1010
0000
0101
0000
0001
1000
0100
1000
,
0001
0000
0001
0000
0100
0000
0010
0000
0100
0010
0100
0010
0100
0010
0100
0010
,
0100
0000
0100
0000
0001
0000
1000
0001
0000
0001
1000
0000
0100
0000
0010
0100
,
1000
0001
0100
1000
0100
0010
1000
0100
,
0010
0100
0010
0001
0010
0001
0001
0010
,
1000
0001
0100
0010
0002
0000
0000
0000
,
2000
0000
0000
0000
0000
0000
0000
3003
,
0001
1000
0110
0100
0001
1010
1000
0011
,
2002
0000
0000
0000
0000
0000
0000
3003
,
1000
0000
0100
0000
0110
0000
0010
0001
0010
0001
1000
0000
0001
1000
0001
0010
,
0100
1000
0001
0010
1000
0001
0001
0001
,
0100
0100
0100
1000
0002
0000
2003
0000
,
3010
0001
1000
0100
0001
0100
0100
0100
,
2002
0000
0000
0000
3003
0000
0000
0000
0001
1000
0100
1000
0001
1000
0100
0010
,
0002
0000
0000
0000
,
0000
0000
0000
0000
,
0000
0000
0000
0000
,
0000
0000
0000
0003
0000
0000
0000
0000
;

//---------------dance-single - Telperion----------------
#NOTES:
     dance-single:
     Telperion:
     Hard:
     9:
     0.639,0.661,0.269,0.212,0.073:
1000
0001
0100
0000
0001
1000
0100
0000
,
0010
0100
1000
0000
0010
0100
0001
0000
,
1000
0100
0001
0000
0100
1000
0001
0100
,
1001
0000
0000
0000
,
1000
0000
0100
0000
1000
0000
0100
0000
0010
0000
0001
0000
0100
0000
0010
0100
,
0010
0000
0100
0000
0001
0000
0010
0000
0100
0000
1000
0000
0001
0000
0010
0001
,
0010
0100
0001
1000
0010
0100
1000
0001
,
2002
3003
0011
1100
,
0001
1000
0100
0100
0000
0000
1000
0001
,
0100
0100
0001
1000
0200
0000
0300
0000
,
1000
0001
0100
2000
0000
3100
0001
0000
,
1000
0000
0100
0000
0000
0000
1000
0000
0001
0000
0010
0000
0001
0010
0001
0000
,
1000
1000
1000
0000
0100
0100
0100
0000
,
0001
0001
0001
0000
0010
0010
0010
0000
,
0001
0100
0010
0000
0001
0100
1000
0000
,
0100
0010
1000
0000
0100
0001
0100
1000
,
0001
1000
0001
1000
,
0100
0001
0001
1000
1000
0010
0001
1000
,
0100
0100
0000
0000
,
1000
0000
0100
1000
0100
0000
1000
0100
1000
0000
0100
1000
0100
0000
0000
0000
,
1000
0000
0100
0010
0001
0100
0000
0100
,
1000
0100
0001
0010
0100
1000
0000
0000
,
0001
0000
0100
0010
1000
0100
0010
0001
,
0100
0010
0100
0010
1000
0010
1000
0002
,
0000
0000
1003
1000
0001
0001
1000
0001
,
0000
1000
0000
0101
0000
0001
0000
1100
,
0000
1000
0100
0002
0000
0103
1000
0001
,
0100
0010
0100
1001
,
1100
0000
0001
0011
0000
0101
0000
1010
,
0000
0200
0300
0001
0020
0000
0030
0000
,
0100
1000
0100
2000
3000
0100
0001
0100
,
0001
0100
0010
0002
0000
0000
0000
0000
,
2000
0000
0000
3003
,
0110
0000
0001
0100
1000
0100
0010
0000
,
1000
0100
0010
0000
0001
0100
0010
0000
,
1000
0100
0010
0001
1000
0100
0010
0100
,
2000
0000
3001
0001
,
0001
0100
1000
0001
0000
0001
0010
1000
,
0100
0001
1000
0010
0002
0003
0000
0001
,
1000
0000
0001
0000
0100
0000
0001
0100
0001
0000
0100
0000
0001
0000
0100
0001
,
0100
0000
0001
0000
1000
0000
0100
1000
0100
0000
1000
0000
0100
0000
0000
0000
,
1000
0100
0010
0000
0001
0100
0010
0000
,
1000
0100
0001
0000
0100
1000
0001
0000
,
0100
1000
0001
0000
0010
1000
0100
0000
,
0001
1000
0010
0001
0100
1000
0001
0010
,
1000
0001
1000
0001
,
1000
0100
0100
1000
0001
0001
0100
0001
,
1000
0100
0010
0001
,
0100
0000
0001
0100
0001
0000
1000
0100
1000
0000
0001
0100
0001
0000
1000
0000
,
0100
0010
0100
0001
0100
0010
0001
0100
,
0010
0100
0001
0001
1000
0100
1000
1000
,
0001
0100
1000
0100
0001
0010
1000
0010
,
0001
0001
1000
1000
0100
0001
1000
0010
,
0100
0000
1000
1100
0000
0101
0000
1010
,
0000
0011
0000
1100
0000
0101
0000
0110
,
0000
0010
2002
0000
0000
0000
3003
0001
,
1000
0000
0100
0000
0010
0001
0000
0001
,
0010
0000
0100
1000
0000
1000
0001
0100
,
0001
2100
3010
0102
,
0013
0100
0010
0001
0100
2000
3100
0001
,
0010
0100
1000
0001
0010
0100
2000
0000
,
0000
0000
0000
3000
,
1001
0000
1000
0100
1100
0000
0110
0000
,
0010
0001
0010
0100
1000
0000
1001
0000
,
0101
0000
0100
0010
0110
0000
1010
0000
,
1000
0000
0010
0000
0100
0000
0001
0000
0100
0000
0001
0000
0100
0000
0001
0100
,
0001
1000
0100
0010
,
0001
0010
0100
0000
1000
0000
0001
0000
,
0100
0010
0100
0000
0001
0000
0010
0000
,
0100
0000
1000
0000
0100
0000
1000
0000
0100
1000
0100
1000
0100
1000
0100
1000
,
0100
1000
0001
0100
1000
0001
1000
0100
,
0001
1000
0010
0001
1000
0001
0010
1000
,
0002
0010
0100
0023
,
0100
0001
1030
0100
,
0020
0000
0000
0000
,
0031
0100
1000
0001
0010
0100
0001
0010
,
0200
0000
0000
0000
0000
0000
0000
0300
,
1010
0000
0000
0000
0101
0000
0000
0000
0011
0000
0010
0000
0001
0010
0001
0000
,
0010
0100
1000
0100
0001
0100
0100
0000
,
1000
0001
0100
0001
0010
0000
0010
0000
,
0100
1000
0010
0100
0010
0001
0010
0010
,
0200
0310
0100
0010
,
0220
0000
0000
0000
,
0000
0000
0000
0000
,
0000
0000
0000
0000
,
0000
0330
0000
0000
;

//---------------dance-single - Telperion----------------
#NOTES:
     dance-single:
     Telperion:
     Medium:
     8:
     0.565,0.556,0.057,0.228,0.000:
1000
0000
0001
0000
0100
0001
0100
0000
,
0001
0000
1000
0000
0100
1000
0100
0000
,
1000
0001
1000
0001
0100
0010
0100
0001
,
1000
0000
0000
0000
,
0100
0010
0100
0000
1000
0100
0010
0000
,
0100
0010
0001
0000
0100
0001
0100
0000
,
0010
0100
0010
1000
0010
1000
0100
1000
,
0002
0000
1003
1000
,
0001
0100
0000
0100
0000
0001
1000
0100
,
0000
0100
1000
0100
0020
0030
0000
0010
,
0001
0000
0000
2000
0000
3000
0001
0000
,
1000
0100
0010
0001
,
0100
0010
0100
0000
0001
0010
0001
0000
,
1000
0010
1000
0000
0100
0010
0100
0000
,
1000
0100
1000
0000
0100
0001
0100
0000
,
0001
0010
0001
0000
0010
1000
0010
0000
,
1000
1000
0001
0001
,
1000
0100
0010
0001
1000
0100
0010
0001
,
0100
0100
0010
0010
,
1000
0010
0100
0001
0100
0010
1000
0100
,
0010
0000
0001
0010
0001
0010
0100
0000
,
1000
0100
0010
0100
0001
0000
0000
0000
,
0100
0000
0010
0100
0001
0100
0010
0100
,
1000
0001
1000
0010
1000
0100
0010
0002
,
0000
0003
0001
0000
0010
0000
0100
0000
,
1000
0001
0000
0100
0000
0010
0000
1000
,
0000
1000
0010
0200
0300
0100
0010
1000
,
0000
1000
0100
0000
1000
0000
0100
0000
,
1000
0000
0100
1000
0100
0000
1000
0001
,
1000
0200
0000
0310
0200
0000
1300
0001
,
1000
0000
0100
0020
0000
0130
0010
0001
,
1000
0000
0001
2000
0000
0000
0000
0000
,
0002
0000
0000
3003
,
1001
0000
1000
0100
1000
0000
0100
1000
,
0100
0010
0100
0010
0001
0100
0001
0000
,
0100
0001
1000
0010
1000
0100
0010
0001
,
0200
0000
0310
0010
,
1000
0100
1000
0001
0000
0100
0001
1000
,
0001
1000
0100
0010
0002
0013
0000
0000
,
0110
0000
0001
0200
0000
0300
0010
0000
,
1000
0010
0100
0001
0010
0100
1000
0010
,
0100
0010
0100
0000
0001
0010
0001
0000
,
1000
0010
1000
0000
0100
0010
0100
0000
,
1000
0010
1000
0010
0001
0010
0001
0000
,
0001
0100
0001
0100
1000
0100
1000
0000
,
1000
0001
1000
0001
,
1000
1000
0001
0001
1000
0001
1000
0001
,
1000
0000
0000
0000
,
0100
0010
0001
0100
0010
0100
0001
0010
,
0100
0000
0110
0000
0100
0010
0100
0000
,
1000
0000
1001
0000
0100
0001
0100
0000
,
0001
1000
0100
0000
1000
0001
0100
0000
,
0010
0100
0001
0100
0010
1000
0100
0010
,
0001
0000
0001
0100
0000
0100
0000
0100
,
0000
0010
0000
1000
0000
0100
0000
0010
,
0000
0100
2000
0000
0000
0000
0000
0000
,
3001
0000
0000
0000
0000
1010
0000
0000
,
1100
0100
1000
0001
0000
0100
0000
1000
,
0000
0100
0002
0000
1003
0001
2000
0000
,
3100
1000
0100
1000
0001
2000
3001
0100
,
1000
0100
0010
0002
,
0000
0000
0000
0003
,
0110
0000
0010
1000
0100
0001
0100
0010
,
0001
0010
0001
0010
0100
0010
0100
1000
,
0001
0000
0001
0100
0001
0000
1000
0100
,
1000
0000
0001
0010
0001
0000
1000
0100
,
0020
0000
0032
0000
,
0203
0000
0320
0000
,
0130
0100
0100
0100
,
0010
0100
0010
0100
0010
0010
0010
0010
,
0100
0000
0001
1000
0100
0001
0100
0010
,
0100
0010
0100
0010
0001
0010
0001
0100
,
0010
0000
1000
0100
0010
0000
0100
1000
,
0001
0100
0001
1000
0100
0010
0001
0010
,
0200
0000
0000
0000
,
1300
0010
0100
1000
0100
0010
1000
0100
,
0020
0000
0000
0000
,
0031
0100
0010
0001
0010
0100
0001
0010
,
0100
1000
0100
1000
0100
1000
0100
1000
,
0001
1000
0001
1000
0002
0000
0203
0000
,
0310
0100
0010
0100
0001
0100
0001
0010
,
0200
0000
1300
0010
0100
0100
0100
0100
,
0020
0000
0000
0000
,
0000
0000
0000
0000
,
0000
0000
0000
0000
,
0000
0030
0000
0000
;

//---------------dance-single - Telperion----------------
#NOTES:
     dance-single:
     Telperion:
     Easy:
     4:
     0.302,0.301,0.220,0.000,0.000:
1000
0100
0001
0100
,
1000
0010
0001
0010
,
1000
0100
0001
0010
,
1000
0000
0000
0000
,
0001
0000
1000
0100
,
0010
0001
0100
1000
,
0100
0010
1000
0100
,
0010
0000
0100
1000
,
0001
0000
0001
1000
,
0000
1000
0001
0001
,
1000
0100
0000
0010
,
0100
0000
0010
0001
,
0100
0110
0000
0110
,
0000
1010
0000
1010
,
0000
1100
0000
0011
,
0000
0101
0000
1010
,
1001
0000
0000
0000
,
0001
1000
0100
0000
,
1000
0000
0000
0000
,
0001
0001
0001
0001
,
0001
1000
0010
0000
,
0100
0010
1000
0100
,
0010
0100
0010
0001
,
0010
0000
0010
0000
,
0000
0100
0000
0000
,
0010
0001
0100
1000
,
0100
0010
0000
0000
,
1000
0001
1000
0100
,
1000
0001
0100
0010
,
1000
0000
1000
0000
,
1000
0000
0001
0000
,
1000
0000
0000
0000
,
0000
0000
0000
0000
,
1001
0001
1000
0100
,
0001
0100
1000
0000
,
0001
0100
1000
0100
,
0001
0000
1000
1000
,
0001
0000
0100
0000
,
1000
0000
0010
0000
,
0001
1000
0000
1000
,
0010
0100
0001
0100
,
0010
0110
0000
1010
,
0000
1100
0000
0110
,
0000
0011
0000
0101
,
0000
0110
0000
1001
,
0110
0000
0000
0000
,
0001
0010
1000
0100
,
0010
0000
0000
0000
,
0100
1000
0010
0001
,
0100
0010
1000
0010
,
0100
0010
0001
0010
,
1000
0100
0010
0001
,
0100
0010
1000
0100
,
0010
0000
0000
0000
,
0001
0100
1000
0100
,
0001
1000
0000
0000
,
1000
0100
0001
0100
,
1000
0000
0001
0100
,
0001
1000
1000
0001
,
0001
1000
0100
0000
,
0100
0000
0100
0100
,
0000
0000
0000
0000
,
0010
0000
0001
0000
,
0100
0000
1000
0000
,
0010
0000
0100
0000
,
0001
0000
0010
0000
,
1000
0000
0000
0000
,
0001
0000
0000
0000
,
1000
0000
0000
0000
,
0001
0001
0001
0001
,
0001
1000
1000
0100
,
0001
0100
0100
0010
,
0001
0100
1000
1000
,
0100
0010
0010
1000
,
0100
0000
0000
0000
,
0010
0011
0101
0110
,
0100
0000
0000
0000
,
0110
1010
0101
0011
,
1100
1000
0100
0001
,
0100
0010
0001
0100
,
0010
0100
0001
0010
,
0100
1000
0001
0010
,
0100
0000
0000
0000
;

//---------------dance-double - Telperion----------------
#NOTES:
     dance-double:
     Telperion:
     Challenge:
     11:
     0.789,0.835,0.294,0.359,0.371:
00010000
01000000
00100000
00010000
00001000
00100000
01000000
00000000
,
00001000
00000010
00000100
00010000
00001000
00000010
00000001
00000000
,
00000001
00000010
00000100
00001000
00010000
00100000
10000000
00010000
,
10010000
00000000
00000000
00000000
,
10000000
00000000
01000000
00000000
00010000
00000000
00001000
00010000
00001000
00000000
00010000
00000000
01000000
00000000
10000000
00000000
,
00100000
00000000
00010000
00000000
00001000
00000000
00000100
00001000
00000100
00000000
00001000
00000000
00010000
00000000
00000100
00000000
,
00000010
00000001
00000010
00000100
00010000
00000100
00001000
00010000
,
00200000
00300000
11000000
00101000
,
00002000
00100000
00000000
00000100
00000000
00103000
01000000
00010000
,
00001000
00000010
00000001
00001000
00000002
00001003
00000000
00001000
,
00000001
00000100
00001000
00020000
00000000
00031000
00000100
00010000
,
01000000
00000000
00100000
01000000
00100000
00000000
00010000
00000000
00001000
00010000
00001000
00000000
00010000
00000100
00000010
00000000
,
00000001
00000100
00000001
00000100
00000010
00000000
00000000
00000000
00001000
00000100
00001000
00000100
00000010
00000000
00000000
00000000
,
00000100
00010000
00000100
00010000
00001000
00000000
00000000
00000000
00010000
00000100
00010000
00000100
00001000
00000000
00000000
00000000
,
00000100
00010000
00001000
00100000
00010000
00000000
00000000
00000000
00100000
00001000
00010000
00000100
00001000
00000000
00000000
00000000
,
00000010
00001000
00000100
00010000
00001000
00000000
00000000
00000000
01000000
00010000
01000000
00010000
10000000
00000000
00000000
00000000
,
20020000
00000000
00000000
00000000
00000000
00000000
00000000
30030000
,
10010000
01000000
00010000
01001000
00100000
00010000
00010100
00001000
,
00002002
00000000
00000000
00000000
00000000
00000000
00000000
00003003
,
00000001
00001000
00000001
00000000
00001000
00000100
00001000
00000000
00000100
00010000
00001000
00100000
00001000
00100000
00010000
10000000
,
00010000
10000000
01000000
00010000
10000000
00100000
00010000
01000000
,
00010000
00000000
00100000
00000000
01000000
00000000
01000000
00010000
00001000
00000000
00010000
00000000
00000100
00000000
00000010
00000100
,
00000010
00000001
00000100
00001000
00000001
00001000
00000100
00000010
,
00001000
00000000
00000100
00001000
00000100
00000000
00001000
00000000
00000001
00000100
00000001
00000000
00001000
00000000
00000200
00000000
,
00000000
00000000
00000301
00000001
00000100
00000100
00001000
00010000
,
00100000
00000000
01000000
00000000
01000000
00000000
00100000
01000000
00100000
00000000
00010000
00000000
01000000
00000000
10000000
00000000
,
00000000
01000000
00010000
20020000
30030000
00010000
10000000
01000000
,
00100000
00001000
00010000
00000010
00000100
00000010
00010000
00001000
,
00100000
00000000
00010000
00000000
01000000
00000000
00010000
01000000
00010000
00000000
01000000
00000000
00100000
00000000
10000000
00000000
,
01000000
20020000
30030000
01000000
20020000
30030000
10010000
00000000
,
10000000
00000000
01000000
00000000
00010000
00000000
00001000
00010000
00001000
00000000
00010000
00000000
00000100
00001000
00000100
00000000
,
00010000
00000100
00000010
00000002
00000000
00000000
00000000
00000000
,
00002000
00000000
00000000
00003003
,
00000001
00000000
00000100
00000000
00001000
00000000
00010000
00001000
00010000
00000000
00001000
00000000
00000100
00000000
00000010
00000000
,
00001000
00000010
00001000
00000000
00000100
00000000
00000010
00000100
00000010
00000000
00000100
00000000
00001000
00000001
00001000
00000000
,
00000001
00000100
00001000
00010000
00000100
00001000
01000000
00010000
,
00002000
00000000
00013000
01010000
,
00100000
10000000
01000000
01100000
00000000
00000000
00100000
00001000
,
00010000
00110000
00000000
00010000
00002000
00013000
00000100
00000010
,
00000001
00000100
00001000
00020000
00000000
00031000
00000100
00000001
,
00000100
00000000
00001000
00000000
00010000
00000000
00100000
00000000
01000000
00100000
10000000
00000000
00010000
01000000
00100000
00000000
,
10000000
01000000
10000000
01000000
00100000
00000000
00000000
00000000
00010000
01000000
00010000
01000000
00100000
00000000
00000000
00000000
,
01000000
00001000
01000000
00001000
00010000
00000000
00000000
00000000
00001000
01000000
00010000
01000000
00001000
00000000
00000000
00000000
,
00010000
00001000
00010000
00000100
00001000
00000000
00000000
00000000
00000100
00010000
00001000
00100000
00010000
00000000
00000000
00000000
,
10000000
01000000
00100000
00010000
00100000
00000000
00000000
00000000
00001000
00010000
00000100
00001000
00000001
00000000
00000000
00000000
,
00002002
00000000
00000000
00000000
00000000
00000000
00000000
00003003
,
00001001
00000100
00001000
00001010
00010000
00001000
01001000
01010000
,
02200000
00000000
00000000
00000000
00000000
00000000
00000000
03300000
,
00100000
01000000
00100000
00000000
10000000
01000000
10000000
00000000
00100000
01000000
00010000
01000000
00001000
01000000
00001000
00010000
,
00001000
00000000
00010000
00000000
01000000
00000000
00100000
01000000
00100000
01000000
00100000
00000000
01000000
00000000
10000000
00000000
,
00010000
00000000
01000000
00000000
00010000
00000000
00010000
01000000
00010000
00000000
10000000
00000000
00010000
01000000
00010000
00000000
,
10000000
01000000
00010000
01000000
00001000
00000100
00001000
00000001
,
00000100
00000001
00000100
00001000
01000000
00010000
01000000
10000000
,
01000000
01000000
00100000
00100000
00010000
00010000
00001000
00000100
,
00000001
00000011
00000000
00010100
00000000
00101000
00000000
00110000
,
00000000
00100000
20020000
00000000
00000000
00000000
00030000
30010000
,
10000000
01000000
00100000
01000000
00010000
00001000
00000020
00000000
,
00000031
00000100
00000001
00000100
00001000
01000000
00100000
00010000
,
00001000
00100000
02000000
00000000
13000000
00100000
02000000
00000000
,
03010000
00000000
00100000
00000000
10000000
00000000
00100000
00000000
00010000
00000000
20000000
00000000
00000000
00000000
30010000
10000000
,
00010000
10000000
00010000
01000000
00010000
10000000
02000000
00000000
,
00000000
00000000
00000000
00000000
,
03010000
00002000
00000100
00000000
00010000
00000000
00003010
00000001
,
00000100
00000000
00001000
00000000
00010000
00000000
00001000
00010000
00001000
00000000
00010000
00000000
01000000
00000000
00000000
00000000
,
00100000
00000000
00000000
00000000
01000000
00100000
01000000
00000000
00010000
00000000
01000000
00000000
10000000
00000000
00010000
00000000
,
00000000
00001000
00000000
00000001
00001000
00000000
00010000
00000000
,
20000000
00000000
32000000
00010000
,
13000000
01000000
00020000
00000000
00001000
00000000
00100000
00030000
,
00010000
00002000
00000100
00000000
00010000
00000000
00003010
00000000
,
00000001
00000000
00000100
00000000
00001000
00000000
00010000
00000000
00001000
00010000
00001000
00010000
00001000
00010000
00001000
00010000
,
00001000
00000000
00010000
00000000
00000100
00000000
00001000
00000001
00000000
00000001
00001000
00000000
00000100
00000000
00000010
00000100
,
00001000
00000000
00000001
00000000
00000100
00000000
00000000
00000010
00000100
00000000
00000110
00000000
00000000
00000000
00001100
00000000
,
00000200
00000000
00000301
00000100
00001000
00010000
00200000
10000000
,
00000000
00310000
00100000
01000000
00010000
00001000
00000010
00000001
,
00000200
00000000
00000000
00000000
00000000
00000000
00000000
00000300
,
00000101
00000010
00000110
00001000
00001010
00000100
00001100
00011000
,
02010000
00000000
00000000
00000000
00000000
00000000
00000000
03000000
,
11000000
00000000
00010000
00000000
01010000
00000000
00010000
01000000
00001000
01000000
00010000
00000000
01000000
00001000
00010000
00000010
,
00001000
00000000
00000100
00000000
00000010
00000000
00000001
00000010
00000001
00000010
00000001
00000000
00000010
00000000
00000100
00001000
,
00000100
00010000
00001000
01000000
00200000
00000000
02300000
00000000
,
03010000
00000000
10000000
00000000
01000000
00000000
00100000
01000000
00100000
01000000
00100000
00000000
01000000
00000000
10000000
00000000
,
00020000
00000000
00000000
00000000
10030000
00000000
01000000
00000000
00100000
00010000
00100000
00001000
00010000
00001000
00100000
00001000
,
00020000
00000000
00000000
00000000
,
00000000
00000000
00000000
00000000
,
00000000
00000000
00000000
00000000
,
00000000
00030000
00000000
00000000
;
