#TITLE:Dream Chaser;
#SUBTITLE:From F-Zero X;
#ARTIST:Taro Bando;
#TITLETRANSLIT:;
#SUBTITLETRANSLIT:;
#ARTISTTRANSLIT:;
#CREDIT:;
#BANNER:;
#BACKGROUND:;
#LYRICSPATH:;
#CDTITLE:;
#MUSIC:02_dream_chaser.mp3;
#OFFSET:-0.040;
#SAMPLESTART:68.213;
#SAMPLELENGTH:12.000;
#SELECTABLE:YES;
#BPMS:0.000=290.020;
#STOPS:;
#BGCHANGES:;

//---------------dance-single - ----------------
#NOTES:
     dance-single:
     :
     Hard:
     10:
     0.649,1.000,0.155,0.204,0.000:
0000
0000
0000
0000
,
0000
0000
0000
0000
,
0000
0000
0000
0000
1000
0000
0000
1000
,
0000
0000
1000
0000
0100
0000
0000
0100
,
0000
0000
0100
0000
0010
0000
0000
0010
,
0000
0000
0010
0000
0100
0000
0000
0100
,
0000
0100
2000
0000
,
0000
0000
0000
0000
3100
0000
0000
0010
,
0000
0002
0000
0000
,
0000
0000
0000
0000
1003
0000
0000
0100
,
0000
0000
1000
0000
0100
0000
0000
0100
,
0000
0000
0100
0000
0010
0000
0000
0001
,
0000
0000
0010
0000
0100
0000
0000
1000
,
0000
0000
0010
0000
1000
0000
0000
0100
,
0000
0010
0002
0000
,
0000
0000
0000
0000
1003
0000
0000
1000
,
0000
0020
0000
0000
,
0000
0000
0000
0000
0031
0100
0010
1000
,
0010
0100
0001
0010
0200
0000
0000
0000
,
0000
0000
0000
0000
,
0000
0000
0000
0000
1300
0000
0000
0100
,
0000
0000
0110
0000
0010
0000
0000
0001
,
0000
0110
0020
0000
,
0000
0000
0000
0000
0130
0000
0000
1000
,
0000
0100
0000
0010
,
0000
0100
0000
0000
1000
0000
0000
0010
,
0000
0000
1000
0000
0100
0000
0000
0100
,
0000
0000
0100
0000
0010
0000
0000
0010
,
0000
0000
0001
0000
0010
0000
0000
0100
,
0000
0000
1000
0000
0100
0000
0000
0010
,
0000
0100
1000
0000
,
1000
0001
0010
0100
1000
0100
0010
0100
,
0010
0001
0010
0100
1000
0100
0010
0100
,
0010
0001
0010
0100
0010
0100
1000
0100
,
0010
0001
0010
0100
1000
0000
0100
0000
,
0010
0001
1000
0001
,
0100
0001
1000
0100
,
0001
0100
1000
0001
,
0010
0001
0000
0100
,
1000
0001
0100
0001
,
1000
0000
0100
0000
0010
0100
1000
0100
,
0010
0001
0010
0100
1000
0010
0100
0001
,
0100
0010
1000
0100
0010
0000
0001
0000
,
0011
0010
0110
0100
,
1100
1000
1010
0010
,
0110
0100
0101
0001
,
0010
0001
0000
1000
,
0010
0100
0001
0100
,
0010
0000
1000
0000
0100
0010
0001
0010
,
0100
1000
0100
1000
0100
0010
0100
0010
,
0001
0010
0100
1000
0200
0000
0000
0000
,
0000
0000
0000
0000
,
0000
0000
0000
0000
0310
0000
0000
0001
,
0000
0000
0110
0000
0100
0000
0000
1000
,
0000
1000
0002
0000
,
0000
0000
0000
0000
0000
0003
0000
0100
,
0000
0000
0100
0000
0010
0000
0000
1000
,
0000
0000
0100
0000
0010
0000
0000
0001
,
0000
0001
0100
0000
,
0000
0000
0000
0000
0000
0000
0001
0100
,
0010
1000
0010
0100
0001
0100
0010
1000
,
0010
0100
0001
0100
0010
1000
0010
0100
,
0001
0100
0010
1000
0020
0000
0000
0000
,
0000
0000
0000
0000
0000
0000
1030
0010
,
0100
0001
0010
0100
,
0010
0001
0010
0100
,
1000
0100
0020
0000
,
0000
0000
0000
0000
,
0000
0000
0030
0000
0100
0000
0000
1000
,
0000
0000
0010
0000
0100
0000
0000
0001
,
0000
0010
0100
0000
,
0000
0000
0000
0000
0000
0000
1000
0100
,
0010
0100
0010
0001
0010
0001
0010
0100
,
1000
0100
0010
0100
0010
0001
0010
0100
,
1000
0100
0010
0100
2000
0000
0000
0000
,
0000
0000
0000
0000
0000
0000
3001
0010
,
0001
0010
0001
0000
0010
0000
0000
0100
,
0000
0000
1000
0000
0100
0000
0000
0010
,
0000
0000
0001
0000
0010
0000
0000
0100
,
0000
0000
1000
0000
0100
0000
0000
0010
,
0000
0001
0020
0000
,
0000
0000
0030
0000
,
0000
0000
0000
0000
0001
0000
0000
1000
,
0000
0000
0001
0000
0100
0000
0000
0010
,
0000
0000
1000
0000
0001
0000
0000
0100
,
0000
0000
0001
0000
1000
0000
0000
0001
,
0000
0100
0002
0000
,
0000
0003
0000
0000
1001
0000
0000
1001
,
0000
2002
0000
0000
,
3003
0000
0000
0000
0100
0000
0000
0100
,
0000
0000
0100
0000
0010
0000
0000
1000
,
0000
0000
0100
0000
0010
0000
0000
0001
,
0000
0000
0010
0000
0100
0000
0000
0010
,
0000
0000
0100
0000
1000
0000
0000
0100
,
0000
0010
0002
0000
,
0000
0000
0003
0000
1001
0000
0000
0101
,
0000
2002
0000
0000
,
3003
0000
0000
0000
1000
0100
0010
0001
,
0010
0100
1000
0100
0020
0000
0000
0000
,
0000
0000
0000
0000
,
0000
0000
0000
0000
0130
0000
0000
1000
,
0000
0000
0100
0000
0010
0000
0000
0001
,
0000
0010
0100
0000
,
0000
0000
0000
0000
1001
0000
0000
1100
,
0000
0000
1001
0000
0000
0000
0000
0001
,
0000
0000
0010
0000
0001
0000
0000
1000
,
0000
0000
0001
0000
0100
0000
0000
0010
,
0000
0000
0010
0000
1000
0000
0000
0100
,
0000
0000
0010
0000
0001
0000
0000
0100
,
0000
0000
0010
0000
1000
0000
0000
0010
,
0000
0100
0001
0000
,
1000
0100
0010
0100
1000
0100
1000
0001
,
0010
0001
0010
0100
0010
0001
0010
0001
,
0100
0010
0100
0001
0010
0100
1000
0100
,
0010
0001
0010
0100
1000
0000
0100
0000
,
0010
0001
1000
0001
,
0100
0001
1000
0100
,
0010
0001
1000
0001
,
0100
0001
0000
0010
,
0010
0001
1000
0001
,
0100
0000
0001
0000
1000
0010
1000
0010
,
0100
0001
1000
0001
0010
0100
1000
0010
,
1000
0001
1000
0100
1000
0000
0001
0000
,
1000
0001
0100
0001
,
1000
0001
0100
0001
,
1000
0100
0010
0001
,
1000
0001
0000
0100
,
0001
1000
0100
0010
,
0001
0000
1000
0000
0001
0010
0001
0010
,
0100
1000
0001
0010
0100
1000
0100
0010
,
0001
1000
0100
0010
0002
0000
0000
0000
,
0000
0000
0000
0000
,
0000
0000
0000
0000
1003
0000
0000
1000
,
0000
0000
0100
0000
0010
0000
0000
0001
,
0000
0010
0200
0000
,
0000
0000
0000
0000
0000
0000
0000
0310
,
0000
0000
0001
0000
0010
0000
0000
0100
,
0000
0000
1000
0000
0100
0000
0000
0010
,
0000
0100
2000
0000
,
0000
0000
0000
0000
0000
0000
3001
0010
,
0100
1000
0010
0100
0001
0010
0100
1000
,
0010
1000
0001
0100
0001
1000
0001
0010
,
0100
1000
0100
0010
0002
0000
0000
0000
,
0000
0000
0000
0000
0000
0000
0013
0100
,
0010
0100
1000
0000
1000
0000
0100
0000
,
0010
0000
0001
0000
0010
0000
0100
1000
,
0010
1000
0001
1000
2002
0000
0000
0000
,
0000
0000
0000
0000
,
3003
0000
0000
0000
;

//---------------dance-single - ----------------
#NOTES:
     dance-single:
     :
     Challenge:
     12:
     1.000,1.000,0.497,1.000,0.114:
0000
0000
0000
0000
,
0000
0000
0000
0000
,
0000
0000
0000
0000
0001
0010
0100
1000
,
0001
0010
0100
1000
0001
0010
0100
1000
,
0001
0100
0010
1000
0010
0100
0001
0010
,
0100
1000
0010
0100
0001
0100
0010
1000
,
0100
1000
0001
0010
0100
1000
0100
0010
,
0001
0100
0010
1000
1100
0000
0000
0110
,
0000
0000
0022
0000
0000
0033
0000
0000
,
0000
0000
0000
0000
2000
0000
0000
3020
,
0000
0000
0130
0000
0001
0010
0100
1000
,
0001
0010
0100
1000
0010
1000
0001
0100
,
0010
1000
0010
0100
0001
0100
0010
1000
,
0001
0010
0100
1000
0010
0100
0001
0100
,
0010
1000
0100
0010
0001
1000
0010
0100
,
0001
1000
0010
0000
1100
0000
0000
1100
,
0000
0000
0000
0000
0000
0000
1100
0000
0000
0000
0000
0000
0010
0000
0001
0000
0100
0000
0010
0000
0000
1000
0000
0000
,
0010
0100
0001
0100
0001
1000
0010
0001
,
0010
1000
0010
0100
0002
0013
0100
1000
,
0010
0100
0001
0100
0010
1000
0100
0010
,
0001
0010
0100
1000
0020
0130
0001
0100
,
0010
1000
0002
0013
0002
0013
0100
2000
,
3010
0100
0002
0013
0200
0310
0001
0010
,
0100
1000
0100
0010
0001
0100
0010
1000
,
0010
0100
0001
0010
0100
1000
0110
0000
,
0000
0011
0000
0000
0011
0000
0000
0011
,
0000
0000
0011
0000
0001
0100
0010
1000
,
0010
0100
0001
0010
0100
1000
0010
0100
,
0001
1000
0100
1000
0001
0010
0100
1000
,
0010
0100
0002
0103
0020
1030
0100
2000
,
3010
0100
0002
0103
0020
1030
0010
0100
,
0001
0010
1000
0010
0001
0100
1000
0100
,
0001
0010
1000
0010
0100
0010
0001
0100
,
0010
0000
0000
1000
0000
0000
0100
0000
0000
0001
0000
0000
0100
0000
0000
1000
0000
0000
0010
0000
0100
0000
0001
0000
,
0100
0000
0010
0000
1000
0000
0010
0000
1000
0000
0001
0000
0010
0000
0000
0000
0000
0000
0022
0000
0000
0033
0000
0000
,
2200
3300
2200
3300
2200
3300
2200
3300
,
2020
3030
0202
0303
0202
0303
2002
3003
,
2200
3300
0220
0330
0022
0033
0022
0033
,
0022
0033
0022
0000
0033
0000
0101
0000
,
1010
1010
1010
1001
,
0011
0000
1100
0000
1000
0100
0010
0001
,
0010
0100
1000
0010
0001
0010
0100
0010
,
1000
0100
0001
0100
2000
0000
3020
0000
,
0032
0023
2030
3200
,
0320
0000
0032
0000
0203
0000
0320
0030
,
2000
3020
0230
0302
,
2003
3020
0000
0230
,
0302
0203
0320
2030
,
3020
0000
0000
0000
0000
0000
0230
0000
0000
0000
0000
0000
0301
0000
0100
0000
0001
0000
1000
0000
0000
0010
0000
0000
,
0100
0001
0010
0100
1000
0010
0001
0010
,
1000
0100
1000
0100
0020
0000
0000
0000
,
0000
0000
0000
0000
,
0000
0000
0000
0000
0032
0000
0000
0020
,
0033
0000
0012
0000
1000
0000
0000
0023
,
0000
0230
0320
0030
,
0001
0010
0100
1000
0010
0100
0001
1000
,
0010
0100
0001
0010
0100
1000
0100
0010
,
0001
0100
0010
1000
0010
0100
0001
0010
,
0100
1000
1100
0000
0011
0000
0000
0000
,
0000
0000
0000
0000
0000
0000
1000
0010
,
0001
0010
0100
0010
0100
0010
0001
0010
,
0100
0010
0001
0010
1000
0100
1000
0100
,
0010
0100
0010
0100
2000
0000
0000
0000
,
0000
0000
0000
0000
0000
0000
3001
0100
,
0010
1000
0010
1000
0010
0100
0001
1000
,
0100
0000
0000
0000
0000
0000
0010
0000
0000
0000
0000
0000
0001
0000
0100
0000
0001
0000
1000
0000
0000
0010
0000
0000
,
0100
0001
0100
0010
2000
0000
0000
0000
,
0000
0000
0000
0000
,
3000
0000
0000
0000
0002
0000
0000
0203
,
0000
0000
0320
0000
2030
0000
0000
3200
,
0000
0320
0031
0000
,
0000
0000
0000
0000
0000
0000
1000
0100
,
0010
0100
0010
0001
0010
0001
0010
0100
,
1000
0100
0010
0100
0010
0001
0010
0100
,
1000
0100
0010
0100
2000
0000
0000
0000
,
0000
0000
0000
0000
0000
0000
3001
0010
,
0001
0010
0001
0000
2000
0000
0000
3020
,
0000
0000
0230
0000
0302
0000
0000
0023
,
0000
0000
0230
0000
2300
0000
0000
3020
,
0000
0000
0230
0000
0302
0000
0000
2003
,
0000
3020
2030
0000
,
0000
0000
0000
0000
0000
0000
3001
0100
0010
1000
0010
1000
,
0001
0000
0000
0000
0001
0010
0100
1000
,
0001
0010
0100
1000
0200
0310
0001
0200
,
0310
1000
0020
0130
0002
0103
0010
2000
,
3010
0100
0002
0103
0002
1003
0100
0010
,
0001
0100
0101
0000
0002
0013
0100
1000
,
0100
0010
0001
0010
0011
0000
0000
1100
,
0000
2002
0000
0000
,
3003
0000
0000
0000
2000
0000
0000
3020
,
0000
0000
0230
0000
0302
0013
0100
2000
,
3010
0100
0002
0013
0200
1300
0010
0200
,
0301
0010
0200
1300
0002
0013
0100
2000
,
3010
0100
0002
0013
0002
1003
0010
2000
,
3010
0100
0002
0013
0002
0000
0000
0000
,
0000
0000
0003
0000
1001
0000
0000
0101
,
0000
0000
0000
0000
0000
0000
1001
0000
0000
0000
0000
0000
1000
0000
0010
0000
0100
0000
0010
0000
0000
1000
0000
0000
,
0010
0100
0001
0100
0010
1000
0001
0010
,
1000
0010
0100
0010
0002
0000
0000
0000
,
0000
0000
0000
0000
,
0000
0000
0000
0000
0203
0000
0000
0320
,
0000
0000
2030
0000
3020
0000
0000
0230
,
0000
0302
2000
0000
,
0000
3003
0000
0000
1001
0000
0000
1100
,
0000
0000
0011
0000
0000
0000
0000
0002
,
0000
0000
0203
0000
0320
0000
0000
2030
,
0000
0000
3002
0000
1003
0100
0010
0001
,
0010
0100
1000
0010
1000
0001
1000
0010
,
0100
0001
0010
0100
1000
0010
0100
0001
,
0010
0100
1000
0010
0100
0001
0100
0010
,
1000
0100
0010
0001
0010
0100
1000
0001
,
1000
0010
0001
0010
0100
0001
0010
0100
,
1000
0010
0001
0010
0100
0001
0010
0100
,
1000
0000
0000
0100
0000
0000
0001
0000
0000
0100
0000
0000
0010
0000
0001
0000
1000
0000
0100
0000
0010
0000
0001
0000
,
0100
0001
0100
0010
1000
0001
0010
0000
0000
1100
0000
0000
,
0100
0110
0010
0011
,
0001
0101
0100
0110
,
0010
0110
0010
1010
,
0100
0001
0000
0011
,
0110
1100
1100
1100
,
1100
0000
1100
0000
0010
0001
0100
1000
,
0100
0010
1000
0100
0010
0001
0010
1000
,
0010
0100
1000
0010
0100
0000
0002
0000
,
0203
0320
2030
3020
,
0230
0302
0023
0230
,
2300
3020
0230
0302
,
2003
3010
0000
0200
,
0302
2003
3200
0320
,
0032
0000
0203
0000
0301
0010
0100
1000
,
0010
0001
0010
0100
0001
0010
0100
1000
,
0010
0001
0010
0100
0002
0000
0000
0000
,
0000
0000
0000
0000
,
0000
0000
0000
0000
0203
0000
0000
0320
,
0000
0000
0230
0000
0302
0000
0000
0203
,
0000
0320
2030
0000
,
3010
0100
0001
0100
0010
1000
0100
0010
,
0001
0010
0100
1000
0010
1000
0010
0100
,
0001
0100
0001
0100
0010
1000
0001
0100
,
0001
1000
0010
0100
0020
0000
0000
0000
,
0000
0000
0000
0000
0030
0000
1000
0010
,
0100
0001
0010
1000
0010
0001
0100
0010
,
1000
0010
0100
0001
0100
0010
1000
0100
,
0001
0100
1000
0010
0002
0000
0000
0000
,
0000
0000
0000
0000
0000
0000
0013
0100
,
0001
0010
0100
0000
1000
0000
0100
0000
,
0010
0000
0000
0000
0000
0000
0001
0000
0000
0000
0000
0000
0010
0000
0100
0000
1000
0000
0010
0000
0000
0100
0000
0000
,
0001
0100
0001
1000
2002
0000
0000
0000
,
0000
0000
0000
3003
;

//---------------dance-single - Copied from----------------
#NOTES:
     dance-single:
     Copied from:
     Easy:
     6:
     0.400,0.542,0.049,0.057,0.000:
0000
0000
0000
0000
,
0000
0000
0000
0000
,
0000
0000
0000
1000
,
0100
0000
0010
0000
,
0100
0000
1000
0000
,
0100
0000
0010
0000
,
0100
0000
1000
0000
,
0100
0000
0000
0000
0010
0000
0000
0100
,
0000
0010
0000
0000
,
0000
0000
0000
0000
0100
0000
0000
1000
,
0000
0100
0010
0000
,
0100
0000
1000
0000
,
0100
0000
0010
0000
,
0100
0000
1000
0000
,
0100
0000
0010
0000
,
0100
0000
0000
0000
1000
0000
0000
0100
,
0000
1000
0000
0000
,
0000
0000
0100
0010
,
0100
1000
0100
0000
,
0000
0000
0000
0000
,
0000
0000
0000
0000
1000
0000
0000
0100
,
0000
0000
1000
0000
0100
0000
0000
1000
,
0000
0100
0010
0000
,
0000
0000
0000
0000
0100
0000
0000
0010
,
0000
0100
0000
0000
,
0000
0000
0000
0000
1000
0000
0000
0100
,
0000
0000
1000
0000
0000
0100
0000
0000
,
0010
0000
0100
0000
,
1000
0000
0100
0000
,
0010
0000
0100
0000
,
1000
0000
0100
0000
,
1000
0100
0010
0100
,
1000
0001
0100
0010
,
1000
0100
0010
0100
,
0010
0100
1000
0000
,
0100
0000
0010
0000
,
0100
0000
1000
0000
,
0001
0000
0100
0000
,
0010
0000
1000
0000
,
0100
0000
0010
0000
,
0100
0000
0001
0010
,
0001
0010
0001
1000
,
0001
1000
0001
0000
,
0100
0000
0100
0000
,
1000
0000
0100
0000
,
0010
0000
0001
0000
,
1000
0000
0000
0000
,
0010
0000
1000
0000
,
0100
0000
0100
0010
,
0100
0010
0100
1000
,
0100
1000
0100
0000
,
0100
0000
1000
0000
,
0100
0000
0010
0000
,
0100
0000
1000
0000
,
0001
0000
0100
0000
,
0010
0000
1000
0000
,
0100
0000
0010
0000
,
0100
0000
1000
0000
,
0001
0000
1000
0000
,
0100
0000
0010
0000
,
0001
0010
0100
1000
,
0001
0010
0100
1000
,
0001
0010
0100
0000
,
0100
0000
1000
0000
,
0001
0000
0100
0001
,
0100
0001
1000
0001
,
0010
0000
0100
0000
,
1000
0000
0100
0000
,
0010
0000
0100
0000
,
1000
0000
0001
0000
,
1000
0000
1001
0000
,
0000
0000
0000
1000
,
0100
0010
0100
1000
,
0010
0100
0010
1000
,
0100
0010
0001
0000
,
0100
0000
1000
0000
,
0001
0000
0100
0000
,
0010
0000
1000
0000
,
0100
0000
1000
0000
,
0100
0000
0010
0000
,
0100
0000
0220
0000
,
0330
0000
0000
0000
,
0000
0000
1000
0100
,
0010
0000
0100
0000
,
1000
0000
0001
0100
,
0001
0000
1000
0000
,
0100
0000
0010
0000
,
0000
0000
0000
0000
0100
0000
0000
1000
,
0000
0100
0000
0000
,
0000
0000
0000
0000
0100
0000
0000
1000
,
0000
0100
0010
0000
,
0100
0000
0001
0000
,
0010
0000
0100
0000
,
1000
0000
0100
0000
,
0010
0000
0001
0000
,
1000
0000
0000
0000
0001
0000
0000
1000
,
0000
0001
0000
0000
,
0000
0000
1000
0100
,
0010
0001
1000
0000
,
0100
0000
0010
0000
,
0001
0000
1000
0000
,
0010
0000
0100
0000
,
0001
0000
1000
0000
,
0000
0000
0000
0000
0100
0000
0000
0010
,
0000
0100
0000
0000
,
0000
0000
0000
0000
0100
0000
0000
1000
,
0000
0100
1000
0000
,
0100
0000
0010
0000
,
0100
0000
1000
0000
,
0100
0000
0010
0000
,
0001
0000
1000
0000
,
1000
0100
0001
0100
,
1000
0010
0001
0010
,
1000
0100
0001
0100
,
1000
0001
0100
0010
,
0100
0000
1000
0000
,
0100
0000
0010
0000
,
0100
0000
1000
0000
,
0001
0000
0000
0000
,
0100
0000
0010
0000
,
0100
0000
1000
0100
,
0010
0001
1000
0100
,
0010
0001
1000
0000
,
0010
0000
0100
0000
,
0010
0000
1000
0000
,
0001
0000
0011
0000
,
1001
0000
0000
0000
,
0100
0000
1000
0000
,
0001
0000
0010
0100
,
0001
1000
0010
0100
,
0001
1000
0010
0000
,
0100
0000
0010
0000
,
0100
0000
1000
0000
,
0100
0000
0010
0000
,
0100
0000
0220
0000
,
0330
0000
0000
0000
,
0100
0000
0010
0000
,
0001
0000
0010
0000
,
0001
0000
0022
0000
,
0033
0000
0000
0001
,
0010
0100
1000
0001
,
0100
0010
1000
0100
,
0100
0010
0010
0000
,
0000
0000
0100
0000
,
1000
0000
0100
0010
,
0100
1000
0001
0100
,
0010
1000
0200
0000
,
0000
0000
0000
0000
,
0300
0000
0000
0000
;

//---------------dance-single - ----------------
#NOTES:
     dance-single:
     :
     Medium:
     9:
     0.706,1.000,0.440,1.000,0.000:
0000
0000
0000
0000
,
0000
0000
0000
0000
,
0000
0000
0000
0000
1100
0000
0000
1100
,
0000
0000
1100
0000
0110
0000
0000
0110
,
0000
0000
0110
0000
0011
0000
0000
0011
,
0000
0000
0011
0000
0011
0000
0000
1001
,
0000
1010
2000
0000
,
0000
0000
0000
0000
3100
0000
0000
0110
,
0000
0012
0000
0000
,
0000
0000
0000
0000
1003
0000
0000
0100
,
0000
0000
1100
0000
0100
0000
0000
0010
,
0000
0000
0110
0000
0010
0000
0000
0001
,
0000
0000
0011
0000
0001
0000
0000
0100
,
0000
0000
1010
0000
1000
0000
0000
0100
,
0000
0010
0012
0000
,
0000
0000
0000
0000
1003
0000
0000
1000
,
0000
0020
0000
0000
,
0000
0000
0031
0100
,
0010
1000
0200
0000
,
0000
0000
0000
0000
,
0000
0000
0000
0000
1300
0000
0000
0100
,
0000
0000
0110
0000
0010
0000
0000
0001
,
0000
0110
0020
0000
,
0000
0000
0000
0000
0230
0000
0000
2300
,
0000
3200
0000
2300
,
0000
0200
0000
3300
1100
0000
0000
0100
,
0000
0000
0110
0000
0020
0000
0000
0002
,
0000
0033
0011
0000
0002
0000
0000
0200
,
0000
0303
0101
0000
0020
0000
0000
2000
,
0000
3030
1010
0000
2000
0000
0000
0002
,
0000
3003
1001
0000
1000
0000
0000
0000
,
0001
0010
0001
0000
1000
0000
0010
0000
,
1000
0100
1000
0000
0010
0000
0010
0000
,
1000
0010
1000
0000
0100
0000
0010
0000
,
0001
0100
0001
0000
2000
0000
3200
0000
,
0302
0203
2300
3020
,
0032
0023
0230
0320
,
2030
3200
0320
0032
,
0203
0310
0000
0020
,
2030
3020
0230
0302
,
2003
0000
3002
0000
0013
0100
1000
0000
,
0010
0100
0001
0010
,
0100
1000
0100
1000
,
0000
2200
3300
0220
,
0330
0022
0033
2002
,
3003
2020
3030
2020
,
3030
0110
0001
1001
,
0010
0100
0001
0100
,
0010
1000
0100
1000
,
0001
0100
0010
1000
,
0010
0100
0200
0000
,
0000
0000
0000
0000
,
0000
0000
0000
0000
0302
0000
0000
2000
,
0000
3003
1001
0000
0002
0000
0000
0020
,
0000
0033
0011
0000
0002
0000
0000
0000
,
0000
0000
0000
0000
0000
0003
0000
2000
,
0000
0000
3200
0000
0320
0000
0000
0032
,
0000
0000
0203
0000
0320
0000
0000
2030
,
0000
3200
0320
0000
,
0000
0000
0000
0000
0000
0000
0031
0010
,
0001
0010
0001
0010
0001
0010
0001
0010
,
0001
0010
0001
0010
0001
0010
0001
0010
,
0001
0010
0001
0010
0002
0000
0000
0000
,
0000
0000
0000
0000
0000
0000
1003
0010
,
0100
0001
0010
0100
,
0010
0001
0010
0100
,
1000
0100
0020
0000
,
0000
0000
0000
0000
,
0000
0000
0030
0000
0200
0000
0000
2000
,
0000
3300
1100
0000
0200
0000
0000
0020
,
0000
0330
0110
0000
0001
0000
0000
0000
,
0000
0000
0000
1000
,
0010
0100
0001
0010
,
0100
1000
0010
0100
,
0001
0010
0200
0000
,
0000
0000
0000
1300
,
0010
0000
0100
0000
0002
0000
0000
0100
,
0000
0000
1000
0000
0203
0000
0000
0010
,
0000
0000
0001
0000
0320
0000
0000
0100
,
0000
0000
1000
0000
0230
0000
0000
0010
,
0000
0000
0001
0300
0020
0000
0000
0000
,
0000
0000
0030
0000
,
0000
0000
0000
0000
0200
0000
0000
2300
,
0000
0000
3002
0000
0203
0000
0000
0320
,
0000
0000
2030
0000
3002
0000
0000
0203
,
0000
0000
0310
0000
1000
0000
0000
0001
,
0000
0100
0002
0000
,
0000
0003
0000
0000
1001
0000
0000
1001
,
0000
2002
0000
0000
,
3003
0000
0000
0000
0100
0000
0000
0100
,
0000
0000
0100
0000
0010
0000
0000
1000
,
0000
0000
0100
0000
0010
0000
0000
0001
,
0000
0000
0010
0000
0100
0000
0000
0010
,
0000
0000
0100
0000
1000
0000
0000
0100
,
0000
0010
0002
0000
,
0000
0000
0003
0000
1001
0000
0000
0101
,
0000
2002
0000
0000
,
3003
0000
1000
0100
,
0010
0001
0020
0000
,
0000
0000
0000
0000
,
0000
0000
0000
0000
0130
0000
0000
1000
,
0000
0000
0100
0000
0010
0000
0000
0001
,
0000
0010
0100
0000
,
0000
0000
0000
0000
1001
0000
0000
1100
,
0000
0000
1001
0000
0000
0000
0000
0001
,
0000
0000
0010
0000
0002
0000
0000
2000
,
0000
3003
1001
0000
2000
0000
0000
0020
,
0000
3030
1010
0000
0200
0000
0000
0020
,
0000
0330
0110
0000
0200
0000
0000
0002
,
0000
0303
0101
0000
0002
0000
0000
0200
,
0000
0303
0101
0000
0100
0000
0000
0000
,
0010
1000
0100
0010
,
0001
0100
0010
1000
,
0010
0100
0010
1000
,
0010
1000
0001
2000
,
3020
0230
0302
0203
,
0320
2030
3200
2300
,
3020
0230
0302
0203
,
0320
1030
0000
0100
,
0010
0001
1000
0001
,
0100
0000
0001
0000
1000
0010
1000
0010
,
1000
0001
1000
0010
1000
0010
1000
0001
,
1000
0010
1000
0010
1000
0000
0001
0000
,
1000
0001
0100
0001
,
1000
0001
0100
0001
,
1000
0100
0010
0001
,
1000
0001
0000
0100
,
0001
1000
0100
0010
,
0001
0000
1000
0000
0001
0010
0001
0000
,
0100
0001
1000
0100
,
0010
0001
0200
0000
,
0000
0000
0000
0000
,
0000
0000
0000
0000
0310
0000
0000
1000
,
0000
0000
0100
0000
0010
0000
0000
0001
,
0000
0010
0200
0000
,
0000
0000
0000
0000
0000
0000
0000
0310
,
0000
0000
0001
0000
0010
0000
0000
0100
,
0000
0000
1000
0000
0100
0000
0000
0010
,
0000
0100
2000
0000
,
0000
0000
0000
0000
0000
0000
3001
0010
,
0001
0010
0100
1000
,
0010
0100
0001
0010
,
0100
1000
0002
0000
,
0000
0000
0000
0000
0000
0000
0013
0100
,
1000
0010
0100
0001
,
0100
0000
0010
0000
0010
0000
0010
0100
,
1000
0001
2002
0000
,
0000
0000
0000
0000
,
3003
0000
0000
0000
;

//---------------dance-single - ----------------
#NOTES:
     dance-single:
     :
     Beginner:
     3:
     0.225,0.542,0.065,0.016,0.000: // measure 1
0000
0000
0000
0000
,  // measure 2
0000
0000
0000
0000
,  // measure 3
0000
0000
0000
1000
,  // measure 4
0000
0000
0100
0000
,  // measure 5
0000
0000
0010
0000
,  // measure 6
0000
0000
0001
0000
,  // measure 7
0000
0000
0100
0000
,  // measure 8
0000
0000
0010
0000
,  // measure 9
0000
0010
0000
0000
,  // measure 10
0000
0000
1000
0000
,  // measure 11
0000
0000
0100
0000
,  // measure 12
0000
0000
0100
0000
,  // measure 13
0000
0000
0010
0000
,  // measure 14
0000
0000
0001
0000
,  // measure 15
0000
0000
0100
0000
,  // measure 16
0000
0000
0010
0000
,  // measure 17
0000
0010
0000
0000
,  // measure 18
0000
0000
1000
0000
,  // measure 19
1000
0000
1000
0000
,  // measure 20
0000
0000
0000
0000
,  // measure 21
0000
0000
0100
0000
,  // measure 22
0000
0000
0010
0000
,  // measure 23
0000
0000
0001
0000
,  // measure 24
0000
0000
0100
0000
,  // measure 25
0000
0100
0000
0000
,  // measure 26
0000
0000
0000
0000
,  // measure 27
0000
0000
0010
0000
,  // measure 28
0000
0000
1000
0000
,  // measure 29
0000
0000
0100
0000
,  // measure 30
0000
0000
0010
0000
,  // measure 31
0000
0000
0001
0000
,  // measure 32
1000
0000
0100
0000
,  // measure 33
0010
0000
0001
0000
,  // measure 34
0100
0000
0010
0000
,  // measure 35
1000
0000
0100
0000
,  // measure 36
0010
0010
0010
0000
,  // measure 37
0001
0000
0100
0000
,  // measure 38
0010
0000
1000
1000
,  // measure 39
1000
0000
0000
0000
,  // measure 40
0100
0000
0010
0000
,  // measure 41
0001
0000
1000
0000
,  // measure 42
1000
0000
0100
0000
,  // measure 43
0100
0000
0010
0000
,  // measure 44
0001
0000
0100
0000
,  // measure 45
0010
0000
1000
0000
,  // measure 46
0010
0000
0100
0000
,  // measure 47
0001
0000
0000
0000
,  // measure 48
0010
0000
0100
0000
,  // measure 49
1000
0000
0100
0000
,  // measure 50
0100
0000
0010
0000
,  // measure 51
0010
0000
0001
0000
,  // measure 52
0000
0000
0000
0000
,  // measure 53
0000
0000
0010
0000
,  // measure 54
0000
0000
0100
0000
,  // measure 55
0000
0000
1000
0000
,  // measure 56
0000
0000
0000
0000
,  // measure 57
0000
0000
0010
0000
,  // measure 58
0000
0000
0100
0000
,  // measure 59
0000
0000
0001
0000
,  // measure 60
0000
0000
0000
0000
,  // measure 61
0010
0000
0010
0000
,  // measure 62
0100
0000
0100
0000
,  // measure 63
1000
0000
0001
0000
,  // measure 64
0000
0000
0000
0010
,  // measure 65
0000
0000
0100
0000
,  // measure 66
0100
0000
0100
0000
,  // measure 67
1000
0000
1000
0000
,  // measure 68
0000
0000
0000
0000
,  // measure 69
0000
0000
0001
0000
,  // measure 70
0000
0000
0010
0000
,  // measure 71
0000
0000
0100
0000
,  // measure 72
0000
0000
0000
0000
,  // measure 73
1000
0000
1000
0000
,  // measure 74
0100
0000
0100
0000
,  // measure 75
0010
0000
0000
0000
,  // measure 76
0000
0000
0000
0000
,  // measure 77
0001
0000
0010
0000
,  // measure 78
0000
0000
0100
0000
,  // measure 79
0000
0000
1000
0000
,  // measure 80
0000
0000
0010
0000
,  // measure 81
0000
0000
0100
0000
,  // measure 82
0000
0000
0000
0000
,  // measure 83
0000
0000
0001
0000
,  // measure 84
0000
0000
0001
0000
,  // measure 85
0000
0000
0010
0000
,  // measure 86
0000
0000
0100
0000
,  // measure 87
0000
0000
1000
0000
,  // measure 88
0000
0000
0001
0000
,  // measure 89
0000
0001
0000
0000
,  // measure 90
0000
0000
0010
0000
,  // measure 91
0000
0000
0100
0000
,  // measure 92
0000
0000
1000
0000
,  // measure 93
0000
0000
0001
0000
,  // measure 94
0000
0000
0010
0000
,  // measure 95
0000
0000
0100
0000
,  // measure 96
0000
0000
0010
0000
,  // measure 97
0000
0100
0000
0000
,  // measure 98
0000
0000
1000
0000
,  // measure 99
1000
0000
0100
0000
,  // measure 100
0000
0000
0000
0000
,  // measure 101
0000
0000
1001
0000
,  // measure 102
0000
0000
0110
0000
,  // measure 103
0000
0000
1001
0000
,  // measure 104
0000
0000
0100
0000
,  // measure 105
0000
0100
0000
0000
,  // measure 106
0000
0000
0000
0000
,  // measure 107
0000
0000
0010
0000
,  // measure 108
0000
0000
0001
0000
,  // measure 109
0000
0000
0100
0000
,  // measure 110
0000
0000
0010
0000
,  // measure 111
0000
0000
1000
0000
,  // measure 112
0100
0000
0100
0000
,  // measure 113
0010
0000
0001
0000
,  // measure 114
0001
0000
0100
0000
,  // measure 115
0010
0000
1000
0000
,  // measure 116
0001
0000
0010
0000
,  // measure 117
0001
0000
1001
0000
,  // measure 118
0110
0000
1001
0000
,  // measure 119
0110
0000
0000
0000
,  // measure 120
0100
0000
0010
0000
,  // measure 121
0100
0000
0010
0000
,  // measure 122
0010
0000
0100
0000
,  // measure 123
0100
0000
1000
0000
,  // measure 124
0001
0000
0010
0000
,  // measure 125
0100
0000
1000
0000
,  // measure 126
0100
0000
0010
0000
,  // measure 127
0001
0000
0000
0000
,  // measure 128
1000
0000
0010
0000
,  // measure 129
0100
0000
0010
0000
,  // measure 130
0010
0000
0001
0000
,  // measure 131
0000
0000
0010
0000
,  // measure 132
0000
0000
0000
0000
,  // measure 133
0000
0000
0100
0000
,  // measure 134
0000
0000
1000
0000
,  // measure 135
0000
0000
0010
0000
,  // measure 136
0000
0000
0000
0000
,  // measure 137
0000
0000
0100
0000
,  // measure 138
0000
0000
0001
0000
,  // measure 139
0000
0000
0010
0000
,  // measure 140
0000
0000
0000
0000
,  // measure 141
0100
0000
0100
0000
,  // measure 142
1000
0000
1000
0000
,  // measure 143
0010
0000
0100
0000
,  // measure 144
0000
0000
0000
0000
,  // measure 145
0001
0000
1000
0000
,  // measure 146
0100
0000
0010
0000
,  // measure 147
0001
0000
2002
0000
,  // measure 148
0000
0000
0000
0000
,  // measure 149
3003
0000
0000
0000
;
