#TITLE:Cry! Roar!!;
#SUBTITLE:;
#ARTIST:Manabu Namiki, Kimihiro Abe;
#TITLETRANSLIT:;
#SUBTITLETRANSLIT:;
#ARTISTTRANSLIT:;
#GENRE:;
#CREDIT:;
#BANNER:Cry! Roar!!.png;
#BACKGROUND:;
#LYRICSPATH:;
#CDTITLE:;
#MUSIC:09 Cry! Roar!!.mp3;
#OFFSET:-0.280;
#SAMPLESTART:64.540;
#SAMPLELENGTH:12.000;
#SELECTABLE:YES;
#BPMS:0.000=142.000,16.000=90.000,32.000=45.000,34.000=360.000,162.000=185.000,226.000=92.500,228.000=360.000,356.000=185.000,420.000=92.500,422.000=360.000;
#STOPS:15.938=0.316
;
#BGCHANGES:;
#KEYSOUNDS:;

//---------------dance-single - Blank----------------
#NOTES:
     dance-single:
     Blank:
     Challenge:
     13:
     1.000,1.000,0.411,0.070,0.628,847.000,53.000,9.000,0.000,0.000,0.000,1.000,1.000,0.411,0.070,0.628,847.000,53.000,9.000,0.000,0.000,0.000:
0000
0000
0000
0000
,
0000
0000
0000
0000
,
0000
0000
0000
0000
,
0000
0000
0000
0000
,
0201
0000
0020
0300
,
2000
0000
0000
0000
0000
0000
0000
0000
0000
0000
0000
0000
3030
0000
0000
0101
,
1001
0000
0010
0110
0100
0000
0001
0011
0000
1001
0000
1010
0010
0000
0100
0101
,
1001
0000
1000
1100
0100
0000
1000
1010
0000
0110
0000
0101
0001
1010
1100
0101
,
0010
0000
0000
0000
0000
0000
0000
0000
0000
0000
0000
0000
0000
0000
0000
0000
0000
0000
1000
0000
0001
0000
1000
0000
0001
0100
0010
1000
0001
0010
0100
1000
0001
0000
0000
0000
0000
0000
0000
0000
0000
0000
0000
0000
0000
0000
0000
0000
0010
0000
0000
0000
0000
0000
0000
0000
0100
0000
0000
0000
0000
0000
0000
0000
,
1000
0000
0001
0000
0100
0000
0010
0100
,
0001
0000
0010
0000
0100
0000
1000
0001
,
0100
0001
1000
0100
0010
0000
0011
0000
,
0101
0000
0011
0000
0001
0000
1000
0100
,
0010
0000
0001
0000
0100
0000
0010
1000
,
0100
0000
0010
0000
0001
0100
0010
0100
,
0001
1000
0100
0010
0001
0000
1000
0100
,
0001
0000
1100
0000
0010
0000
1000
0100
,
0010
0000
0001
0000
0100
0000
0001
0010
,
0100
0000
1000
0000
0001
0000
0100
0010
,
1000
0010
0100
0001
0010
0000
1100
0000
,
1001
1100
0010
0001
,
1000
0000
0001
0000
0100
0000
0010
1000
,
0100
0000
0010
0000
0001
0010
0001
0010
,
0100
1000
0100
1000
0001
0000
1000
0010
,
0001
1010
1001
0100
,
0010
0000
1000
0000
0001
0000
0010
0100
,
1000
0000
0001
0000
0100
0000
0001
1000
,
0001
0100
0010
1000
0100
0000
0011
0000
,
1001
0000
0011
0000
0100
0000
1000
0001
,
0010
0000
0001
0000
0100
0000
0010
1000
,
0100
0000
0010
0000
0001
0100
0001
0010
,
0100
1000
0010
0000
0100
0000
0001
0010
,
0100
0000
0011
0000
0100
0000
0010
1000
,
0100
0000
1000
0000
0001
0000
0100
0010
,
1000
0000
0001
0000
0010
0000
0001
0100
,
0001
1000
0001
1000
0010
0100
0001
0100
,
0010
1000
0001
1000
0100
0000
0010
0000
,
0100
0000
1000
0000
0001
0000
0100
0001
,
1000
0000
0100
0000
0010
0001
0010
0000
,
0100
1000
0100
0000
0110
0000
0001
0010
,
0100
0000
0000
0000
1100
0000
0000
0000
0001
0000
0001
0000
0100
0000
0010
1000
,
0100
0000
0010
0000
0001
1000
0010
1000
0001
0000
0000
0001
0100
0000
0010
0000
,
1000
0100
1000
0100
0010
0001
0010
0001
0100
0000
0100
0000
0010
0000
1000
0100
,
0010
0000
0100
0000
1000
0001
0010
0001
1000
0000
0000
1000
0010
0000
0100
0000
,
0001
0010
0001
0010
0100
1000
0100
1000
0010
0000
0010
0000
0100
0000
0001
1000
,
0100
0000
0010
0000
0001
0100
1000
0100
0001
0000
0000
0001
1000
0000
0100
0000
,
0010
0001
0010
0001
0100
0010
0100
0010
1000
0000
1000
0000
0100
0000
0010
0001
,
0100
0000
0001
0000
1000
0100
0010
0100
1000
0000
0000
1000
0010
0000
0100
0000
,
0001
0010
0001
0010
0100
1000
0100
1000
0001
0000
1000
0010
0100
0000
0001
1000
,
0100
0000
0000
0000
0010
0000
0001
1000
0010
0000
1000
0001
0100
0000
0000
0000
,
0001
0010
0001
1000
0010
0100
0010
1000
0100
0000
0010
0001
0100
0000
0001
1000
,
0100
0000
0000
0000
0010
0000
0001
0100
0010
0000
1000
0001
0100
0000
0000
0000
,
0001
0010
0001
0100
0010
1000
0010
0100
0001
0000
0010
0100
1000
0000
0001
0100
,
0010
0000
0000
0000
1000
0000
0001
1000
0010
0000
1000
0001
0010
0000
0000
0000
,
0100
1000
0100
0010
0001
0100
0001
0010
0100
0000
1000
0001
0010
0000
0001
1000
,
0100
0000
0000
0000
1000
0000
0010
0100
0001
0000
0100
0010
1000
0000
0000
0000
,
0100
0010
0100
1000
0001
0100
0001
0010
0200
0000
0020
0300
0002
0030
2000
0003
,
3010
0000
0100
0001
0010
0000
0100
0000
,
1000
0000
0001
0100
0010
0000
0100
0000
,
0001
0000
1000
0100
0001
0100
1000
0010
,
0100
0101
1001
0101
,
0010
0000
1000
0100
0010
0000
0001
0000
,
1000
0000
0010
0100
0001
0000
1000
0000
,
0100
0010
0001
0010
0100
1000
0001
0100
,
0010
0000
1000
0100
0001
0000
1100
0000
,
0001
0000
0100
0010
1000
0000
0001
0000
,
0010
0000
0001
0010
0100
0000
1000
0000
,
0001
0000
0100
0001
1000
0100
1000
0100
,
0010
0001
0100
0010
1000
0000
0010
0000
,
0100
0001
1000
0001
,
0010
0000
0100
1000
0010
0000
1000
0000
,
0100
1000
0100
1000
0001
0100
0001
0100
,
0010
0000
1000
0001
0010
0000
1100
0000
,
1001
0010
1000
0001
,
0010
0000
0100
1000
0010
0000
0100
0000
,
0001
0000
1000
0100
0010
0001
0010
0001
,
1000
1010
0011
1010
,
0100
0000
0010
0001
0100
0000
0010
0000
,
1000
0000
0001
1000
0100
0000
0010
0000
,
0001
0010
0001
0010
0100
1000
0100
1000
,
0010
0000
1000
0100
0001
0000
1100
0000
,
0001
0000
0100
0010
1000
0000
0001
0000
,
0010
0000
0100
1000
0001
0000
0100
0000
,
0010
0000
1000
0100
0010
0001
0010
0100
,
1000
0001
1000
0010
0100
1000
0100
0001
,
0010
0100
1000
0100
,
0010
0000
0001
0100
1000
0000
0100
0000
,
0001
0010
0001
0000
1000
0100
1000
0000
,
0101
0000
0010
0100
1000
0000
0011
0000
,
0100
1000
0001
1000
0010
0100
0001
0010
0100
0000
1000
0000
0001
0100
0010
0100
,
0001
0010
0100
1000
0001
0000
0100
0000
0010
0000
1000
0000
0010
0000
1000
0000
,
0001
0010
0100
0010
0001
1000
0010
0100
0001
0000
1000
0000
0100
1000
0010
0100
,
0001
0010
0001
1000
0010
0000
0100
0000
0001
0000
1000
0000
0001
0000
1000
0000
,
0100
0010
0001
0010
0100
1000
0001
0100
0010
0000
1000
0000
0001
0010
0001
1000
,
0010
0100
0001
0010
0100
0000
1000
0000
0001
0000
0100
0000
0001
0000
0100
0000
,
0001
0010
0100
0010
0001
1000
0010
0100
0001
0000
1000
0000
0100
1000
0001
0010
,
0100
0010
0001
1000
0010
0000
0100
0000
0001
0000
1000
0000
0001
0000
1000
0000
,
0100
0000
1000
0001
0010
0000
0001
0010
0100
0000
0000
0100
1000
0000
0001
1000
,
0010
0000
0000
0000
0000
0000
0000
0000
0100
0000
0000
0000
0001
0000
0000
0000
1000
0000
0000
0000
0000
0000
0000
0000
0000
0000
0000
0000
0000
0000
0000
0000
0000
0000
0000
0000
0001
0000
0000
0010
0000
0000
0001
0000
0000
1000
0000
0000
0100
0000
0000
0010
0000
0000
0001
0000
0000
0000
0000
0000
0000
0000
0000
0000
,
0100
0000
0010
1000
0100
0000
1000
0001
0100
0000
0000
0100
0010
0000
1000
0001
,
0010
0000
0000
0000
0000
0000
0000
0000
0001
0000
0000
0000
0100
0000
0000
0000
0010
0000
0000
0000
0000
0000
0000
0000
0000
0000
0000
0000
0000
0000
0000
0000
0000
0000
0000
0000
0100
0000
0000
0010
0000
0000
1000
0000
0000
0010
0000
0000
0100
0000
0000
0001
0000
0000
0010
0000
0000
0000
0000
0000
0000
0000
0000
0000
,
0001
0000
0010
0100
1000
0000
0001
0100
0010
0000
0000
0010
1000
0000
0100
0010
,
0001
0000
0000
0000
0000
0000
0000
0000
0010
0000
0000
0000
0100
0000
0000
0000
1000
0000
0000
0000
0000
0000
0000
0000
0000
0000
0000
0000
0000
0000
0000
0000
0000
0000
0000
0000
0001
0000
0000
0100
0000
0000
0010
0000
0000
1000
0000
0000
0010
0000
0000
0100
0000
0000
0001
0000
0000
0000
0000
0000
0000
0000
0000
0000
,
0010
0000
0100
1000
0001
0000
0100
0010
1000
0000
0000
1000
0001
0000
0010
0100
,
1000
0000
0000
0000
0000
0000
0000
0000
0100
0000
0000
0000
0010
0000
0000
0000
0001
0000
0000
0000
0000
0000
0000
0000
0000
0000
0000
0000
0000
0000
0000
0000
0000
0000
0000
0000
0100
0000
0000
0010
0000
0000
1000
0000
0000
0001
0000
0000
1000
0000
0000
0100
0000
0000
0010
0000
0000
0000
0000
0000
0000
0000
0000
0000
,
2002
0000
0000
3003
0010
0000
1000
0100
,
0010
0000
0001
0000
1000
0000
0001
0100
,
1000
0000
0100
0000
0010
0000
1000
0100
,
0001
0100
1000
0010
0001
0000
1010
0000
,
0011
0000
1010
0000
0001
0000
0010
0100
,
1000
0000
0100
0000
0010
0000
0001
0100
,
1000
0000
0100
0000
0001
1000
0001
1000
,
0010
0001
0010
1000
0100
0000
0010
0001
,
0100
0000
0011
0000
0100
0000
1000
0001
,
0100
0000
0010
0000
0100
0000
0001
0010
,
0100
0000
1000
0000
0001
0000
0100
0001
,
1000
0100
1000
0001
0010
0000
0011
0000
,
0110
0011
0001
0100
,
1000
0000
0100
0000
0001
0000
0010
0100
,
1000
0000
0001
0000
0100
0010
1000
0010
,
0100
0001
1000
0001
0010
0000
0100
1000
,
0001
1100
1001
0000
;

//---------------dance-single - Blank----------------
#NOTES:
     dance-single:
     Blank:
     Hard:
     11:
     0.902,1.000,0.488,0.225,0.341,723.000,63.000,29.000,0.000,0.000,0.000,0.902,1.000,0.488,0.225,0.341,723.000,63.000,29.000,0.000,0.000,0.000:
0000
0000
0000
0000
,
0000
0000
0000
0000
,
0000
0000
0000
0000
,
0000
0000
0000
0000
,
0200
0000
0002
0300
,
2000
0000
0000
0000
0000
0000
0000
0000
0000
0000
0000
0000
3003
0000
0000
0001
,
1000
0000
0000
0010
0000
0000
0000
0100
0000
0001
0000
1000
0000
0000
0000
0001
,
0100
0000
0000
0010
0000
0000
0000
1000
0000
0001
0000
1000
0000
0100
1000
0010
,
0200
0000
0000
0000
0002
0000
0000
0303
1000
0000
0000
0000
0010
0000
0000
0000
,
0100
0001
0010
0100
,
2000
0000
0010
0000
3010
0000
0100
0001
,
0010
0100
0010
0001
1000
0000
0101
0000
,
0101
0110
0010
0100
,
0001
0010
0100
1000
,
0002
0000
0100
0000
0103
0010
0100
0010
,
1000
0001
1000
0001
0010
0000
1100
0000
,
1100
0110
0001
0100
,
0001
0010
0100
1000
,
0020
0000
0100
0000
0130
0000
0001
1000
,
0001
0010
0100
1000
0001
0000
1001
0000
,
1001
1100
0010
0001
,
0100
0010
0100
0001
,
2000
0000
0100
0000
3100
0010
0001
0010
,
0100
1000
0001
1000
0010
0000
0101
0000
,
0101
1100
0010
0100
,
0001
0010
0100
0010
,
0002
0000
1000
0000
1003
0000
0010
0100
,
0001
0100
0010
1000
0001
0000
0011
0000
,
0011
1001
0100
0010
,
1000
0001
0010
0100
,
0020
0000
0001
0000
0031
1000
0001
1000
,
0010
0100
0010
0100
0001
0000
1001
0000
,
1001
1100
0010
0001
,
0100
0010
1000
0001
,
0020
0000
0100
0000
0130
0000
1000
0001
,
0100
0010
0100
0001
0010
0000
0110
0000
,
0110
1100
0001
0100
,
0010
0100
0001
1000
,
0200
0000
0010
0000
0310
0001
1000
0001
,
0100
0010
1000
0010
0100
0001
0100
0001
,
1000
0100
1000
0100
0010
0010
0001
0100
,
0010
1000
0000
0001
0010
0100
0010
0001
,
1000
0010
1000
0000
0001
0100
0001
0010
0100
0000
0100
0000
1000
0000
0010
0000
,
0100
0001
0000
1000
0010
1000
0100
0010
,
0001
1000
0001
0000
0100
0010
0100
0001
1000
0000
1000
0000
0100
0000
0010
0000
,
0001
0100
0000
0010
1000
0010
0100
0001
,
1000
0100
1000
0000
0001
0010
0001
0100
0010
0000
0010
0000
1000
0000
0001
0000
,
0010
0100
0000
0010
0001
0100
0010
1000
,
0001
0100
0001
0000
1000
0100
1000
0010
0100
0000
0100
0001
0010
0000
0100
0000
,
1100
1000
0000
0001
0100
0000
0100
0110
,
1000
0000
0001
0000
0100
1000
0100
0001
1000
0000
1000
0010
0100
0000
0001
0000
,
0011
0010
0000
0100
1000
0000
0010
0110
,
0100
0000
0001
0000
1000
0100
0001
0100
1000
0000
1000
0010
0100
0000
0001
0000
,
0101
0100
0000
0010
0100
0000
0001
0011
,
0100
0000
1000
0000
0010
0100
1000
0100
0001
0000
0001
0010
0100
0000
1000
0000
,
1010
0100
0000
0001
1000
0000
0100
0110
,
0010
0000
0001
0000
1000
0001
0100
1000
0200
0000
0010
0000
0302
0000
0010
0000
,
1003
0001
0100
0010
,
1000
0001
0020
0100
,
0130
0000
1000
0001
0100
0010
1000
0001
,
1000
1100
1100
1001
,
0010
0001
1000
0010
,
0100
0001
2000
0100
,
3100
0010
0001
0010
0100
1000
0100
1000
,
0001
0101
0101
1100
,
0010
0001
0100
0010
,
0100
0001
2000
0100
,
3100
0000
0010
0001
0010
0001
0100
0010
,
1000
1100
1100
0110
,
0001
0010
0100
0010
,
0001
1000
0020
0100
,
0130
0010
1000
0010
0100
0001
0010
0100
,
1000
0101
0101
0110
,
1000
0100
0001
0100
,
1000
0010
0200
0001
,
0301
0000
0010
0100
1000
0100
1000
0001
,
0100
0110
0110
1010
,
1000
0001
0010
0100
,
0010
0001
2000
0100
,
3100
1000
0100
1000
0001
0100
0010
0100
,
0001
1001
1001
1100
,
0010
0001
0100
0010
,
0100
0001
2000
0100
,
3100
0000
0010
0001
0010
0100
1000
0001
,
0100
1010
1010
1100
,
0010
0001
0100
0010
,
1000
0001
0020
0001
,
0031
1000
0010
0100
0010
1000
0001
0010
,
0100
1000
0100
1000
0001
0100
0001
0100
,
0010
0000
0000
0010
1000
0000
0000
1000
0100
0000
0010
0000
0000
0000
0001
0000
,
1000
0000
0000
1000
0001
0000
0010
0000
0100
1000
0100
1000
0001
0100
0001
0100
,
0010
0000
0000
0010
0100
0000
0000
0100
0001
0000
1000
0000
0000
0000
0100
0000
,
0010
0000
0000
0010
0001
0000
1000
0000
0001
0100
0001
0100
0010
1000
0010
1000
,
0100
0000
0000
0100
0010
0000
0000
0010
1000
0000
0010
0000
0000
0000
0001
0000
,
0100
0000
0000
0100
0010
0000
1000
0000
0001
0100
0001
0100
1000
0100
1000
0100
,
0010
0000
0000
0010
1000
0000
0000
1000
0001
0000
0010
0000
0000
0000
0100
0000
,
1000
0000
0000
1000
0001
0000
0100
0000
0010
1000
0010
1000
0001
0010
0001
0010
,
0100
0000
1000
0001
0010
0000
0001
1000
0010
0000
0100
0000
0000
0000
0001
1000
,
0010
0000
1000
0100
0010
0000
0000
0000
0001
0010
0100
0010
0001
0000
1000
0000
,
1000
0000
0010
0100
0001
0000
0100
0010
1000
0000
0001
0000
0000
0000
0010
0100
,
1000
0000
0001
0010
0100
0000
0000
0000
1000
0001
0100
0001
0010
0000
0100
0000
,
0100
0000
1000
0001
0010
0000
0001
0100
0010
0000
1000
0000
0000
0000
0001
1000
,
0010
0000
1000
0010
0100
0000
0000
0000
0001
1000
0100
1000
0010
0000
0100
0000
,
0100
0000
0001
0010
0100
0000
1000
0001
0100
0000
0010
0000
0000
0000
1000
0010
,
0100
0000
0001
0010
0100
0000
0000
0000
1000
0001
0100
0001
0010
0000
0100
0000
,
0200
0001
0320
1000
0031
0000
1000
0000
,
0100
0001
1000
0010
,
0200
0000
1000
0000
1300
0000
0010
0100
,
0001
0100
0010
1000
0001
0000
0011
0000
,
0011
1100
0001
0100
,
0010
1000
0001
0010
,
0200
0000
1000
0000
1300
0001
0100
0010
,
0100
0001
0010
0100
1000
0000
1010
0000
,
1010
0101
0010
0001
,
0100
1000
0001
0010
,
2000
0000
0001
0000
3001
0000
0010
0100
,
0010
0001
1000
0010
0100
0000
0101
0000
,
0101
1010
0001
0010
,
1000
0001
0100
1000
,
0020
0000
0100
0000
0130
0001
1000
0100
,
1000
0001
0100
0001
0010
0000
1100
0000
,
1100
0101
1001
0000
;

//---------------dance-single - Blank----------------
#NOTES:
     dance-single:
     Blank:
     Medium:
     9:
     0.555,0.753,0.178,0.015,0.000,476.000,23.000,2.000,0.000,0.000,0.000,0.555,0.753,0.178,0.015,0.000,476.000,23.000,2.000,0.000,0.000,0.000:
0000
0000
0000
0000
,
0000
0000
0000
0000
,
0000
0000
0000
0000
,
0000
0000
0000
0000
,
0000
0000
0000
0000
,
0000
0000
0000
0000
,
0001
1000
0100
0010
0100
1000
0001
0010
,
0001
0100
1000
0100
0001
0010
1000
0010
,
0000
0000
0001
1000
,
0100
0000
1000
0001
,
0100
0000
0010
0100
,
0001
0010
0100
0000
,
1001
0000
0010
0100
,
0001
0000
0100
0010
,
1000
0000
0001
0010
,
0100
0000
1000
0000
0001
0000
0000
0001
,
1000
0010
0100
0001
,
0010
0000
0001
1000
,
0100
0000
1000
0010
,
0100
0001
0010
0000
,
1001
0000
0010
0100
,
0010
0100
1000
0000
,
1000
0001
0100
0010
,
0010
0100
0100
0000
,
1001
0000
0010
0100
,
0001
0000
0010
0100
,
1000
0000
0001
0100
,
0010
1000
0100
0000
,
0011
0000
0100
0010
,
1000
0000
0001
0010
,
0100
0000
1000
0001
,
0100
0000
0010
0000
1000
0000
0000
1000
,
0100
0010
0001
1000
,
0010
0000
1000
0100
,
0010
0000
0001
1000
,
0001
0010
0100
0000
,
1100
0000
0001
0100
,
0001
0100
0010
0000
,
1000
0001
0100
0010
,
0010
0100
0100
0000
,
1001
0000
0000
0000
0100
0000
0010
1000
,
0100
0000
0010
0001
0100
0000
0001
0000
,
1000
0100
1000
0100
0010
0000
0001
0100
,
0010
0000
1000
0100
0010
0000
0001
0000
,
1000
0010
1000
0010
0100
0000
0001
1000
,
0100
0000
0010
0001
0100
0000
0010
0000
,
1000
0001
1000
0001
0010
0000
0100
1000
,
0010
0000
0100
0001
0010
0000
0100
0000
,
0010
0001
0010
0001
1000
0010
0100
0000
,
0001
0000
1000
0000
0100
0010
0001
0000
,
0100
0010
1000
0010
0100
0001
0010
0000
,
0100
0000
1000
0000
0001
0100
0010
0000
,
1000
0100
1000
0100
0010
0001
0100
0000
,
0010
0000
1000
0000
0001
0010
0100
0000
,
0010
0001
0010
0001
1000
0010
0100
0000
,
0001
0000
1000
0100
0010
0000
0100
0000
,
1000
0001
1000
0001
0000
0000
0000
0000
,
0100
0010
1000
0000
,
0001
0010
0100
0000
,
0010
0001
1000
0010
,
0100
0000
0101
0000
,
0100
0010
1000
0000
,
0001
0010
0100
0000
,
0010
0001
1000
0010
,
0100
0000
0000
0100
0001
0000
1000
0000
,
0100
0010
0001
0000
,
0100
0010
1000
0000
,
0001
0010
0100
0010
,
0001
0000
1100
0000
,
0010
0100
0001
0100
,
0010
0000
1000
0001
,
0010
0100
0100
1000
,
1000
0000
0101
0000
,
0010
1000
0001
0000
,
0100
0001
0010
0000
,
0100
1000
0010
0100
,
0001
0000
1100
0000
,
0001
1000
0010
0000
,
1000
0100
0010
0000
,
0001
1000
0001
1000
,
0010
0000
0000
0010
0100
0000
0001
0000
,
1000
0100
0010
0000
,
0100
1000
0001
0000
,
0100
0010
1000
0001
,
0010
0000
1100
0000
,
0001
0100
0010
1000
,
0001
0000
0010
0100
,
1000
0001
0001
1000
,
1000
0000
0101
0000
,
0010
0100
0001
0100
0010
0000
1000
0100
,
0010
0100
1000
0000
0001
0100
0010
0000
,
1000
0001
0010
0001
1000
0000
0010
0100
,
0001
0100
0010
0000
1000
0100
0010
0000
,
0001
0100
0010
0100
0001
0000
1000
0100
,
0010
0100
1000
0000
0010
0100
0001
0000
,
1000
0010
0001
0010
1000
0000
0001
0010
,
1000
0010
0001
0000
1000
0010
0100
0000
,
0010
0100
0001
0000
1100
0000
0001
0010
,
0100
1000
1001
0000
0100
0010
0100
0010
,
1000
0100
0010
0000
0011
0000
0100
0010
,
1000
0100
0110
0000
0001
0100
0001
0100
,
0010
1000
0100
0000
1001
0000
0010
0001
,
0100
0010
1010
0000
0001
0010
0001
0010
,
0100
1000
0001
0000
0101
0000
0010
1000
,
0100
0010
0011
0000
0010
0100
1000
0001
,
0000
0000
0002
2003
3010
0000
1000
0000
,
0001
0000
0010
0001
,
0100
0000
0010
1000
,
0100
0010
0001
0000
,
0101
0000
0010
1000
,
0100
0000
1000
0001
,
0100
0000
0001
0010
,
0100
0000
1000
0000
0001
0000
0000
0001
,
0100
0010
1000
0100
,
0010
0000
0100
1000
,
0010
0000
0100
0001
,
0010
0100
1000
0000
,
1010
0000
0100
0001
,
1000
0100
0010
0000
,
0001
0100
0010
1000
,
1000
0001
0001
0010
,
0100
0010
1001
0000
;

//---------------dance-single - Blank----------------
#NOTES:
     dance-single:
     Blank:
     Easy:
     7:
     0.420,0.612,0.031,0.039,0.000,370.000,4.000,5.000,0.000,0.000,0.000,0.420,0.612,0.031,0.039,0.000,370.000,4.000,5.000,0.000,0.000,0.000:
0000
0000
0000
0000
,
0000
0000
0000
0000
,
0000
0000
0000
0000
,
0000
0000
0000
0000
,
0000
0000
0000
0000
,
0000
0000
0000
0000
,
0001
1000
0100
0010
,
0001
1000
0020
0000
,
0200
0330
0001
0000
,
1000
0000
0001
0000
,
0100
0000
0010
0000
,
1000
0000
0001
1000
,
0001
0000
0100
0000
,
0010
0000
1000
0000
,
0001
0000
0010
0000
,
0100
0000
1000
0010
,
1000
0000
0001
0000
,
0100
0000
0010
0000
,
0100
0000
0001
0000
,
0010
0000
0100
1000
,
0100
0000
0010
0000
,
0001
0000
1000
0000
,
0010
0000
0100
0000
,
0001
0000
0010
0100
,
1000
0100
0010
0000
,
0001
0000
0100
0000
,
0010
0000
1000
0000
,
0001
0000
1000
0100
,
0010
0000
0001
0000
,
0100
0000
0001
0000
,
0010
0000
0100
0000
,
1000
0000
0001
0100
,
0010
0000
0100
0000
,
0001
0000
0010
0000
,
0100
0000
1000
0000
,
0001
0000
0100
0010
,
0100
0000
0010
0000
,
1000
0000
0001
0000
,
0010
0000
0100
0000
,
1000
0000
0001
0100
,
0010
1000
0001
0010
,
0100
1000
0010
0000
0100
0000
0001
1000
,
0100
0100
0010
0001
,
0100
0010
1000
0000
0001
0000
0010
0100
,
0010
0010
0001
1000
,
0010
0100
0001
0000
0010
0000
0100
1000
,
0010
0010
0100
0001
,
1000
0100
0010
0000
0100
0000
1000
0001
,
0100
0000
0100
0000
0001
0010
0001
0010
,
0000
1100
0000
0100
1000
0100
1000
0000
,
0010
0100
0010
0000
1000
0100
1000
0100
,
0000
1100
0000
0010
0001
0010
0001
0000
,
0100
0010
0100
0000
0001
1000
0001
1000
,
0000
0110
0000
0100
0010
0100
0010
0000
,
0001
0100
0001
0000
1000
0010
1000
0010
,
0000
1010
0000
0100
0001
0100
0001
0000
,
1000
0100
1000
0001
0200
0000
0000
0300
,
0010
0000
1000
0000
,
0001
0000
0010
0000
,
0100
0000
0010
0000
,
0001
1000
0001
0000
,
0100
0000
0010
0000
,
1000
0000
0001
0000
,
0010
0000
0001
0000
,
0100
0010
0100
0000
,
0001
0000
1000
0000
,
0100
0000
0010
0000
,
0001
0000
0100
0000
,
0010
1000
0010
0000
,
0100
0000
0001
0000
,
1000
0000
0100
0000
,
0010
0000
0001
0000
,
1000
0001
1000
0010
,
0100
0000
0001
0000
,
0100
0000
0010
0000
,
1000
0000
0001
0000
,
0010
0100
0010
0000
,
0001
0000
1000
0000
,
0010
0000
0100
0000
,
0010
0000
1000
0000
,
0001
0100
0001
0000
,
1000
0000
0100
0000
,
0010
0000
0001
0000
,
1000
0000
0010
0000
,
0100
0001
0100
0000
,
0001
0000
1000
0000
,
0100
0000
0010
0000
,
0001
0000
1000
0000
,
0010
0100
0001
1000
,
0100
0000
1000
0001
0000
0100
0000
0001
,
0010
0001
0010
0000
0100
0000
0100
0000
,
1000
0000
0010
0100
0000
0001
0000
1000
,
0100
1000
0100
0000
0010
0000
0010
0000
,
0001
0000
1000
0100
0000
1000
0000
0010
,
0100
0010
0100
0000
0001
0000
0001
0000
,
0010
0000
0100
1000
0000
0001
0000
1000
,
0010
1000
0010
0000
0100
0000
0100
0000
,
0010
1000
0001
0000
0010
0000
0000
0100
,
0010
0010
0100
0000
1000
0001
1000
0000
,
0010
0100
0001
0000
1000
0000
0000
0100
,
0010
0010
0100
0000
1000
0001
0100
0000
,
0010
1000
0001
0000
0010
0000
0000
0100
,
1000
1000
0100
0000
0010
0001
0100
0000
,
0001
1000
0100
0000
0010
0000
0000
0100
,
1000
1000
0100
0000
0010
0001
1000
0000
,
0020
0230
0301
0000
,
1000
0000
0100
0000
,
0010
0000
0100
0000
,
1000
0000
0001
0100
,
0001
0000
0010
0000
,
0100
0000
1000
0000
,
0010
0000
1000
0000
,
0001
0000
0010
0100
,
0010
0000
0001
0000
,
0100
0000
0010
0000
,
1000
0000
0001
0000
,
0010
0000
0100
1000
,
0100
0000
0010
0000
,
0001
0000
1000
0000
,
0010
0000
1000
0000
,
0100
0000
0010
0001
,
1000
0010
0100
0000
;

//---------------dance-single - Blank----------------
#NOTES:
     dance-single:
     Blank:
     Beginner:
     4:
     0.210,0.377,0.039,0.000,0.000,185.000,5.000,0.000,0.000,0.000,0.000,0.210,0.377,0.039,0.000,0.000,185.000,5.000,0.000,0.000,0.000,0.000: // measure 1
0000
0000
0000
0000
,  // measure 2
0000
0000
0000
0000
,  // measure 3
0000
0000
0000
0000
,  // measure 4
0000
0000
0000
0000
,  // measure 5
0000
0000
0000
0000
,  // measure 6
0000
0000
0000
0000
,  // measure 7
0001
1000
0001
1000
,  // measure 8
0010
0100
0010
0100
,  // measure 9
0000
0000
0000
0000
,  // measure 10
0001
0000
0000
0000
,  // measure 11
1000
0000
0000
0000
,  // measure 12
0001
0000
0010
0000
,  // measure 13
0100
0000
0000
0000
,  // measure 14
0010
0000
0000
0000
,  // measure 15
0001
0000
0000
0000
,  // measure 16
1000
0000
0010
0000
,  // measure 17
0100
0000
0000
0000
,  // measure 18
0001
0000
0000
0000
,  // measure 19
1000
0000
0000
0000
,  // measure 20
0100
0000
0010
0000
,  // measure 21
0001
0000
0000
0000
,  // measure 22
1000
0000
0000
0000
,  // measure 23
0010
0000
0000
0000
,  // measure 24
0100
0000
0010
0000
,  // measure 25
0110
0000
0000
0000
,  // measure 26
1000
0000
0000
0000
,  // measure 27
0001
0000
0000
0000
,  // measure 28
0010
0000
0100
0000
,  // measure 29
1000
0000
0000
0000
,  // measure 30
0001
0000
0000
0000
,  // measure 31
0100
0000
0000
0000
,  // measure 32
0010
0000
0100
0000
,  // measure 33
0001
0000
0000
0000
,  // measure 34
1000
0000
0000
0000
,  // measure 35
0100
0000
0000
0000
,  // measure 36
0010
0000
0100
0000
,  // measure 37
1000
0000
0000
0000
,  // measure 38
0001
0000
0000
0000
,  // measure 39
0100
0000
0000
0000
,  // measure 40
0001
0000
1000
0000
,  // measure 41
1001
0000
0100
0000
,  // measure 42
0000
0000
0010
0000
,  // measure 43
1000
0000
0001
0000
,  // measure 44
0000
0000
0010
0000
,  // measure 45
0100
0000
1000
0000
,  // measure 46
0000
0000
0010
0000
,  // measure 47
0100
0000
0001
0000
,  // measure 48
0000
0000
1000
0000
,  // measure 49
0001
0000
0010
0000
,  // measure 50
0000
0000
0100
0100
,  // measure 51
0100
0000
1000
0000
,  // measure 52
0000
0000
0001
1000
,  // measure 53
0001
0000
0100
0000
,  // measure 54
0000
0000
0010
0010
,  // measure 55
0010
0000
1000
0000
,  // measure 56
0000
0000
0010
0100
,  // measure 57
0010
0000
0000
0000
,  // measure 58
0000
0000
1000
0000
,  // measure 59
0000
0000
0001
0000
,  // measure 60
0000
0000
0010
0000
,  // measure 61
0100
0000
1000
0000
,  // measure 62
0000
0000
0001
0000
,  // measure 63
0000
0000
0100
0000
,  // measure 64
0000
0000
0010
0000
,  // measure 65
0100
0000
0001
0000
,  // measure 66
0000
0000
1000
0000
,  // measure 67
0000
0000
0100
0000
,  // measure 68
0000
0000
1000
0000
,  // measure 69
0010
0000
0100
0000
,  // measure 70
0000
0000
0001
0000
,  // measure 71
0000
0000
0010
0000
,  // measure 72
0000
0000
0001
0000
,  // measure 73
1000
0000
1001
0000
,  // measure 74
0000
0000
0010
0000
,  // measure 75
0000
0000
0100
0000
,  // measure 76
0000
0000
0001
0000
,  // measure 77
1000
0000
0100
0000
,  // measure 78
0000
0000
0010
0000
,  // measure 79
0000
0000
0001
0000
,  // measure 80
0000
0000
0100
0000
,  // measure 81
0001
0000
1000
0000
,  // measure 82
0000
0000
0100
0000
,  // measure 83
0000
0000
0010
0000
,  // measure 84
0000
0000
0001
0000
,  // measure 85
1000
0000
0010
0000
,  // measure 86
0000
0000
0100
0000
,  // measure 87
0000
0000
0010
0000
,  // measure 88
0000
0000
1000
0000
,  // measure 89
0001
0000
1001
0000
,  // measure 90
0010
0010
0010
0000
,  // measure 91
0100
0000
1000
0001
,  // measure 92
1000
1000
1000
0000
,  // measure 93
0010
0000
0100
0001
,  // measure 94
0100
0100
0100
0000
,  // measure 95
0001
0000
0010
0100
,  // measure 96
0010
0010
0010
0000
,  // measure 97
0001
0000
1000
0001
,  // measure 98
0100
0100
0000
0001
,  // measure 99
1000
0001
0010
0000
,  // measure 100
0100
0100
0000
1000
,  // measure 101
0010
1000
0001
0000
,  // measure 102
0010
0010
0000
0100
,  // measure 103
1000
0100
0010
0000
,  // measure 104
0001
0001
0000
1000
,  // measure 105
0010
1000
0100
0000
,  // measure 106
0000
0000
0000
0000
,  // measure 107
0010
0000
0000
0000
,  // measure 108
0001
0000
0000
0000
,  // measure 109
0100
0000
0010
0000
,  // measure 110
1000
0000
0000
0000
,  // measure 111
0001
0000
0000
0000
,  // measure 112
1000
0000
0000
0000
,  // measure 113
0100
0000
0010
0000
,  // measure 114
0001
0000
0000
0000
,  // measure 115
0100
0000
0000
0000
,  // measure 116
0001
0000
0000
0000
,  // measure 117
1000
0000
0010
0000
,  // measure 118
0100
0000
0000
0000
,  // measure 119
0001
0000
0000
0000
,  // measure 120
0010
0000
0000
0000
,  // measure 121
0100
0000
1000
0000
,  // measure 122
0001
0000
1001
0000
;
