#TITLE:snow storm;
#SUBTITLE:;
#ARTIST:dj. TAKA;
#TITLETRANSLIT:;
#SUBTITLETRANSLIT:;
#ARTISTTRANSLIT:;
#CREDIT:;
#BANNER:;
#BACKGROUND:;
#LYRICSPATH:;
#CDTITLE:;
#MUSIC:snow storm.mp3;
#OFFSET:-1.680;
#SAMPLESTART:1.680;
#SAMPLELENGTH:13.240;
#SELECTABLE:YES;
#BPMS:0.000=145.000,64.000=72.500,81.000=145.000;
#DISPLAYBPM:73:145;
#STOPS:64.000=5.793,144.500=1.655;
#BGCHANGES:;

//---------------dance-single - ----------------
#NOTES:
     dance-single:
     :
     Hard:
     9:
     0.585,0.540,0.075,0.047,0.282:
1000
0001
0100
0000
0010
1000
0100
0000
,
0010
0000
0001
0000
1000
0000
0000
0000
0001
0000
1000
0000
0100
0000
0000
0010
,
0001
1000
0010
0000
0100
0010
0100
0000
,
0001
0000
1000
0000
0100
0000
0000
0000
0010
0000
0001
0000
0010
0000
0000
0001
,
0010
0001
1000
0000
0010
0100
0001
0000
,
0010
0000
0001
0000
0010
0000
0000
0000
0001
0000
1000
0000
0010
0000
0000
1000
,
0001
0000
1000
0000
0010
0000
0000
0000
0100
0000
0001
0000
1000
0000
0000
0001
,
1000
0000
0000
1000
0100
0000
0000
0100
0010
0000
0000
0010
0001
0000
0000
1000
,
0001
0100
0010
1000
0100
0010
0001
1000
,
0010
0000
1000
0000
0001
0000
0010
0000
0100
0000
0010
0000
0001
0000
0000
0001
,
1000
0010
0100
0001
0010
0001
0100
0010
,
1000
0000
0010
0000
0100
0000
0001
0000
1000
0000
0001
0000
1000
0000
0000
0001
,
1000
0010
0100
0001
0010
0001
1000
0100
,
0010
0000
0100
0000
1000
0000
0010
0000
0100
0000
0001
0000
1000
0000
0000
0001
,
0100
0001
1000
0100
0010
0001
1000
0001
,
0100
0001
0000
0001
1000
0000
0000
1000
0100
0000
0000
0010
0001
0000
0000
0000
,
1001
0000
0110
0000
0010
1000
0001
0000
,
1000
0000
0100
0000
0010
0001
0010
0001
1000
0001
1000
0001
0100
0000
0000
0000
,
0110
0010
2000
0000
3200
0000
0320
0000
,
0230
0000
0000
0000
0000
0000
2300
0000
0000
0000
0000
0000
3001
0000
0100
0000
0001
0000
0100
0000
0000
0010
0000
0000
,
0110
0000
1001
0000
1000
0000
0001
0100
0000
0000
0001
0000
1000
0000
0100
0000
,
0010
0000
0001
0000
0100
0000
0010
0100
0000
0000
0010
0000
1000
0000
0100
0000
,
1000
0000
0001
0000
1000
0000
0001
0010
0000
0010
0001
0000
1000
0000
0010
0000
,
0100
0000
0001
0000
1000
0100
1000
0000
0001
0000
0010
0000
0100
0000
0010
0000
,
0001
1000
0010
0100
0001
0100
0010
0100
,
0001
0100
0010
1000
0001
1000
0010
1000
,
0001
1000
0100
0010
0001
0100
0010
0100
,
0010
1000
0100
0001
0100
1000
0010
0100
,
0001
0000
1000
0000
0001
0000
0000
1000
0100
0000
0010
0000
0001
0000
0100
0000
,
0010
0000
0000
0000
1000
0000
0000
0010
1000
0000
0001
0000
0100
0000
0001
0000
,
1000
0000
0000
0000
0001
0100
0000
0000
0100
0010
0000
0000
0010
1000
0000
0000
,
1000
0100
0000
0000
0010
0000
0001
0000
1000
0000
0001
0000
0100
0000
0001
0000
,
1000
0000
0010
0000
0100
0000
0001
0000
1000
0000
0100
0000
0010
0100
0010
0100
,
0010
0000
0000
0000
0010
0000
0001
0000
1000
0001
1000
0000
0010
0000
0100
0000
,
0001
1000
0100
0010
0001
0100
0010
1000
,
0100
0000
1000
0000
0001
0000
0010
0000
0001
0000
0100
0000
0001
0100
0001
0000
,
1000
0010
1000
0000
0001
0000
1000
0100
0000
0100
1000
0000
0001
0000
0100
0000
,
0001
0000
0000
0000
1000
0000
0100
0010
0000
0010
0100
0000
0010
0000
0001
0000
,
1000
0000
0001
0000
1000
0000
0001
0100
0000
0001
0100
0000
0001
0000
1000
0100
,
0000
1000
0100
0000
0010
0000
0001
0000
0100
0000
0010
0000
1000
0000
0001
1000
,
0000
1000
0001
0000
1000
0000
0010
0000
0100
0000
0001
0000
1000
0000
0100
0000
,
0010
0001
0100
0001
0010
0001
1000
0010
,
0100
0010
1000
0100
1000
0001
0100
0001
,
1000
0000
0010
0000
0100
0010
0100
0000
0010
0000
1000
0000
0001
1000
0001
0000
,
1000
0000
0001
0000
0100
0000
0000
0100
0001
0000
1000
0000
0100
1000
0100
0000
,
1000
0000
0001
0000
0010
0000
0000
0010
0001
0000
0100
0000
0010
0100
0010
0000
,
1000
0100
1000
0010
0100
0010
1000
0010
,
0100
0010
1000
0100
0010
0001
0100
0010
,
1000
0000
0001
0000
1000
0000
0010
0000
1000
0000
0001
0000
1000
0100
1000
0100
,
1000
0000
0000
0000
0001
0000
0010
0000
0001
1000
0001
0000
0100
0000
0001
0000
,
1000
0010
1000
0000
0101
0000
0001
0000
1000
0000
0100
0000
1100
0000
1000
0000
,
0001
0000
0100
0000
0110
0000
0100
0000
0001
0000
0100
0000
0001
0100
0001
0000
,
1000
0100
1000
0100
1000
0000
0000
0000
0000
0000
0000
0000
0000
0000
0000
0000
;

//---------------dance-single - ----------------
#NOTES:
     dance-single:
     :
     Medium:
     6:
     0.388,0.344,0.056,0.009,0.000:
1000
0000
0001
0000
0100
0001
0100
0000
,
0001
1000
0100
0010
,
0100
0000
1000
0000
0010
1000
0010
0000
,
0100
0001
1000
0001
,
0010
0000
0001
0000
1000
0100
1000
0000
,
0001
0100
0010
0100
,
0001
0000
1000
0000
0010
1000
0010
0000
,
1000
0000
0100
0000
0010
0001
0010
0001
,
1000
0001
1000
0010
,
0100
0000
0001
0000
1000
0001
1000
0010
,
1000
0100
0010
0001
,
1000
0010
1000
0000
0001
0100
0001
0000
,
1000
0000
0100
0000
0010
0001
0010
0000
,
0001
1000
0010
0100
,
0001
0000
1000
0000
0100
0010
0100
0000
,
0010
0001
0010
0000
0001
1000
0001
0000
,
1001
0000
0001
0000
1000
0001
1000
0000
,
0010
0000
0100
0000
0001
0100
0001
0000
,
1000
0002
0010
1000
,
0100
0000
1003
0000
0001
0000
1000
0001
,
1000
0001
0100
0001
0100
0000
0001
0000
,
1000
0000
0100
1000
0100
0000
1000
0000
,
0001
0000
0100
0010
0100
0000
0010
1000
,
0010
0000
1000
0100
0010
0001
0100
0000
,
0110
0000
1000
0000
0001
0000
1000
0010
,
1000
0000
0001
0100
0001
0000
1000
0100
,
1000
0000
0001
0100
0001
0000
1000
0010
,
0100
0000
0001
1000
0100
1000
0001
0000
,
1000
0000
1010
0000
0100
0000
0001
0100
,
0001
0000
1000
0000
0100
0000
0010
0001
,
0010
0000
0001
0100
0010
0000
0010
1000
,
0100
0000
1000
0100
1000
0000
0001
0100
,
0001
1000
0010
0000
0100
0000
0010
1000
,
0010
0000
0100
0000
0001
0000
1000
0001
,
0100
0000
0010
1000
0100
0000
0010
0001
,
0100
0000
0001
1000
0001
1000
0010
0000
,
0100
0010
0100
0000
0001
0000
1000
0001
,
1000
0000
0010
0100
0001
0000
0010
0001
,
0100
0000
0010
1000
0010
1000
0001
0000
,
0100
0000
0001
1000
0001
0000
1000
0100
,
1000
0100
0010
0000
0100
0000
1000
0100
,
0010
0000
0100
0000
1000
0000
0001
0100
,
0001
0000
1000
0010
0100
0000
0001
0010
,
0001
0000
1000
0010
1000
0001
0010
0000
,
0011
0000
1100
0000
0001
0000
1000
0010
,
1000
0000
0001
0000
0100
0000
0010
0010
,
0010
0000
0100
0001
0100
0000
0001
1000
,
0001
0000
1000
0100
1000
0000
0010
0100
,
0001
0000
1000
0000
0100
0000
0010
0010
,
0010
0000
0100
0000
1000
0000
0010
0010
,
0010
0000
0100
0001
0100
0000
0001
1000
,
0001
0000
1000
0100
0010
0001
0100
0010
,
0100
1001
0000
0000
;

//---------------dance-single - ----------------
#NOTES:
     dance-single:
     :
     Easy:
     3:
     0.226,0.221,0.038,0.000,0.000:
1000
0000
0001
0000
,
0100
0000
0010
1000
,
0010
0000
0100
0000
,
0001
0000
1000
0100
,
1000
0000
0001
0000
,
0100
0000
0010
0100
,
0010
0000
1000
0000
,
0001
1000
0001
0100
,
0010
0000
0100
0000
,
0001
0000
1000
0100
,
1000
0000
0001
0000
,
1000
0000
0010
0100
,
0010
0000
1000
0000
,
0100
0000
0010
0001
,
0010
0000
0001
0000
,
1000
0001
1000
0010
,
0110
0010
0000
1000
,
0000
0001
1000
0001
,
0100
0010
1000
0001
,
0100
0001
1000
0010
,
0100
0110
0000
0010
,
1000
0001
0000
1000
,
0001
1000
0000
0010
,
0000
0100
0010
1000
,
0001
1000
0000
0001
,
0000
1000
0000
0100
,
0010
0100
0000
0010
,
0000
0001
1000
0001
,
0100
0010
0000
0010
,
0000
0100
0000
0100
,
0000
0001
1000
0100
,
0010
0001
0100
0010
,
1000
0001
0001
1000
,
0001
0100
0100
0010
,
0100
0010
1000
0010
,
1000
0001
0100
0001
,
0100
0110
0000
0100
,
0010
1000
0100
1000
,
0001
0100
0000
0001
,
1000
0001
0000
1000
,
0000
0001
0010
0001
,
0000
1000
0010
1000
,
0000
0001
1000
0100
,
0010
0001
0100
0010
,
1000
1001
0000
0001
,
0000
0100
0000
0010
,
0100
0010
0010
1000
,
1000
0001
0001
1000
,
1000
0001
0100
0001
,
0001
1000
0100
1000
,
1000
0010
0100
0010
,
0100
0001
1000
0001
,
1000
0001
0000
0000
;

//---------------dance-single - ----------------
#NOTES:
     dance-single:
     :
     Beginner:
     1:
     0.142,0.172,0.066,0.000,0.000:
1000
0000
0100
0000
,
1000
0000
0001
0000
,
0100
0000
0001
0000
,
1000
0000
0100
0000
,
0010
0000
0100
0000
,
1000
0000
0001
0000
,
1000
0000
0010
0000
,
0100
0000
0010
0000
,
0110
0000
0000
0000
,
0100
0000
0001
0000
,
1000
0000
0000
0000
,
0001
0000
1000
0000
,
0100
0000
0000
0000
,
0010
0000
0100
0000
,
0010
0000
0000
0000
,
0100
0000
1000
0000
,
1001
1000
0000
0001
,
0000
0100
0100
0100
,
0000
0010
0000
1000
,
0000
0001
0000
1001
,
0000
1001
0000
0000
,
0000
0001
0000
0100
,
0000
0001
0000
0000
,
0000
1000
0000
0100
,
0000
1000
0000
0100
,
0000
0010
0000
0001
,
0000
0100
0000
0010
,
0000
1000
0000
0001
,
0000
1001
0000
0000
,
0000
1000
0000
0100
,
0000
1000
0000
0001
,
0000
0100
0000
0001
,
0000
1000
0000
1000
,
0000
0001
0000
0001
,
0000
0100
0000
0100
,
0000
0010
0000
0010
,
0000
0110
0000
0010
,
0000
0100
0000
0010
,
0000
0000
0000
1000
,
0000
0001
0000
1000
,
0000
1000
0000
0001
,
0000
0100
0000
0010
,
0000
0100
0000
0001
,
0000
1000
0000
0001
,
0000
1001
0000
0001
,
0000
0100
0000
0001
,
0000
1000
0000
1000
,
0000
0001
0000
0001
,
0000
0100
0000
0010
,
0000
0100
0000
0001
,
0000
1000
0000
0001
,
0000
1000
0000
0001
,
0000
0100
0000
0000
;

//---------------dance-double - ----------------
#NOTES:
     dance-double:
     :
     Hard:
     9:
     0.610,0.516,0.113,0.047,0.338:
10000000
00010000
01000000
00000000
00100000
01000000
00010000
00000000
,
10000000
00000000
00010000
00000000
01000000
00000000
00000000
00000000
00010000
00000000
00100000
00000000
00001000
00000000
00010000
00001000
,
00010000
00000100
00001000
00000000
00000001
00000010
00000001
00000000
,
00001000
00000000
00000010
00000000
00001000
00000000
00000000
00000000
00000100
00000000
00010000
00000000
00000100
00000000
00010000
00001000
,
00010000
00001000
01000000
00000000
00010000
10000000
01000000
00000000
,
00100000
00000000
00010000
00000000
01000000
00000000
00000000
00000000
00100000
00000000
01000000
00000000
00010000
00000000
01000000
00010000
,
01000000
00000000
00010000
00000000
00100000
00000000
00000000
00000000
00100000
00000000
00001000
00000000
00010000
00000000
00000000
00000100
,
00001000
00000000
00000000
00000001
00000010
00000000
00000000
00000001
00000100
00000000
00000000
00000010
00001000
00000000
00000001
00001000
,
00000001
00001000
00000010
00001000
00000100
00010000
00001000
01000000
,
00100000
00000000
01000000
00000000
00010000
00000000
10000000
00000000
01000000
00000000
00100000
00000000
00010000
00000000
00100000
00001000
,
00100000
00001000
00010000
00001000
00000010
00000001
00000100
00000010
,
00001000
00000010
00000000
00000010
00001000
00000000
00000000
00000001
00000100
00000000
00000000
00000010
00010000
00000000
00001000
00010000
,
00001000
00100000
00010000
01000000
00100000
10000000
01000000
00100000
,
01000000
00000000
00100000
00000000
00010000
00000000
00100000
00000000
00001000
00000000
00010000
00000000
00000100
00000000
00000010
00000001
,
00000010
00000001
00000100
00000010
00001000
00000010
00000100
00000001
,
00000100
00000001
00000000
00001000
00000010
00001000
00000000
00000100
00010000
00000000
00000000
00001000
00100000
00000000
00010000
10000000
,
00010000
00000000
01100000
00000000
01000000
00010000
00100000
00000000
,
00001000
00000000
00010000
00000000
00001000
00010000
00001000
00010000
00000100
00001000
00000100
00001000
00000001
00000000
00001000
00000000
,
00000010
00000100
00000102
00000000
00002003
00000000
00003200
00000000
,
00020300
00000000
00000000
00000000
00000000
00000000
00032000
00000000
00000000
00000000
00000000
00000000
01003000
00000000
00100000
00000000
01000000
00000000
00100000
00000000
00000000
10100000
00000000
00000000
,
10010000
00000000
01010000
00000000
10010000
00000000
00000000
10000000
00000000
00000000
00010000
00000000
10000000
00000000
00000000
01000000
,
00000000
00000000
00100000
00000000
00010000
00000000
00000000
00100000
00000000
00000000
00001000
00000000
00010000
00000000
00000000
00001000
,
00000000
00000000
00010000
00000000
00000100
00000000
00000000
00001000
00000000
00000000
00000100
00000000
00000010
00000000
00000000
00000001
,
00000000
00000000
00000100
00000000
00000010
00001000
00000010
00000000
00001000
00000000
00001000
00000000
00000100
00000000
00010000
00000000
,
00001000
00010000
00001000
01000000
00100000
01000000
00001000
01000000
,
00100000
01000000
00010000
10000000
01000000
10000000
00010000
10000000
,
01000000
10000000
00010000
00100000
00001000
00010000
00001000
00010000
,
00000100
00000000
00000010
00000000
00000001
00000100
00000001
00000000
00001000
00000000
00000100
00000000
00010000
00000100
00000000
00000100
,
00010000
00000000
00001000
00000000
01001000
00000000
00000000
01000000
00010000
00000000
10000000
00000000
00010000
10000000
00010000
00000000
,
10000000
00000000
01000000
00000000
00100000
00000000
00000000
00100000
01000000
00000000
00100000
00000000
00010000
00100000
00010000
00000000
,
00100000
00000000
00001000
00000000
00010000
00001000
00010000
00000000
00000100
00000000
00001000
00000000
00000001
00000100
00000001
00000000
,
00001000
00000000
00000100
00000000
00000010
00000000
00000001
00000010
00000001
00000000
00000100
00000000
00000010
00000000
00001000
00000000
,
00000100
00000000
00010000
00000000
00001000
00000000
00100000
00000000
00001000
00000000
01000000
00000000
00001000
00010000
00001000
00010000
,
00001000
00000000
00000000
00000000
00100000
00000000
00010000
00000000
00100000
00000000
01000000
00000000
00100000
00010000
00100000
00000000
,
00010000
10000000
00010000
00000000
10000000
00000000
01000000
00000000
00100000
00000000
00010000
00000000
00100000
00000000
00001000
00000000
,
00010000
00000000
00001000
00000000
00010000
00000000
00000100
00000000
00000010
00000000
00000001
00000000
00000100
00000010
00000100
00000000
,
00000001
00001000
00000001
00000000
00001000
00000000
00000100
00001000
00000000
00001000
00000100
00000000
00010000
00000000
00001000
00000000
,
00100000
00000000
01000000
00000000
00100000
00000000
00010000
00100000
00000000
00100000
00010000
00000000
10000000
00000000
00100000
00000000
,
01000000
00010000
10000000
00010000
10000000
00010000
01000000
00010000
,
01000000
00000000
00010000
00000000
00100000
00000000
00010000
00000000
00100000
00000000
00010000
00000000
00100000
00000000
00001000
00010000
,
00000000
00010000
00000100
00000000
00000010
00000000
00000001
00000000
00001000
00000001
00001000
00000000
00000010
00000000
00000100
00000000
,
00000001
00000000
00001000
00000000
00000100
00000000
00010000
00000000
00001000
01000000
00001000
00000000
01000000
00000000
00100000
00000000
,
01000000
00010000
10000000
01000000
00100000
00010000
01000000
00100000
,
10000000
00000000
01000000
00000000
00100000
00000000
00010000
00000000
00100000
00001000
00100000
00000000
00010000
00000000
00000100
00000000
,
00001000
00000100
00001000
00000000
00000011
00000000
00000000
00001000
00000001
00000000
00001000
00000000
00000010
00001000
00000010
00000000
,
00000100
00000000
00000001
00000000
00001000
00000000
00000000
00000100
00001000
00000000
00000100
00000000
00010000
00001000
00010000
00000000
,
00001000
01000000
01010000
00000000
10010000
00000000
10100000
00000000
,
11000000
00000000
00000000
00000000
00100000
00000000
00010000
00000000
10000000
00000000
01000000
00000000
00100000
00010000
00100000
00000000
,
00001000
00000000
00010000
00000000
00001000
00000000
00000100
00000000
00001000
00000000
00100000
00000000
00001000
00010000
00001000
00010000
,
00001000
00000000
00010000
00000000
00000100
00000000
00000010
00000000
00000100
00000000
00001000
00000000
00000100
00000010
00000100
00000000
,
00000010
00000001
00000010
00000000
00000001
00000000
00001000
00000000
00000010
00000000
00000100
00000000
00000001
00000000
00001000
00000000
,
00000100
00000000
00000010
00000000
00000001
00000000
00000100
00000000
00000010
00000000
00001000
00000000
00000010
00010000
00000010
00000000
,
00010000
00001000
00010000
00001000
00010000
00000000
00000000
00000000
00000000
00000000
00000000
00000000
00000000
00000000
00000000
00000000
;

//---------------dance-double - ----------------
#NOTES:
     dance-double:
     :
     Medium:
     7:
     0.440,0.417,0.066,0.150,0.019:
10000000
00010000
01000000
00000000
00010000
00100000
00001000
00000000
,
00010000
00001000
00010000
00000000
00000100
00000000
00001000
00000000
,
00000001
00000010
00000001
00000000
00001000
00000010
00001000
00000000
,
00000010
00000000
00000100
00000000
00000001
00001000
00000001
00001000
,
00000100
00000010
00000001
00000000
00000010
00000001
00000100
00000000
,
00000010
00001000
00000010
00000000
00001000
00000000
00000100
00000000
,
00010000
00001000
00010000
00000000
00001000
00100000
00001000
00000000
,
00200000
00320000
02030000
03002000
,
00013000
00000000
00000100
00000000
00001000
00000100
00001000
00000000
,
00000001
00000010
00000001
00000000
00001000
00000010
00001000
00000010
,
00000100
00000000
00000001
00000000
00001000
00000100
00001000
00000000
,
00000200
00020300
00032000
02003000
,
03100000
00000000
10000000
00000000
00010000
01000000
00010000
00000000
,
10000000
00000000
00010000
00000000
00100000
00001000
00100000
00001000
,
00010000
00000000
00000100
00000000
00001000
00000100
00001000
00000000
,
00000001
00000010
00000001
00001000
00000100
00001000
00000010
00000100
,
00000010
00000000
00001000
00000100
00001000
00000100
00010000
00000000
,
00001000
01000000
00001000
01000000
00100000
10000000
01000000
00000000
,
00100000
00010000
20000000
00000000
30200000
00000000
02300000
00000000
,
03020000
00000000
00230000
00000000
00302000
00000000
00013000
00000100
,
00010000
00000000
00000100
00000000
00000010
00000000
00000000
00000000
00000001
00000000
00000000
00000000
00000010
00000000
00000000
00000001
,
00000000
00000000
00001000
00000000
00000010
00000000
00000000
00000000
00001000
00000000
00000000
00000000
00000010
00000000
00000000
00001000
,
00000000
00000000
00000100
00000000
00001000
00000000
00000000
00000000
00000100
00000000
00000000
00000000
00010000
00000000
00000000
00001000
,
00000000
00100000
00010000
00000000
01000000
00000000
00100000
10000000
,
00010000
10000000
01000000
00000000
00100000
00000000
00010000
00100000
,
00010000
00000000
00100000
00000000
00001000
00000000
00010000
00000100
,
00010000
00000000
00000100
00001000
00000100
00000000
00001000
00000001
,
00001000
00000000
00000001
00000010
00000001
00000100
00000010
00001000
,
00000100
00001000
00000002
00000000
00000010
00000000
00001000
00001000
,
00001000
00000000
00000203
00000000
00000010
00000000
00000001
00000001
,
00000301
00000000
00001010
00000000
00001100
00000000
00000100
00010000
,
00000100
00000000
00000000
00000000
00010000
00000000
00001000
00000000
00010000
00000000
00001000
00000000
01000000
00000000
00000000
01000000
,
00010000
10000000
01000000
00000000
00100000
00000000
10000000
01000000
,
00100000
00000000
01000000
00000000
10000000
00000000
00010000
10000000
,
00010000
01000000
00100000
00000000
01000000
00000000
00010000
00000000
,
00100000
00000000
00001000
00010000
00001000
00010000
00000100
00010000
,
00000100
00010000
00011000
00000000
00001000
00000000
00100000
00010000
,
00100000
00000000
00001000
00010000
00001000
00000000
00010000
00000100
,
00010000
00000100
00001000
00000000
00000001
00000000
00000010
00000001
,
00000100
00000000
00000010
00001000
00000100
00001000
00000001
00000100
,
00000010
00000000
00000100
00000000
00000010
00000000
00001000
00000100
,
00001000
00000000
00000001
00000010
00000001
00000000
00001000
00000010
,
00000100
00000000
00000010
00000000
00010000
00000000
00001000
00010000
,
00001000
00100000
00010000
00000000
01000000
00000000
00100000
10000000
,
01000000
00000000
00110000
00000000
11000000
00000000
00100000
00010000
,
01000000
00000000
10100000
00000000
01010000
00000000
00100000
00001000
,
00100000
00000000
00001000
00010000
00000100
00010000
00001000
00010000
,
00000100
00010000
00000100
00000000
00001000
00000000
00000001
00000010
,
00000001
00000000
00001000
00000010
00001000
00000001
00000100
00000100
,
00000100
00000000
00000010
00001000
00000100
00010000
00001000
00001000
,
00001000
00000000
00100000
00010000
01000000
00100000
10000000
01000000
,
10000000
00010000
10000000
00010000
01000000
00100000
01000000
00100000
,
10000000
01000000
00100000
00000000
00000000
00000000
00000000
00000000
;

//---------------dance-double - ----------------
#NOTES:
     dance-double:
     :
     Easy:
     4:
     0.263,0.270,0.066,0.000,0.000: // measure 1
10000000
00010000
01000000
00010000
,  // measure 2
00100000
00010000
00100000
00000000
,  // measure 3
00001000
00010000
00000100
00010000
,  // measure 4
00001000
00010000
00000100
00000000
,  // measure 5
00001000
00000010
00001000
00000010
,  // measure 6
00000100
00000001
00000010
00000000
,  // measure 7
00000001
00001000
00000001
00001000
,  // measure 8
00000100
00000010
00000100
00000000
,  // measure 9
00000010
00000001
00000100
00000000
,  // measure 10
00000010
00001000
00000100
00000000
,  // measure 11
00001000
00000100
00001000
00000100
,  // measure 12
00010000
00001000
00010000
00001000
,  // measure 13
01000000
00100000
10000000
00000000
,  // measure 14
00010000
01000000
00010000
00000000
,  // measure 15
10000000
01000000
00100000
00000000
,  // measure 16
00100000
01000000
10000000
00010000
,  // measure 17
10010000
10000000
00010000
01000000
,  // measure 18
00010000
00100000
00001000
00011000
,  // measure 19
00010000
00000100
00000100
00000010
,  // measure 20
00000010
00000001
00000001
00001000
,  // measure 21
00001000
00001001
00000000
00000001
,  // measure 22
00001000
00000010
00000100
00000001
,  // measure 23
00001000
00000100
00000000
00000100
,  // measure 24
00010000
00001000
00010000
00001000
,  // measure 25
01000000
00010000
00010000
10000000
,  // measure 26
10000000
00100000
00100000
01000000
,  // measure 27
01000000
00010000
01000000
00010000
,  // measure 28
01000000
00100000
10000000
01000000
,  // measure 29
00100000
01100000
00000000
00100000
,  // measure 30
00010000
01000000
00000000
00100000
,  // measure 31
10000000
01000000
10000000
00010000
,  // measure 32
00100000
00001000
00010000
00000100
,  // measure 33
00000010
00000100
00000010
00000001
,  // measure 34
00000001
00001000
00000010
00000100
,  // measure 35
00000100
00000010
00001000
00000100
,  // measure 36
00001000
00000100
00010000
00001000
,  // measure 37
00010000
00011000
00000000
00001000
,  // measure 38
00100000
00001000
00000000
00100000
,  // measure 39
00010000
00100000
00010000
10000000
,  // measure 40
00100000
01000000
00010000
00100000
,  // measure 41
00001000
00010000
00000000
00010000
,  // measure 42
00000100
00010000
00000000
00000100
,  // measure 43
00000010
00000100
00000010
00000001
,  // measure 44
00000100
00000010
00001000
00000001
,  // measure 45
00000100
00000110
00000000
00000010
,  // measure 46
00001000
00000010
00000000
00001000
,  // measure 47
00000100
00001000
00001000
00000100
,  // measure 48
00000100
00010000
00001000
00010000
,  // measure 49
00001000
00011000
00000000
00001000
,  // measure 50
00100000
00010000
00000000
10000000
,  // measure 51
00100000
10000000
00100000
01000000
,  // measure 52
00010000
00100000
00001000
00010000
,  // measure 53
00001000
00010000
00000000
00000000
;
