#TITLE:Vairocana;
#SUBTITLE:;
#ARTIST:五条式改;
#TITLETRANSLIT:;
#SUBTITLETRANSLIT:;
#ARTISTTRANSLIT:Gojoshiki Kai;
#GENRE:;
#CREDIT:;
#MENUCOLOR:;
#BANNER:Vairocana.png;
#BACKGROUND:Vairocana-BG.png;
#LYRICSPATH:;
#CDTITLE:./CDTitles/pop'n music.png;
#MUSIC:Vairocana.mp3;
#OFFSET:-0.130;
#SAMPLESTART:14.190;
#SAMPLELENGTH:12.000;
#SELECTABLE:YES;
#LISTSORT:;
#DISPLAYBPM:290.000;
#BPMS:0.000=72.500,17.000=290.000,194.000=72.500,202.000=145.000,218.000=290.000;
#STOPS:113.000=2.543;
#TICKCOUNT:0.000=2;
#BGCHANGES:7.750=Fireworks2.avi=0.500=1=0=1,
13.750=Fireworks2.avi=1.000=0=0=1,
16.750=Spikes5.avi=1.000=0=0=1,
64.750=Spikes10.avi=1.000=0=0=1,
88.750=Spikes7.avi=1.000=0=0=1,
112.750=Spikes7.avi=0.000=0=0=1,
113.250=Spikes7.avi=1.000=0=0=1,
137.750=Spikes1.avi=0.797=0=0=1,
151.750=Spikes2.avi=0.797=0=0=1,
165.750=Spikes1.avi=0.797=0=1=1,
179.750=Spikes2.avi=0.797=0=1=1,
193.750=Fireworks1.avi=0.500=0=0=1,
201.750=Fireworks2.avi=1.000=0=1=1,
217.750=Spikes6.avi=1.000=0=0=1,
253.750=Wheel1.avi=0.797=0=0=1,
293.750=Spikes5.avi=1.000=0=1=1,
335.750=Vairocana-BG.png=1.000=0=0=0;
#KEYSOUNDS:;
#ATTACKS:;

//---------------dance-single - BEGINNER----------------
#NOTES:
     dance-single:
     BEGINNER:
     Beginner:
     2:
     0.161,0.258,0.000,0.123,0.000:
0000
0000
0000
0000
,
0000
0000
0000
0000
,
0100
0000
0010
0000
,
0100
0000
0001
0001
,
0001
0001
0000
0000
,
0100
0000
0000
0001
,
0000
0000
1000
0000
,
0000
0010
0000
0000
,
0100
0000
0000
0001
,
0000
0000
0010
0000
,
0000
0100
0000
0000
,
1000
0000
0000
0010
,
0000
0000
0100
0000
,
0000
0001
0000
0000
,
1000
0000
0000
0100
,
0000
0000
0010
0000
,
0000
0001
0000
0000
,
0001
0000
0000
0002
,
0000
0000
0003
0000
,
0000
1000
0000
0000
,
1000
0000
0000
2000
,
0000
0000
3000
0000
,
0000
1000
0000
0000
,
0100
0000
0000
0010
,
0000
0000
0001
0000
,
0000
0001
0000
0000
,
0010
0000
0000
0100
,
0000
0000
1000
0000
,
0000
0000
1000
0000
,
0000
1000
0000
0000
,
1000
0000
0000
0000
,
0000
0000
0001
0000
,
0000
0001
0000
0000
,
0002
0000
0000
0003
,
0000
0000
0010
0000
,
0010
0000
0020
0000
,
0000
0000
0000
0000
,
0030
0000
0000
0000
,
0100
0000
0100
0000
,
0200
0000
0000
0000
,
0000
0000
0300
0000
,
0000
0000
0010
0000
,
0010
0000
0020
0000
,
0000
0000
0000
0000
,
0030
0000
0000
0000
,
0100
0000
0100
0000
,
0200
0000
0000
0000
,
0000
0000
0300
0000
,
0000
0000
1000
0000
,
1000
0000
0001
0000
,
0001
0000
1000
0000
,
0000
0000
1000
0000
,
0000
0000
0001
0000
,
0000
0000
0001
0000
,
0000
0000
0100
0000
,
0000
0100
0000
0000
,
0010
0000
0000
1000
,
0000
0000
0001
0000
,
0000
0100
0000
0000
,
0001
0000
0000
1000
,
0000
0000
0001
0000
,
0000
0001
0000
0000
,
1000
0000
0000
1000
,
0000
0000
0002
0000
,
0000
0000
0003
0000
,
0010
0000
2000
0000
,
0000
0000
3000
0000
,
0100
0000
0002
0000
,
0000
0000
0003
0000
,
0100
0000
2000
0000
,
0000
0000
3000
0000
,
0100
0000
0020
0000
,
0000
0000
0030
0000
,
0000
0000
1000
0000
,
0000
0001
0000
0000
,
0100
0000
0000
0010
,
0000
0000
1000
0000
,
0000
0001
0000
0000
,
0010
0000
0000
0100
,
0000
0000
1000
0000
,
0000
0001
0000
0000
,
0100
0000
0000
0010
,
0000
0000
1000
0000
,
0000
0010
0000
0000
,
0100
0000
0000
0000
;

//---------------dance-single - BASIC----------------
#NOTES:
     dance-single:
     BASIC:
     Easy:
     4:
     0.292,0.356,0.010,0.123,0.000:
0000
0000
0000
0000
,
0000
0000
0000
0000
,
0001
0000
1000
0000
,
0100
0000
0010
0010
,
0100
0100
0000
0100
,
0001
0000
0001
0100
,
0000
0100
0010
0000
,
0010
1000
0000
1000
,
0100
0000
0100
0010
,
0000
0001
0000
1000
,
0000
0001
0000
0001
,
0100
0000
0100
0001
,
0000
0001
0010
0000
,
0010
0100
0000
0100
,
1000
0000
1000
0010
,
0000
0001
0000
1000
,
0000
0000
0001
0000
0000
1000
0000
0000
,
0100
0000
0000
1000
0000
0000
0002
0000
,
0000
0000
0003
0000
,
0000
0000
0001
0000
0000
0100
0000
0000
,
0001
0000
0000
1000
0000
0000
0002
0000
,
0000
0000
0003
0000
,
0000
0000
0010
0000
0000
1000
0000
0000
,
0100
0000
0000
0010
0000
0000
0001
0000
,
0000
0100
0000
0000
0010
0000
0010
0000
,
0000
0000
1000
0000
0000
0010
0000
0000
,
0100
0000
0000
0001
0000
0000
0001
0000
,
0000
0100
0000
0000
0010
0000
0000
1000
,
0000
0000
0000
0000
1000
0000
0000
0100
,
0000
0000
0010
0000
0000
0001
0000
0000
,
0200
0000
0000
0000
,
0300
0000
0000
0000
0001
0000
0000
0100
,
0000
0000
0001
0000
0000
1000
0000
0000
,
0020
0000
0000
0000
,
0030
0000
0010
0000
,
1000
0000
0001
0000
,
0100
0001
1000
0100
,
1000
0001
1000
0000
,
0001
0000
0010
0000
,
0100
0000
1000
0100
,
0010
0001
0100
0010
,
1000
0000
0010
0000
,
1000
0000
0100
0000
,
1000
0100
0010
0001
,
0100
0010
0100
0000
,
0001
0000
0010
0000
,
1000
0000
0001
0000
,
0100
0000
1000
0000
,
0001
0000
0000
0000
1000
0000
0000
1000
,
0001
0000
0000
0001
1000
0000
0000
0000
,
0001
0000
0001
0000
,
0100
0000
0001
0000
,
0010
0000
1000
0000
,
0001
0000
0010
0100
,
1000
0001
1000
0000
,
1000
0100
0000
0100
,
0010
0000
0001
0000
,
0100
0000
0010
0000
,
1000
0000
0001
0000
,
0100
0010
1000
0001
,
1000
0100
0010
0000
,
0010
0001
0000
0001
,
0100
0000
0100
0001
,
0000
0001
0020
0000
,
1000
0000
0001
0000
,
1030
0000
0200
0000
,
0001
0000
1000
0000
,
0301
0000
0002
0000
,
0100
0000
0010
0000
,
1003
0000
2000
0000
,
0100
0000
0010
0000
,
3001
0000
2002
0000
,
0000
0000
0000
0000
,
3003
0000
1000
0000
,
0000
0100
0000
0000
,
0010
0000
0000
0001
,
0000
0000
0001
0000
,
0000
0010
0000
0000
,
0100
0000
0000
1000
,
0000
0000
1000
0000
,
1000
0100
0000
0100
,
0010
0000
0010
0001
,
0000
0001
0100
0000
,
0100
0010
0000
2000
,
0002
0000
0000
0000
,
0000
0000
0000
0000
,
0000
0000
0000
0000
,
3003
0000
0000
0000
;

//---------------dance-single - DIFFICULT----------------
#NOTES:
     dance-single:
     DIFFICULT:
     Medium:
     7:
     0.454,0.578,0.051,0.215,0.000:
0000
0000
0000
0000
,
0000
0000
0000
0000
,
0100
0000
0010
0000
,
1000
0000
0001
0001
,
1000
1000
0100
1000
,
0001
0100
0010
1000
,
0010
0100
0001
0100
,
0010
1000
0100
0010
,
0001
0010
0001
1000
,
0100
1000
0001
0100
,
0000
0100
0010
1000
,
0001
0100
0010
1000
,
0001
0010
0001
0100
,
0001
1000
0100
0010
,
0001
0100
0010
2000
,
0000
3002
0000
0023
,
0000
0000
0130
0000
0000
1000
0000
1000
,
0100
0000
0000
0010
0000
0010
0002
0000
,
0000
0000
0003
0000
,
0000
0000
0001
0000
0000
0010
0000
0010
,
0100
0000
0000
1000
0000
1000
0002
0000
,
0000
0000
0003
0000
,
0000
1000
0100
0010
,
0001
0100
0010
1000
,
0001
0000
0100
0000
0010
1000
0000
1000
,
0000
1000
0010
0001
,
1000
0100
0001
1000
,
0100
0001
1000
0010
,
0001
0000
0100
0000
1000
0000
0000
0100
,
0000
0100
1000
0000
0000
0001
0000
0001
,
0020
0000
0000
0000
,
0030
0000
0000
0000
0001
0000
0000
0010
,
0000
0010
0100
0000
0000
1000
0000
1000
,
0002
0000
0000
0000
,
0003
0000
0000
0000
0010
0000
0000
0010
,
1000
0000
0000
1000
0001
0000
0000
0001
,
0100
0010
1000
0001
,
0100
0010
1000
0100
,
0010
0000
0000
0010
0001
0000
0000
0001
,
0100
0000
0000
0100
0010
0000
1000
0000
,
0100
0010
0001
0100
,
0010
0000
1000
0000
0001
0000
0000
0001
,
0100
0000
0000
0100
1000
0000
0000
1000
,
0100
0001
1000
0100
,
0010
0001
1000
0100
,
1000
0000
0000
1000
0001
0000
0000
0001
,
0100
0000
0000
0100
0010
0000
1000
0000
,
0100
0010
0001
0100
,
0010
0000
1000
0000
0002
0000
0003
0010
,
0200
0000
0300
1000
0002
0000
0003
0000
,
2000
3000
0002
0000
,
0103
0000
2000
0000
,
3100
0000
0010
0001
,
1000
0100
1000
0010
,
0100
0000
0001
0000
1000
0100
1000
0100
,
1000
0000
0001
0100
0001
0100
0001
0000
,
1000
0100
0010
0001
,
0100
0010
1000
0001
,
0100
1000
0001
0010
,
1000
0001
1000
0010
,
0100
0000
0001
0000
1000
0010
1000
0010
,
1000
0000
0001
0010
0001
0010
0001
0000
,
1000
0100
0010
0001
,
0100
0010
2000
0000
,
0100
0000
3001
0000
,
0010
0100
0002
0000
,
0100
0000
1003
0000
,
0010
0001
2000
0000
,
0010
0000
3001
0000
,
0100
1000
0020
0000
,
0100
0000
1030
0000
,
0100
0001
2002
0000
,
0000
0000
0000
0000
,
3003
0000
1000
0100
,
1000
0010
0100
0001
,
0100
0010
1000
0001
,
0010
0001
0100
0010
,
1000
0001
1000
0010
,
0100
0001
0100
1000
,
0100
0001
1001
0100
,
0010
0001
0010
0100
,
1001
0100
1000
0010
,
0100
0001
0110
0001
,
1000
0100
0010
0100
,
0220
0000
0000
0000
,
0000
0000
0000
0000
,
0000
0000
0000
0000
,
0330
0000
0000
0000
;

//---------------dance-single - EXPERT----------------
#NOTES:
     dance-single:
     EXPERT:
     Hard:
     10:
     0.789,1.000,0.041,0.174,0.138: // measure 1
0000
0000
0000
0000
,  // measure 2
0000
0000
0000
0000
,  // measure 3
0001
0010
0100
1000
0001
0010
0100
1000
0001
0100
0010
1000
0001
0100
0010
1000
,  // measure 4
0100
1000
0001
0010
0100
1000
0001
0010
0100
0000
0000
1000
0001
0000
0000
1000
,  // measure 5
0010
0100
0001
1000
0001
0000
0100
0000
0001
0000
0100
0000
0001
0000
0000
0000
,  // measure 6
1000
0100
1000
0100
1000
0000
0001
0100
,  // measure 7
0010
1000
0100
0000
0010
0001
0100
0010
,  // measure 8
1000
0000
0010
0100
0001
0010
0100
0000
,  // measure 9
1000
0001
0100
0010
1000
0000
1000
0001
,  // measure 10
0100
0010
1000
0000
0100
1000
0001
1000
,  // measure 11
0010
0000
0010
0100
0001
0100
1000
0000
,  // measure 12
1000
0100
0001
0100
0010
0000
1000
0010
,  // measure 13
0100
0001
0010
0000
0001
0010
1000
0010
,  // measure 14
0001
0100
0010
1000
0100
0010
0001
0100
,  // measure 15
0010
1000
0100
0010
0001
1000
0001
0100
,  // measure 16
0001
1000
0100
1000
0001
0100
0001
1000
,  // measure 17
0100
1000
0010
1000
0000
1000
0000
0100
,  // measure 18
0010
0001
0000
0100
0000
0010
2000
0000
,  // measure 19
0000
0000
0000
0000
0000
0000
0000
3000
,  // measure 20
0000
0000
0001
0100
0000
0100
0000
0001
,  // measure 21
0010
0100
0000
0100
0000
1000
0002
0000
,  // measure 22
0000
0000
0000
0000
0000
0000
0000
0003
,  // measure 23
0000
0000
1000
0100
0010
0001
0100
0010
,  // measure 24
0100
0001
0010
0100
1000
0010
0100
0001
,  // measure 25
1000
0010
0100
0000
0001
0100
0000
0101
,  // measure 26
0000
0000
1000
0010
0001
0010
1000
0001
,  // measure 27
0100
1000
0100
0001
1000
0100
0001
0100
,  // measure 28
1000
0010
0001
0010
1000
0001
0010
0001
,  // measure 29
1000
0100
0000
0000
0010
0001
0000
0001
,  // measure 30
0000
0010
0100
1000
0000
1000
0000
0001
,  // measure 31
0200
0000
0000
0000
,  // measure 32
0000
0300
0000
0000
0001
0100
0000
0010
,  // measure 33
0000
1000
0100
0010
0000
0001
0000
0010
,  // measure 34
0200
0000
0000
0000
,  // measure 35
0000
0300
0000
0000
0010
0001
0000
0001
,  // measure 36
1000
0100
0000
0100
1000
0010
0100
0001
,  // measure 37
0100
0010
1000
0010
0100
0001
0010
0100
,  // measure 38
1000
0010
0100
0001
1000
0100
1000
0001
,  // measure 39
1000
0100
0000
0100
1000
0001
0000
0001
,  // measure 40
0010
0100
0000
0100
1000
0010
0001
0010
,  // measure 41
1000
0001
0100
1000
0100
0001
1000
0100
,  // measure 42
0010
0001
0100
0001
1000
0010
0000
0010
,  // measure 43
0100
0001
0000
0001
1000
0100
0000
0100
,  // measure 44
1000
0010
0100
0001
1000
0100
1000
0010
,  // measure 45
0100
0001
1000
0001
0100
0010
1000
0010
,  // measure 46
0100
0001
0000
0100
0001
1000
0000
1000
,  // measure 47
0100
0010
0000
0010
1000
0010
0001
0100
,  // measure 48
0001
1000
0001
0100
0010
1000
0010
0100
,  // measure 49
0001
0100
0001
0010
0200
0000
0300
0010
,  // measure 50
0002
0000
0003
0100
2000
0000
3000
0000
,  // measure 51
0002
0000
0000
0000
1003
0000
0000
0000
0001
1000
0001
0000
0100
0000
0001
0100
,  // measure 52
0000
0010
1000
0000
0010
0000
0100
0001
0000
0100
0010
0000
1000
0000
0010
0100
,  // measure 53
0000
0001
0010
0000
0100
0000
1000
0000
0001
0000
0100
0000
0010
0000
1000
0000
,  // measure 54
0100
0000
0010
0000
0001
0000
1000
0000
0001
0100
0010
1000
0001
0100
0010
1000
,  // measure 55
0002
0000
0003
0000
1000
0100
1000
0100
,  // measure 56
1000
0000
0001
0100
0001
0100
0001
0000
,  // measure 57
1000
0100
0010
0001
0100
0010
1000
0010
,  // measure 58
0100
0001
0010
1000
0010
0001
0100
1000
,  // measure 59
0100
0001
0100
0010
1000
0010
0100
0001
,  // measure 60
0010
0100
1000
0010
0100
0001
0100
0010
,  // measure 61
1000
0100
0010
0000
0001
0100
0010
0100
,  // measure 62
0001
0000
1000
0010
0100
0010
1000
0000
,  // measure 63
1000
0100
0010
0001
0100
0010
1000
0100
,  // measure 64
0010
0001
0100
0001
0020
0000
0000
0000
,  // measure 65
0001
0000
0100
0000
,  // measure 66
1030
0000
0001
0100
0002
0000
0000
0000
,  // measure 67
0100
0000
1000
0000
,  // measure 68
0103
0001
1000
0010
0200
0000
0000
0000
,  // measure 69
1000
0000
0010
0000
,  // measure 70
0301
0000
1000
0001
0020
0000
0000
0000
,  // measure 71
0001
0000
0100
0000
,  // measure 72
1030
0000
0001
1000
2002
0000
0000
0000
,  // measure 73
0000
0000
0000
0000
,  // measure 74
3003
0000
0000
0000
1000
0100
0010
0001
,  // measure 75
0100
0010
0100
0001
0010
0100
1000
0010
,  // measure 76
0100
0010
1000
0010
0100
0010
0001
0010
,  // measure 77
0100
0001
1000
0001
0100
0001
1000
0010
,  // measure 78
0100
0001
1000
0010
0100
0001
1000
0001
,  // measure 79
0100
0001
0010
0001
0010
0100
1000
0010
,  // measure 80
0100
0010
1000
0010
0001
0010
1000
0001
,  // measure 81
1000
0100
1000
0001
0010
0100
0000
1010
,  // measure 82
0100
0001
1000
0100
0010
0001
0100
0010
,  // measure 83
1000
0001
1000
0010
1000
0010
1000
0001
,  // measure 84
0010
0001
1000
0100
1000
0001
0100
0001
,  // measure 85
2002
0000
0000
0000
,  // measure 86
0000
0000
0000
0000
,  // measure 87
0000
0000
0000
0000
,  // measure 88
3003
0000
0000
0000
;
