#TITLE:隅田川夏恋歌;
#SUBTITLE:;
#ARTIST:seiya-murai feat. ALT;
#TITLETRANSLIT:Sumidagawa Natsu Koi Uta;
#SUBTITLETRANSLIT:;
#ARTISTTRANSLIT:;
#GENRE:;
#CREDIT:;
#MENUCOLOR:;
#NEWMETERSYSTEM:NO;
#BANNER:Sumidagawa Natsu Koi Uta-bn.png;
#BACKGROUND:Sumidagawa Natsu Koi Uta-bg.png;
#LYRICSPATH:;
#CDTITLE:;
#MUSIC:Sumidagawa Natsu Koi Uta.mp3;
#OFFSET:-0.320;
#SAMPLESTART:45.320;
#SAMPLELENGTH:12.000;
#SELECTABLE:YES;
#LISTSORT:;
#BPMS:0.000=180.000;
#STOPS:;
#BGCHANGES:;
#ATTACKS:;

//---------------dance-single - ----------------
#NOTES:
     dance-single:
     :
     Easy:
     5:
     0.421,0.462,0.226,0.026,0.000:
0000
0000
0000
0000
,
1010
0000
0000
1001
0000
0000
1000
0000
,
0010
0000
0000
0100
0010
0000
0000
0000
,
1000
0100
0001
0100
,
1000
0000
0000
0001
0010
0000
0000
0000
,
0001
0100
0001
1000
,
0001
0000
0000
0100
0010
0000
0000
0000
,
0100
1000
0010
1000
,
0001
0000
0000
0100
0001
0000
0000
0000
,
0010
0001
0010
0100
,
1000
0100
1000
0100
,
1000
0100
0010
0001
,
0010
0000
0000
0001
0200
0000
0000
0000
,
0000
0000
0001
0001
,
0310
1000
0010
1000
,
0100
0010
0001
1000
,
0001
1001
1000
1001
,
1000
0100
0010
0001
1000
0000
0001
0000
,
0100
0000
0000
0100
0010
0000
0000
0000
,
0010
1000
0001
0010
,
0001
0000
0000
0100
0010
0000
0000
0100
,
0010
0000
0000
1000
0100
0000
0000
0000
,
0001
0000
0000
1000
0001
0000
0000
0000
,
0100
0010
1000
0100
,
0010
0000
0000
1000
0100
0000
0000
0100
,
0010
0000
0000
0010
0001
0000
0000
0000
,
1000
1000
1000
1000
,
0100
0100
0100
0100
,
0010
0010
0010
0010
,
0010
0010
0001
1000
,
0001
0001
0001
0001
,
0100
0100
0100
0100
,
0010
1000
0010
1000
,
0010
0001
0010
1001
,
0100
0010
1000
0100
,
1000
0001
0010
0001
,
0100
0000
0000
0010
1000
0000
0000
0001
,
0100
0000
1001
0000
,
0100
1000
0001
0010
,
0001
0010
0100
1000
,
0101
1000
0101
1000
,
1000
0000
0100
0010
0001
0000
1001
0000
,
0010
0100
0001
0010
,
0100
1000
0001
1000
,
0001
0000
0000
0010
0001
0000
0000
1000
,
0001
0000
0110
0000
,
0100
0010
0100
0001
,
0010
0100
1000
0001
,
0101
1000
0101
1000
,
0001
0000
0010
0100
1000
0000
0010
0000
,
0200
0010
0010
0010
,
0301
1000
0000
0001
0000
1000
0000
0001
,
0100
0010
0100
0010
,
1000
0100
0010
0001
,
1000
0100
1000
0100
,
1000
0010
0100
0001
,
0010
0100
1000
0010
,
1001
1001
1001
0110
,
0001
0100
1000
0100
,
0001
0010
0001
1000
,
0100
0000
0000
1000
0100
0000
0000
0010
,
0100
0000
1001
0000
,
0100
0010
0001
0100
,
0010
1000
0100
0010
,
0101
1000
0101
1000
,
0010
0000
0100
0001
1000
0000
0110
0000
,
0001
0100
0001
0010
,
0100
1000
0001
1000
,
0100
0000
0000
0010
0100
0000
0000
1000
,
0001
0000
0110
0000
,
0001
1000
0010
1000
,
0001
0100
1000
0100
,
0101
1000
0101
1000
,
0001
0000
1000
0100
0010
0000
1000
0000
,
0101
1000
0101
1000
,
0010
0000
0001
0010
0100
0000
0010
0000
,
0020
0000
0000
0000
,
0001
0100
0001
0130
,
1001
0100
0010
0100
,
0001
0000
0010
0000
0001
1000
0001
0000
,
1000
0100
0001
0100
,
1000
0010
0001
0010
;

//---------------dance-single - Copied from----------------
#NOTES:
     dance-single:
     Copied from:
     Beginner:
     2:
     0.165,0.249,0.078,0.139,0.000:
0000
0000
0000
0000
,
0000
0000
0000
0000
,
0010
0000
0000
0000
,
0010
0000
0100
0000
,
0010
0000
0000
0000
,
1000
0000
1000
0000
,
0001
0000
0000
0000
,
0010
0000
0001
0000
,
0010
0000
0000
0000
,
0100
0000
1000
0000
,
0001
0000
0000
0000
,
1000
0000
0000
0000
,
0010
0000
0010
0000
,
0000
0000
0100
0000
,
0010
0000
0000
0000
,
0000
0000
1000
0000
,
0100
0000
0010
0000
,
0002
0000
0003
0000
,
0100
0000
0010
0000
,
0100
0000
0000
0000
,
0001
0000
0100
0000
,
0001
0000
0100
0000
,
0001
0000
0000
0000
,
1000
0000
0000
0000
,
0100
0000
1000
0000
,
0010
0000
1000
0000
,
0002
0000
0003
0000
,
0200
0000
0300
0000
,
0020
0000
0000
0000
,
0000
0000
0030
0000
,
2000
0000
3000
0000
,
0002
0000
0003
0000
,
0100
0000
0001
0000
,
1000
0000
0010
0000
,
1001
0000
0000
0000
,
0100
0000
0000
0000
,
0010
0000
0010
0000
,
0010
0000
0000
0000
,
1000
0000
0000
0000
,
0001
0000
0100
0000
,
1000
0000
0001
0000
,
1000
0000
0000
0000
,
0110
0000
0000
0000
,
0001
0000
0000
0000
,
1000
0000
0010
0000
,
1000
0000
0001
0000
,
0010
0000
0000
0000
,
0001
0000
0000
0000
,
0100
0000
0010
0000
,
0100
0000
0010
0000
,
2002
0000
0000
0000
,
3003
0000
0000
0000
,
0220
0000
0000
0000
,
0330
0000
0000
0000
,
2002
0000
0000
0000
,
3003
0000
0000
0000
,
1000
0000
0001
0000
,
0010
0010
0010
0000
,
1001
0000
0000
0000
,
0100
0000
0000
0000
,
0010
0000
1000
0000
,
0010
0000
0000
0000
,
0100
0000
0000
0000
,
0001
0000
0000
0000
,
1000
0000
0001
0000
,
1000
0000
0001
0000
,
0110
0000
0000
0000
,
0001
0000
0000
0000
,
0010
0000
0100
0000
,
1000
0000
0000
0000
,
0010
0000
0000
0000
,
1000
0000
0000
0000
,
0001
0000
0100
0000
,
0001
0000
0100
0000
,
0010
0000
1000
0000
,
0010
0000
1000
0000
,
2002
0000
0000
0000
,
3003
0000
0000
0000
,
0220
0000
0000
0000
,
0330
0000
0000
0000
,
0100
0000
0100
0000
,
0100
0000
0100
0100
;

//---------------dance-single - Copied from----------------
#NOTES:
     dance-single:
     Copied from:
     Medium:
     7:
     0.583,0.533,0.270,0.139,0.000:
0000
0000
0000
0000
,
0011
0000
0000
1100
0000
0000
0001
0010
,
0100
0000
0000
0100
0000
0000
1000
0010
,
1000
0000
0000
0001
0000
0000
0100
0001
,
0010
0000
0000
0010
0000
0000
0100
1000
,
0010
0000
0000
0100
0000
0000
0001
1000
,
0001
0000
0000
0100
0000
0000
0001
1000
,
0100
0000
0000
0010
0000
0000
0100
1000
,
0001
0000
0000
0010
0000
0000
0001
0100
,
0010
0000
0000
1000
0000
0000
0100
1000
,
0010
1010
0100
0101
,
0001
0010
0100
1000
0010
0100
0001
0000
,
1000
0000
0001
1000
0001
0000
0100
0000
,
0001
0000
0010
0000
0100
1000
0010
0000
,
0100
1001
0010
1001
,
0001
0010
0100
0010
0001
1000
0100
1000
,
0010
0000
0010
0100
0010
0000
0010
0100
,
0010
1000
0100
0010
0002
0000
2003
0000
,
3001
0000
0100
0001
0000
1000
0100
0000
,
0010
0000
0100
0001
0000
0100
1000
0000
,
0010
0000
0100
0001
0100
0000
0010
1000
,
0010
0000
1000
0001
1000
0000
0020
0000
,
0230
0000
0310
1000
0000
0000
1000
0100
,
0010
0000
0100
0001
0000
0100
1000
0010
,
0100
0000
0001
1000
0001
0000
0010
0001
,
0010
0000
0100
0010
0100
0000
1000
0010
,
0100
0001
0100
0000
0100
0001
0100
0000
,
0010
1000
0010
0000
0010
1000
0010
0000
,
0100
0010
0100
0000
0100
0010
0100
0000
,
0001
0010
0001
0000
0001
0010
0001
0000
,
1000
0100
1000
0000
1000
0100
1000
0000
,
0001
1000
0001
0000
0001
1000
0001
0000
,
1000
1100
0010
0011
,
0100
0001
0010
0100
1000
0000
1001
0000
,
0010
0100
0010
0100
0001
1000
0100
0000
,
1000
0010
0100
0001
,
0020
0130
2000
3010
,
0200
0000
0301
0010
0100
0000
1000
0010
,
0100
0001
0010
1000
0010
0001
0100
0000
,
0010
1000
0001
0100
,
0011
0010
1010
0010
,
1001
0000
1000
0100
0001
0000
1001
0000
,
1000
0100
0001
0010
1000
0010
0100
0000
,
0010
0001
0010
0001
,
2000
3100
0002
0013
,
0200
0000
0301
0010
0001
0000
1000
0100
,
1000
0010
0100
0001
0010
0001
0100
0000
,
0010
1000
0100
0001
,
0101
1000
1100
0010
,
1001
0000
1000
0100
0001
0000
0100
0010
,
0100
0100
0100
0100
,
0001
0010
0100
1000
0001
0010
0100
1000
,
0001
0001
0001
0001
,
1000
0100
0010
0001
1000
0100
0010
0001
,
1000
1000
1000
1000
,
0010
0100
1000
0001
0010
0100
1000
0001
,
0010
0010
0100
0100
,
1001
0000
0110
0000
1001
0000
0100
0001
,
1000
0010
0100
0001
0010
0100
0010
0000
,
0001
1000
0010
1000
,
0020
0130
0002
1003
,
2000
0000
3100
0010
0100
0000
1000
0010
,
0100
0001
1000
0001
1000
0100
0010
0000
,
0001
0010
0100
1000
,
0101
0010
1010
0100
,
0110
0000
0001
0010
0100
0000
1001
0000
,
0100
1000
0100
1000
0100
0010
0001
0000
,
0100
1000
0001
0010
,
0200
0310
0002
1003
,
0200
0000
0310
1000
0010
0000
0100
0001
,
0100
0001
0010
0100
1000
0001
1000
0000
,
0001
1000
0100
0001
,
1010
0001
0110
1000
,
0101
0000
1000
0100
0001
0000
0110
0000
,
0011
1000
1010
0010
,
1100
0000
0100
0010
0001
0000
1001
0000
,
0010
0010
0010
0010
,
1000
0100
0010
0001
1000
0100
0010
0001
,
0010
0010
0010
0010
,
0001
0010
0100
1000
0001
0010
0100
1000
,
0001
0001
0010
0010
,
0100
0100
1000
1000
;

//---------------dance-single - Copied from ----------------
#NOTES:
     dance-single:
     Copied from:
     Hard:
     9:
     0.736,0.640,0.148,0.026,0.052: // measure 1
0000
0000
0000
0000
,  // measure 2
1001
0000
0000
1001
0000
0000
0010
0010
,  // measure 3
0100
0000
1000
0100
0001
0000
0100
1000
,  // measure 4
0010
0100
0001
0010
0100
1000
0001
0000
,  // measure 5
0100
0000
0001
0100
0001
0000
1000
0100
,  // measure 6
1000
0010
0100
0010
1000
0000
0100
1000
,  // measure 7
0010
0000
0100
0001
0010
0000
0100
0010
,  // measure 8
0001
1000
0001
0100
0000
0001
0100
1000
,  // measure 9
0100
0000
0001
0010
0100
0000
0010
0100
,  // measure 10
1000
0010
1000
0010
0100
0000
0100
0010
,  // measure 11
1000
0000
1000
0100
0000
0100
1000
0010
,  // measure 12
0100
0001
0010
1000
0010
0001
0100
0001
,  // measure 13
0100
0000
0010
0001
1000
0000
1000
0100
,  // measure 14
1000
0000
1000
0010
1000
0010
0100
0010
,  // measure 15
0100
0000
0001
0010
0000
0010
0001
0100
,  // measure 16
0001
0000
0010
0100
1000
0000
0010
0100
,  // measure 17
0001
0000
0001
0100
0001
0000
0001
0100
,  // measure 18
0001
0010
0100
1000
0010
0000
1001
0000
,  // measure 19
0110
0000
0010
0100
0000
0100
0010
1000
,  // measure 20
0010
0000
0100
0001
0000
0001
0010
0100
,  // measure 21
1000
0000
1000
0001
2000
0000
3001
0100
,  // measure 22
0002
0000
1003
0010
2000
0000
3100
0100
,  // measure 23
1000
0000
0100
1000
0000
1000
0010
0100
,  // measure 24
0001
0000
0010
0001
0000
0001
0100
0001
,  // measure 25
0010
0000
0100
0001
1000
0000
0010
1000
,  // measure 26
0001
0000
0100
0001
1000
0000
0001
0100
,  // measure 27
0001
0010
0001
0010
0001
0010
0001
0010
,  // measure 28
0100
1000
0100
1000
0100
1000
0100
1000
,  // measure 29
0010
1000
0010
1000
0010
1000
0010
1000
,  // measure 30
0010
1000
0010
1000
0001
0100
0001
0010
,  // measure 31
0001
1000
0001
1000
0001
1000
0001
1000
,  // measure 32
0010
0100
0010
0100
0010
0100
0010
0100
,  // measure 33
0001
0000
1000
0100
0010
0000
0100
0010
,  // measure 34
0001
0100
0001
1000
0010
0000
0110
0001
,  // measure 35
1000
0100
0010
0100
1000
0001
0100
0010
,  // measure 36
1000
0001
0010
0100
0010
0001
1000
0100
,  // measure 37
0010
0000
1000
0100
0010
0000
0100
0010
,  // measure 38
0001
0000
0000
0000
0100
0000
0001
0010
0100
0000
1000
0000
1000
0000
0001
0000
,  // measure 39
0010
0100
0001
0100
1000
0010
0100
0001
,  // measure 40
0010
0001
1000
0100
1000
0010
0100
0001
,  // measure 41
0010
0000
0010
0100
1000
0000
0010
0100
,  // measure 42
0001
0000
0000
0000
1000
0000
0001
1000
0001
0000
0010
0000
1001
0000
0000
0000
,  // measure 43
0001
1000
0100
1000
0010
1000
0001
0010
,  // measure 44
0100
0010
1000
0100
0010
0100
0001
0010
,  // measure 45
0100
0000
1000
0100
0010
0000
0001
0010
,  // measure 46
0100
0000
0000
0000
1000
0000
0010
0100
0010
0000
0100
0000
0100
0000
0001
0000
,  // measure 47
0010
0001
1000
0100
0001
0100
1000
0010
,  // measure 48
0100
0001
0010
1000
0010
0001
0100
0010
,  // measure 49
1000
0000
0010
0100
0001
0000
0100
0010
,  // measure 50
1000
0000
0000
0000
0001
0000
0010
0100
1000
0000
0010
0100
0001
0000
1000
0000
,  // measure 51
0010
1000
0010
1000
0010
1000
0010
1000
,  // measure 52
0001
0010
0100
1000
0001
0010
0100
1000
,  // measure 53
0001
0100
0001
0100
0001
0100
0001
0100
,  // measure 54
0010
0001
1000
0100
0010
0001
1000
0100
,  // measure 55
0010
0100
0010
0100
0010
0100
0010
0100
,  // measure 56
0010
0100
1000
0001
0010
0100
1000
0001
,  // measure 57
0010
0100
0010
0100
1000
0001
1000
0001
,  // measure 58
1000
0100
0001
0100
1000
0000
0110
0001
,  // measure 59
1000
0010
0100
0001
1000
0100
1000
0001
,  // measure 60
0010
0100
0010
0001
0100
0010
0100
0001
,  // measure 61
1000
0000
0100
1000
0001
0000
0100
0001
,  // measure 62
1000
0000
0000
0000
0010
0000
1000
0100
0010
0000
0001
0000
0001
0000
0100
0000
,  // measure 63
0010
1000
0100
1000
0100
0010
0001
0100
,  // measure 64
0010
0100
0010
0001
0010
0100
1000
0010
,  // measure 65
0100
0000
0001
0100
0010
0000
1000
0010
,  // measure 66
0100
0000
0000
0000
0001
0000
1000
0010
1000
0000
0001
0000
0110
0000
0000
0000
,  // measure 67
1000
0010
0100
1000
0100
0001
0010
0001
,  // measure 68
1000
0010
0100
0010
1000
0010
1000
0001
,  // measure 69
0010
0000
0100
0010
0001
0000
1000
0100
,  // measure 70
0010
0000
0000
0000
0001
0000
0010
0100
1000
0000
0001
0000
0001
0000
0000
0000
,  // measure 71
0010
0001
0010
0100
1000
0010
0100
0001
,  // measure 72
1000
0100
1000
0010
0100
0001
0010
0001
,  // measure 73
0100
0000
0010
0100
1000
0000
0001
0010
,  // measure 74
0100
0000
0000
0000
1000
0000
0100
0010
0001
0000
1000
0100
0010
0000
0100
0000
,  // measure 75
1000
0000
0001
0010
0100
0000
0010
0100
,  // measure 76
1000
0000
0000
0000
0001
0000
0100
0010
0001
0000
1000
0100
0010
0000
0100
0000
,  // measure 77
1000
0100
1000
0100
1000
0100
1000
0100
,  // measure 78
1000
0100
0010
0001
1000
0100
0010
0001
,  // measure 79
0010
0001
0010
0001
0010
0001
0010
0001
,  // measure 80
0010
0100
1000
0001
0010
0100
1001
0000
,  // measure 81
0101
0011
1010
0110
,  // measure 82
1100
1001
1010
0110
;
