#TITLE:RIZING YOU UP;
#SUBTITLE:;
#ARTIST:ryu*;
#TITLETRANSLIT:;
#SUBTITLETRANSLIT:;
#ARTISTTRANSLIT:;
#CREDIT:;
#BANNER:bn.png;
#BACKGROUND:bg.png;
#LYRICSPATH:;
#CDTITLE:;
#MUSIC:RIZING YOU UP.mp3;
#OFFSET:-0.120;
#SAMPLESTART:1.440;
#SAMPLELENGTH:24.000;
#SELECTABLE:YES;
#BPMS:0.000=177.000;
#STOPS:96.000=0.339
,259.000=0.678
;
#BGCHANGES:;

//---------------dance-single - Pandemonium X----------------
#NOTES:
     dance-single:
     Pandemonium X:
     Hard:
     8:
     0.465,0.484,0.168,0.118,0.093: // measure 1
0000
0000
0000
0000
,  // measure 2
0000
0000
0000
0000
,  // measure 3
0000
0000
0000
0000
,  // measure 4
0000
0000
0000
0000
,  // measure 5
0000
0000
0000
0000
,  // measure 6
1000
0001
0000
1000
0000
0001
0100
0010
,  // measure 7
0000
0100
0000
0100
0000
0100
0010
1000
,  // measure 8
0000
0001
0000
0001
0000
1000
0000
1000
,  // measure 9
0100
0010
0100
1000
0000
0001
0001
0000
,  // measure 10
1000
0000
0001
0010
0000
0001
0010
0001
,  // measure 11
0100
0000
0000
0010
0100
0000
0000
0010
,  // measure 12
1000
0000
1000
0001
,  // measure 13
0100
0001
0010
0001
,  // measure 14
0200
0301
0020
0031
,  // measure 15
0002
0000
0103
0000
0020
0000
0130
0001
,  // measure 16
1000
0000
0000
0000
0001
0000
1000
0100
,  // measure 17
0000
0010
0001
0010
0000
0001
0100
1000
,  // measure 18
0010
0000
0100
0010
0000
0010
1000
0001
,  // measure 19
1000
0000
0000
1000
1000
0000
0000
0001
,  // measure 20
0001
0000
0001
1000
,  // measure 21
0001
0010
0001
0100
,  // measure 22
0001
0100
0010
1000
0000
1000
0100
0010
,  // measure 23
0001
0000
0000
0001
0010
0000
0000
0100
,  // measure 24
1000
1000
1000
1000
,  // measure 25
1000
0000
0000
1000
0100
0010
0100
0000
,  // measure 26
0010
0100
0000
0010
0000
0001
0000
1000
,  // measure 27
0010
0011
1100
0001
,  // measure 28
0001
0100
0000
0010
0100
0010
0000
1000
,  // measure 29
0001
0000
0011
0000
1001
0000
1000
0100
,  // measure 30
0001
0010
0000
0001
0000
1000
0000
1000
,  // measure 31
0001
0100
1001
1000
,  // measure 32
0001
0010
0000
0001
0100
0010
0000
0100
,  // measure 33
0010
0100
0000
0010
1000
0001
0010
0000
,  // measure 34
0011
0001
0011
0001
,  // measure 35
0100
0001
0100
0000
0010
0000
0100
0000
,  // measure 36
0110
0010
0110
0010
,  // measure 37
1000
0001
1000
0000
0100
0000
1000
0000
,  // measure 38
0101
0001
0011
0001
,  // measure 39
0100
0001
0010
0000
0001
0000
0001
0000
,  // measure 40
0010
0001
0000
0001
0100
0010
0000
0100
,  // measure 41
0010
2000
0000
3000
0000
0000
0210
0000
,  // measure 42
1000
0001
1000
0001
,  // measure 43
1000
0001
2000
0000
,  // measure 44
3300
0000
0000
0000
,  // measure 45
0000
0000
0000
0120
,  // measure 46
0001
1000
0001
1000
,  // measure 47
0001
0000
1000
0000
0002
0000
0033
0010
,  // measure 48
0000
0010
0000
0010
0000
0010
0000
0010
,  // measure 49
1000
0100
0000
0010
0011
0000
2000
0000
,  // measure 50
0000
0100
0000
0000
0010
0000
0100
0000
,  // measure 51
0000
0010
0000
3001
,  // measure 52
0000
0001
1000
0001
,  // measure 53
0100
0010
1000
0020
,  // measure 54
0000
0100
0000
0000
0100
0000
0100
0000
,  // measure 55
0000
0100
0000
0130
,  // measure 56
0000
0000
0000
0000
0000
0000
0000
0100
,  // measure 57
0001
1000
0000
0010
0110
0000
1000
0001
,  // measure 58
1000
0001
0000
0001
1000
0001
1000
0000
,  // measure 59
0000
1000
0001
0000
0000
0001
1000
0000
,  // measure 60
0000
1000
0001
1000
,  // measure 61
0001
0000
1000
0000
0001
0000
0010
0100
,  // measure 62
0010
0100
0000
0100
0010
0100
0010
0000
,  // measure 63
0000
0010
0100
0000
0000
0100
0010
0000
,  // measure 64
0000
0000
0100
0000
0010
0100
0000
0001
,  // measure 65
0100
0010
0000
1000
0100
0020
0030
0000
,  // measure 66
0000
0000
0000
0000
1000
0000
0000
0001
0000
0000
0001
0000
0100
0000
0000
0001
,  // measure 67
0000
0000
0010
0000
0001
0000
0000
0100
0000
0000
0010
0000
1000
0000
0000
0001
,  // measure 68
0000
0000
0010
0000
0001
0000
0000
1000
0000
0000
0001
0000
0100
0000
0000
0010
,  // measure 69
0000
0000
0100
0000
0010
0000
0000
0010
0000
0000
0010
0000
1000
0000
0000
0001
,  // measure 70
0000
0000
0010
0000
0001
0000
0000
0001
0000
0000
0001
0000
0100
0000
0000
0010
,  // measure 71
0000
0000
0100
0000
0010
0000
0000
1000
0000
0000
0010
0000
0010
0000
0000
1000
,  // measure 72
0000
0000
0001
0000
1000
0000
0000
0100
0000
0000
0010
0000
0001
0000
0000
0100
,  // measure 73
0000
0000
0010
0000
0100
0000
0000
0010
0000
0000
0100
0000
0000
0000
1000
0000
,  // measure 74
0001
0100
0001
0000
0001
0010
0001
0000
,  // measure 75
0001
0100
0001
0000
0001
0010
0001
0000
,  // measure 76
0101
0000
0110
0000
1000
0001
1000
0000
,  // measure 77
0001
0100
0001
0000
0001
0100
0010
0000
,  // measure 78
1001
0000
0000
0000
1100
0000
0000
1000
0000
0000
0100
0000
1000
0000
0000
0100
,  // measure 79
0000
0000
0001
0000
0010
0000
0000
0001
0000
0000
0010
0000
0001
0000
0000
0010
,  // measure 80
0000
0000
0001
0000
1000
0000
0000
0001
0000
0000
0100
0000
0001
0000
0000
0100
,  // measure 81
0000
0000
0010
0000
1000
0000
0000
0100
0000
0000
1000
0000
0000
0000
0001
0000
,  // measure 82
0010
0100
0220
0000
0000
0000
0000
0000
,  // measure 83
0330
0000
0000
0000
;

//---------------dance-single - Pandemonium X----------------
#NOTES:
     dance-single:
     Pandemonium X:
     Medium:
     7:
     0.398,0.518,0.253,0.126,0.000: // measure 1
0000
0000
0000
0000
,  // measure 2
0000
0000
0000
0000
,  // measure 3
0000
0000
0000
0000
,  // measure 4
0000
0000
0000
0000
,  // measure 5
0000
0000
0000
0000
,  // measure 6
0000
0010
0000
0010
0000
0010
1000
0100
,  // measure 7
0000
0100
0000
0100
0000
0100
1000
0010
,  // measure 8
0000
0100
0000
0001
0000
0100
0000
0100
,  // measure 9
0001
0100
0010
0100
0000
0010
0010
0000
,  // measure 10
0100
0000
0000
0010
0000
0000
0100
0000
,  // measure 11
0100
0000
0010
0000
,  // measure 12
1000
0000
1000
0001
,  // measure 13
0100
0100
0001
0001
,  // measure 14
0200
0301
0002
0013
,  // measure 15
0020
0031
0200
0310
,  // measure 16
1000
0000
0000
0000
0010
0000
1000
0010
,  // measure 17
0000
1000
0010
1000
0000
0010
0000
0000
,  // measure 18
1000
0001
0000
1001
0000
0001
1000
0001
,  // measure 19
0100
0000
0000
0100
0100
0000
0000
0100
,  // measure 20
0100
0000
0101
1100
,  // measure 21
0101
0010
1010
1010
,  // measure 22
0010
1000
0010
0100
0000
0100
0010
1000
,  // measure 23
0001
0000
0000
0001
0001
0000
0000
1000
,  // measure 24
2000
0000
0000
0000
,  // measure 25
3001
0000
0000
0001
1000
0001
1000
0000
,  // measure 26
0001
0100
0010
1000
,  // measure 27
0010
0110
1001
0001
,  // measure 28
1000
0001
0100
0010
,  // measure 29
1000
1010
0101
0001
,  // measure 30
0001
0100
0100
0010
,  // measure 31
0100
0110
1001
1000
,  // measure 32
0001
0000
0100
0000
0010
0000
0000
1000
,  // measure 33
0010
1000
0000
0000
0000
0000
1010
0000
,  // measure 34
0010
1000
0010
0100
,  // measure 35
0001
0011
1100
1000
,  // measure 36
0010
0100
0001
0010
,  // measure 37
0001
0100
0010
1000
,  // measure 38
1000
0010
0010
0100
,  // measure 39
0001
0011
0011
0001
,  // measure 40
0010
0001
0000
0010
0001
0010
0000
0001
,  // measure 41
0010
0200
0000
0000
0000
0300
0000
0000
,  // measure 42
0010
0010
0100
0100
,  // measure 43
0010
0000
0100
0000
0020
0200
0000
0330
,  // measure 44
0000
0000
0000
0000
,  // measure 45
0000
0000
0000
1000
,  // measure 46
1000
0010
0010
1000
,  // measure 47
0010
0000
1000
0000
0020
2000
0000
0000
,  // measure 48
3030
0000
0000
0000
0000
0000
0010
1000
,  // measure 49
1000
0010
0000
1000
0010
0000
0020
0000
,  // measure 50
0000
0130
0000
0000
0100
0000
0100
0000
,  // measure 51
0000
0001
0000
1000
,  // measure 52
0000
0001
0001
1000
,  // measure 53
0001
0100
0010
0100
,  // measure 54
0000
0010
0000
0000
1000
0000
1000
0000
,  // measure 55
0000
0001
0000
1000
,  // measure 56
0000
0000
0000
0000
0000
0000
0000
0001
,  // measure 57
1000
0000
0000
1000
0001
0000
1000
0000
,  // measure 58
0001
1000
0001
0100
,  // measure 59
1000
0001
1000
0010
,  // measure 60
1000
0100
1000
0010
,  // measure 61
0100
1000
0001
1000
,  // measure 62
1000
0001
1000
0001
,  // measure 63
0100
0001
0010
0002
,  // measure 64
0000
0000
0000
0103
,  // measure 65
0000
0000
0000
0000
,  // measure 66
0000
1001
0010
1001
,  // measure 67
0010
1001
0010
1001
,  // measure 68
0100
1001
0100
1001
,  // measure 69
0001
1000
1000
1000
,  // measure 70
1000
1100
0100
1100
,  // measure 71
1000
1100
0100
1100
,  // measure 72
1000
1100
0010
0011
,  // measure 73
0001
0202
0000
0303
,  // measure 74
0000
0000
0001
0000
0100
0001
0100
0000
,  // measure 75
0001
0000
0100
0000
0010
0100
0010
0000
,  // measure 76
1000
0000
0010
0000
1000
0010
1000
0000
,  // measure 77
0001
1000
1000
0001
,  // measure 78
0001
0000
1000
0001
1000
0001
0000
0001
,  // measure 79
0100
0001
0100
0000
0000
0001
0001
0000
,  // measure 80
0000
1000
1000
0000
0000
0000
0010
0000
,  // measure 81
1000
0100
0000
1000
0100
1000
0000
1000
,  // measure 82
0100
0010
0002
0000
0000
0000
0000
0000
,  // measure 83
0003
0000
0000
0000
;

//---------------dance-single - Pandemonium X----------------
#NOTES:
     dance-single:
     Pandemonium X:
     Easy:
     4:
     0.284,0.345,0.042,0.202,0.000: // measure 1
0000
0000
0000
0000
,  // measure 2
0000
0000
0000
0000
,  // measure 3
0000
0000
0000
0000
,  // measure 4
0000
0000
0000
0000
,  // measure 5
0000
0000
0000
0000
,  // measure 6
0000
0010
0000
0010
0000
0010
0000
0000
,  // measure 7
0000
0100
0000
0100
0000
0100
0000
0000
,  // measure 8
0000
0010
0000
0010
0000
0010
0000
0000
,  // measure 9
0000
0000
0000
0000
0000
1000
0001
0000
,  // measure 10
1000
0000
0000
0000
,  // measure 11
1000
0000
0001
0000
,  // measure 12
0100
0000
0010
0010
,  // measure 13
1000
1000
0010
1000
,  // measure 14
0200
0000
1300
0000
,  // measure 15
0200
0000
0310
0000
,  // measure 16
0020
0000
0031
0000
,  // measure 17
0002
0000
1003
0000
,  // measure 18
0001
1000
0001
0100
,  // measure 19
0001
1000
0010
1000
,  // measure 20
0100
0000
0000
0000
,  // measure 21
1000
0001
0100
0001
,  // measure 22
0010
0001
0100
0010
,  // measure 23
1000
0000
1000
0000
,  // measure 24
2020
0000
0000
0000
,  // measure 25
3030
0000
0000
0001
,  // measure 26
1000
0001
0100
0001
,  // measure 27
0010
0002
0013
0001
,  // measure 28
0100
0010
1000
0100
,  // measure 29
1000
0020
1030
0010
,  // measure 30
1000
0010
1000
0100
,  // measure 31
1000
0020
1030
1000
,  // measure 32
0001
1000
0001
0100
,  // measure 33
0002
0200
0000
0000
0303
0000
0001
0000
,  // measure 34
1000
0001
0100
0001
,  // measure 35
0010
0002
0013
0001
,  // measure 36
0100
0010
1000
0100
,  // measure 37
2000
0010
3010
0010
,  // measure 38
1000
0100
0010
0001
,  // measure 39
0010
0002
0013
0001
,  // measure 40
0000
0000
0001
0000
0000
0000
0001
1000
,  // measure 41
0002
0200
0000
0000
0000
0303
0000
0000
,  // measure 42
0001
1000
0001
0100
,  // measure 43
0001
0000
2000
0000
0010
3000
0000
0000
,  // measure 44
0000
0000
0000
0000
,  // measure 45
0000
0000
0000
1000
,  // measure 46
0001
0100
0001
0010
,  // measure 47
0001
0100
0020
0030
,  // measure 48
0000
0000
0000
0010
,  // measure 49
1000
0000
0000
1000
0001
0000
2000
0000
,  // measure 50
0000
0000
0000
3000
,  // measure 51
0000
0002
1000
2000
,  // measure 52
0000
0000
3003
0000
,  // measure 53
0100
0001
0010
0002
,  // measure 54
0000
0000
0000
0100
,  // measure 55
0000
0100
0000
0103
,  // measure 56
0000
0000
0000
0000
0000
0000
0000
0010
,  // measure 57
0000
0000
0010
0010
,  // measure 58
0100
0000
0010
0010
,  // measure 59
0000
0010
0000
0010
,  // measure 60
0000
0010
1000
0001
,  // measure 61
1000
0100
1000
0010
,  // measure 62
0000
0010
0000
0010
,  // measure 63
0000
0010
0000
0020
,  // measure 64
0000
0000
0000
0030
,  // measure 65
0000
0000
0000
0000
,  // measure 66
0000
0001
0000
0001
,  // measure 67
0000
0001
0000
0001
,  // measure 68
0000
1000
0000
1000
,  // measure 69
0000
1000
0000
1000
,  // measure 70
0000
0010
0000
0010
,  // measure 71
0000
0010
0000
0010
,  // measure 72
0000
0100
0000
0100
,  // measure 73
0000
0110
0000
0000
,  // measure 74
0000
0010
1000
0100
,  // measure 75
1000
0010
1000
0100
,  // measure 76
1100
0001
0100
0001
,  // measure 77
0010
0001
0100
0001
,  // measure 78
0011
1000
0001
0100
,  // measure 79
0001
1000
0100
1000
,  // measure 80
1100
1000
0010
0001
,  // measure 81
0010
0000
1000
0000
0000
0000
0000
1000
,  // measure 82
0001
0100
0002
0000
0000
0000
0000
0000
,  // measure 83
0003
0000
0000
0000
;

//---------------dance-single - Pandemonium X----------------
#NOTES:
     dance-single:
     Pandemonium X:
     Beginner:
     2:
     0.123,0.171,0.059,0.000,0.000: // measure 1
0000
0000
0000
0000
,  // measure 2
0000
0000
0000
0000
,  // measure 3
0000
0000
0000
0000
,  // measure 4
0000
0000
0000
0000
,  // measure 5
0000
0000
0000
0000
,  // measure 6
0001
0000
0000
0000
,  // measure 7
0001
0000
0000
0000
,  // measure 8
1000
0000
0000
0000
,  // measure 9
0010
0010
0000
0010
,  // measure 10
0110
0000
0000
0000
,  // measure 11
0000
0000
0000
0000
,  // measure 12
0000
0000
0000
0000
,  // measure 13
0000
0000
0000
0000
,  // measure 14
1000
0000
0000
0000
,  // measure 15
1000
0000
1000
0000
,  // measure 16
1000
0000
0000
0000
,  // measure 17
0000
0000
0000
0000
,  // measure 18
0010
0000
0000
0000
,  // measure 19
0010
0000
0100
0000
,  // measure 20
0010
0000
0000
0000
,  // measure 21
0000
0000
0000
0000
,  // measure 22
1000
0000
0000
0000
,  // measure 23
0001
0000
1000
0000
,  // measure 24
1001
0000
0000
0000
,  // measure 25
0000
0000
0000
0010
,  // measure 26
0000
0000
0000
1000
,  // measure 27
0000
0001
0000
0100
,  // measure 28
0000
0000
0000
0010
,  // measure 29
0000
1000
0000
0100
,  // measure 30
0000
0000
0000
0000
,  // measure 31
0000
1000
1000
1000
,  // measure 32
0000
0000
0000
0001
,  // measure 33
0000
0000
0000
0001
,  // measure 34
0000
0000
0000
1000
,  // measure 35
0000
0001
0000
0100
,  // measure 36
0000
0000
0000
0100
,  // measure 37
0000
0010
0000
1000
,  // measure 38
0000
0000
0000
1000
,  // measure 39
0000
1000
0000
1000
,  // measure 40
0000
0000
0000
1001
,  // measure 41
0000
0000
0000
0010
,  // measure 42
0000
0000
0000
0000
,  // measure 43
0000
0000
0000
0000
,  // measure 44
0000
0000
0000
0000
,  // measure 45
0000
0000
0000
0001
,  // measure 46
0000
0000
0000
0000
,  // measure 47
0000
0000
0000
1000
,  // measure 48
0000
0000
0000
1001
,  // measure 49
0000
0000
0000
0110
,  // measure 50
0000
0000
0000
0000
,  // measure 51
0000
0010
0010
0010
,  // measure 52
0000
0000
0000
0000
,  // measure 53
0000
0000
0000
1000
,  // measure 54
0000
0000
0000
1000
,  // measure 55
0000
0001
0000
0100
,  // measure 56
0000
0000
0000
0000
,  // measure 57
0000
0000
0000
1001
,  // measure 58
0000
0000
0000
0010
,  // measure 59
0000
0100
0000
0010
,  // measure 60
0000
0000
0000
1000
,  // measure 61
0000
0001
0000
1000
,  // measure 62
0000
0000
0000
0001
,  // measure 63
0000
0001
0000
0001
,  // measure 64
0000
0000
0000
1000
,  // measure 65
0000
0000
0000
0000
,  // measure 66
0000
0010
0000
0010
,  // measure 67
0000
0010
0000
0010
,  // measure 68
0000
0010
0000
0010
,  // measure 69
0000
0010
0000
0010
,  // measure 70
0000
0100
0000
0100
,  // measure 71
0000
0100
0000
0100
,  // measure 72
0000
0100
0000
0100
,  // measure 73
0000
0100
0000
0000
,  // measure 74
0000
1000
0000
0001
,  // measure 75
0000
1000
0000
0001
,  // measure 76
0000
1000
0000
0001
,  // measure 77
0000
1000
0000
0001
,  // measure 78
0000
0100
0000
0010
,  // measure 79
0000
1000
0000
0001
,  // measure 80
0000
1000
0000
0001
,  // measure 81
0000
0100
0000
0000
,  // measure 82
0000
1001
0000
0000
;
