#TITLE:Ignited Night;
#SUBTITLE:;
#ARTIST:HHH;
#TITLETRANSLIT:;
#SUBTITLETRANSLIT:;
#ARTISTTRANSLIT:;
#CREDIT:;
#BANNER:Ignited Night-bn.png;
#BACKGROUND:Ignited Night-bg.png;
#LYRICSPATH:;
#CDTITLE:;
#MUSIC:Ignited Night.mp3;
#OFFSET:-0.300;
#SAMPLESTART:30.400;
#SAMPLELENGTH:13.000;
#SELECTABLE:YES;
#BPMS:0.000=149.010;
#STOPS:40.000=0.403
,159.000=0.403
;
#BGCHANGES:;

//---------------dance-single - ----------------
#NOTES:
     dance-single:
     :
     Hard:
     9:
     0.698,0.621,0.597,0.040,0.587: // measure 1
0000
0000
0000
0000
,  // measure 2
1100
0101
1010
0011
,  // measure 3
1100
0011
1010
0000
,  // measure 4
1000
0000
0001
0100
0000
0001
0100
0000
0010
0000
1000
0100
0000
1000
0100
0000
,  // measure 5
1000
0100
0010
0001
0000
0000
0100
0010
1000
0001
0010
0100
,  // measure 6
0010
0000
0000
0000
1000
1000
1010
0010
,  // measure 7
0100
0000
0000
0000
0001
0000
0100
0000
0001
0100
0000
0100
0000
0100
0001
0000
,  // measure 8
0101
0100
0110
0100
1100
0000
0001
1000
,  // measure 9
0010
0000
0000
0000
1000
0000
0001
0000
0100
0010
0000
0010
0100
0000
0001
0000
,  // measure 10
1000
0100
0010
0200
0000
0000
0300
0000
,  // measure 11
1010
0000
0000
0000
0110
0000
0100
0000
1100
0000
0001
0000
0010
0000
0100
0010
,  // measure 12
0000
0000
0000
0010
0000
0000
1000
0000
0000
0010
0000
0000
0000
0000
0000
0001
0000
0000
0000
0000
0000
0100
0000
0000
0010
0000
0000
0000
0000
0000
1000
0000
0000
0000
0000
0000
0100
0000
0000
0000
0000
0000
0000
0000
0010
0000
0000
0000
,  // measure 13
0000
1000
0100
1000
0100
0000
0000
0000
1001
0000
0001
0000
0100
0000
0010
0100
,  // measure 14
0000
0100
0001
0100
0000
0010
0100
0010
0100
0000
0001
0000
0010
0000
0100
0000
,  // measure 15
1000
0000
0001
0000
1000
0000
1000
0000
0001
0000
0010
0000
0100
0000
1000
0100
,  // measure 16
0000
0000
0000
0100
0000
0000
0010
0000
0000
0100
0000
0000
0000
0000
0000
0001
0000
0000
0000
0000
0000
1000
0000
0000
0010
0000
0000
0000
0000
0000
0100
0000
0000
0000
0000
0000
0001
0000
0000
0000
0000
0000
0000
0000
1000
0000
0000
0000
,  // measure 17
0000
0010
0100
0010
0100
0000
0000
0000
0110
0000
0100
0000
0001
0000
1000
0010
,  // measure 18
0000
0010
0100
0010
0000
0100
0000
0001
1000
0000
0010
0000
0100
0000
0001
0000
,  // measure 19
0000
0000
0010
0000
1000
0000
1000
0000
1010
0000
0010
0100
0010
0000
0100
0000
,  // measure 20
0001
0000
0010
0000
0100
0000
0000
1000
0000
0100
0010
0000
0100
0000
0000
0000
,  // measure 21
0010
0000
0001
0000
1000
0000
0000
0000
1010
0000
0010
0100
0010
0000
1000
0000
,  // measure 22
0001
0000
0100
0000
0010
0000
0000
1000
0000
0010
0100
0000
0001
0000
0000
0000
,  // measure 23
1000
0000
0010
0000
0100
0000
0100
0000
0000
0000
0001
0010
0001
0000
0100
0000
,  // measure 24
0010
0000
1000
0000
0001
0000
0000
1000
0000
0010
0100
0000
0001
0000
0000
0000
,  // measure 25
1000
0000
0010
0000
0100
0000
0000
0000
1001
0000
0100
0001
0100
0000
0010
0000
,  // measure 26
1000
0000
0100
0000
0000
0001
0000
1000
0010
0000
0100
0000
0001
0000
0010
0000
,  // measure 27
0000
1000
0100
0100
0110
0000
0101
0000
,  // measure 28
0100
0000
0010
0000
1000
0001
0000
0100
0000
0010
0100
0010
1000
0000
0001
0000
,  // measure 29
0100
0000
0010
0000
1000
0001
0000
0001
0100
0000
0010
0000
1010
0000
0000
0000
,  // measure 30
0001
0000
0100
0000
0010
1000
0000
0100
0000
0001
1000
0001
0100
0000
0010
0000
,  // measure 31
1000
0000
0001
0000
0010
0100
0000
0001
1000
0001
0100
0000
0110
0000
0000
0000
,  // measure 32
0101
1001
1100
0110
,  // measure 33
1001
0000
0000
0000
1010
0000
0000
0000
0000
0000
0000
0000
1100
0000
1000
0001
,  // measure 34
0000
0000
0000
1000
0000
0000
0001
0000
0000
0000
0000
0000
0110
0000
0000
0000
0000
0000
0100
0000
0000
0001
0000
0000
0000
0000
0000
0100
0000
0000
0001
0000
0000
0000
0000
0000
0100
0000
0000
0000
0010
0000
0000
0000
0100
0000
0000
0000
,  // measure 35
0010
0000
0000
1000
0100
1000
0001
0010
0001
0011
0000
0000
,  // measure 36
0000
0000
0100
0100
0101
0000
0110
0000
,  // measure 37
0000
1001
0000
1100
,  // measure 38
0100
0000
0011
0010
0110
0000
0101
0000
,  // measure 39
0000
1010
0000
0101
,  // measure 40
0110
1001
0011
1100
,  // measure 41
0001
0000
0001
0000
1001
0000
0000
0000
0100
0010
0100
0010
0100
0010
0100
0010
,  // measure 42
1000
0000
0000
0000
0001
0000
1000
0000
0010
0000
0100
0001
0000
0010
0100
0010
,  // measure 43
0000
0000
0000
1000
0000
0000
0000
0000
0000
0010
0000
0000
0100
0000
0000
0000
0000
0000
0001
0000
0000
0000
0000
0000
1000
0000
0000
0000
0000
0000
0000
0000
0010
0000
0000
0000
0000
0000
0000
0100
0000
0000
0010
0000
0000
0100
0000
0000
,  // measure 44
0010
0000
0000
0000
1010
0000
1000
0000
0001
0000
1000
0010
0000
0100
0010
0100
,  // measure 45
0000
0001
0000
1000
0010
0000
0100
0000
0001
0000
1000
0000
0010
0000
0100
0000
,  // measure 46
1000
0000
1000
0000
1010
0000
0010
0000
0100
0000
0001
0100
0000
0001
0100
0001
,  // measure 47
0000
0000
0000
0010
0000
0000
0000
0000
0000
1000
0000
0000
0001
0000
0000
0000
0000
0000
0100
0000
0000
0000
0000
0000
0010
0000
0000
0000
0000
0000
0000
0000
1000
0000
0000
0000
0000
0000
0000
0001
0000
0000
0100
0000
0000
0001
0000
0000
,  // measure 48
0100
0000
0000
0000
0110
0000
0100
0000
0001
0000
1000
0010
0000
0100
0001
0100
,  // measure 49
0000
0010
0000
1000
0100
0000
0010
0000
1100
0000
0000
0000
0101
0000
0000
0000
,  // measure 50
0010
0000
0010
0000
1010
0000
1000
0100
0010
0000
1000
0000
0001
0000
0100
0000
,  // measure 51
0010
0000
0000
1000
0000
0100
0010
0000
0001
0000
0000
0000
0100
0000
0010
0000
,  // measure 52
1000
0000
0000
0000
0110
0000
1000
0001
0100
0000
0010
0000
1000
0000
0001
0000
,  // measure 53
0100
0000
0000
0010
0000
1000
0001
0000
0100
0000
0000
0000
0010
0000
1000
0000
,  // measure 54
0001
0000
0001
0000
0000
0000
0010
1000
0001
0000
0100
0000
0010
0000
1000
0000
,  // measure 55
0001
0000
0000
0100
0000
0010
1000
0000
0001
0000
0000
0000
0100
0000
0010
0000
,  // measure 56
1000
0000
0000
0000
0110
0000
0100
0010
1000
0000
0001
0000
0100
0000
0010
0000
,  // measure 57
1000
1000
1010
0000
1001
0000
1100
0000
,  // measure 58
0101
0000
0000
0000
2000
3000
0000
0000
0220
0000
0000
0000
0000
0000
0000
0000
,  // measure 59
0000
0000
0330
0000
;

//---------------dance-single - ----------------
#NOTES:
     dance-single:
     :
     Medium:
     7:
     0.509,0.473,0.465,0.040,0.167: // measure 1
0000
0000
0000
0000
,  // measure 2
1001
0011
1100
0110
,  // measure 3
1100
0101
1010
0000
,  // measure 4
0100
0000
0010
0000
0000
0100
0000
0000
1000
0000
0010
0000
0000
0100
0000
0000
,  // measure 5
0001
0000
0000
0100
0000
0000
0010
0000
0100
0000
0001
0000
,  // measure 6
1000
0000
0000
0000
1000
1000
0010
0000
,  // measure 7
0001
0000
0000
0000
0100
0000
0010
0000
1000
0000
0000
0001
0000
0000
1000
0000
,  // measure 8
1010
0101
0110
0001
,  // measure 9
0010
0000
0000
0000
0100
0000
0001
0000
0100
0000
0000
0010
0000
0000
1000
0000
,  // measure 10
0001
0100
0010
2000
0000
0000
3000
0000
,  // measure 11
0110
0000
1001
1000
0010
0000
1000
0010
,  // measure 12
0000
0000
0000
0000
0000
0000
0100
0000
0000
0000
0000
0000
0000
0000
0000
0001
0000
0000
0000
0000
0000
0000
0000
0000
0010
0000
0000
0000
0000
0000
1000
0000
0000
0000
0000
0000
0010
0000
0000
0000
0000
0000
0000
0000
0100
0000
0000
0000
,  // measure 13
0000
0010
1000
0000
0101
0000
0010
0100
,  // measure 14
0000
0000
0001
0000
0000
1000
0000
0000
0010
0000
0100
0000
0001
0000
1000
0000
,  // measure 15
0001
0000
0100
0100
0001
0000
0010
0100
,  // measure 16
0000
0000
0000
0000
0000
0000
0001
0000
0000
0000
0000
0000
0000
0000
0000
0100
0000
0000
0000
0000
0000
0000
0000
0000
0010
0000
0000
0000
0000
0000
0100
0000
0000
0000
0000
0000
1000
0000
0000
0000
0000
0000
0000
0000
0001
0000
0000
0000
,  // measure 17
0000
0100
0000
0000
1001
0000
0010
0100
,  // measure 18
0000
0000
0001
0000
0000
0100
0000
0000
0010
0000
0100
0000
0001
0000
1000
0000
,  // measure 19
0000
0000
0100
0100
0010
0001
0000
0100
,  // measure 20
0010
0000
1000
0000
0001
0000
0000
0100
0000
0000
0010
0000
0100
0000
0000
0000
,  // measure 21
0010
0100
0010
0000
1100
1000
0000
0001
,  // measure 22
0100
0000
0010
0000
1000
0000
0000
0001
0000
0000
0100
0000
0010
0000
0000
0000
,  // measure 23
1000
0001
1000
1000
0000
0001
0000
0100
,  // measure 24
0010
0000
1000
0000
0010
0000
0000
0100
0000
0000
0010
0000
1000
0000
0000
0000
,  // measure 25
0100
0001
0010
0000
0101
0001
0000
1000
,  // measure 26
0010
0000
0100
0000
0010
0000
0000
0100
0000
0000
0001
0000
1000
0000
0010
0000
,  // measure 27
0000
0000
0100
0100
0010
0000
0101
0000
,  // measure 28
0100
0000
0010
0000
1000
0000
0000
0001
0000
0000
0100
0000
0010
0000
1000
0000
,  // measure 29
0001
0000
0000
0000
1000
0000
0000
0010
0000
0000
0100
0000
0101
0000
0000
0000
,  // measure 30
1000
0000
0010
0000
0100
0000
0000
0010
0000
0000
1000
0000
0001
0000
0010
0000
,  // measure 31
0100
0000
0000
0000
0010
0000
0000
0100
0000
0000
0001
0000
1001
0000
0000
0000
,  // measure 32
0101
1100
0011
0110
,  // measure 33
1001
0000
0110
0000
0000
0000
1000
0010
,  // measure 34
0000
0100
0000
0000
0001
0000
1000
0000
0000
0010
0000
0000
0100
0000
0000
0000
,  // measure 35
0010
0000
0000
1000
0000
0100
0000
0010
0000
0001
0000
0000
,  // measure 36
0000
0000
0100
0100
0001
0000
1100
0000
,  // measure 37
0000
1001
0000
0011
,  // measure 38
1000
0101
0000
1100
,  // measure 39
0000
0011
0000
1001
,  // measure 40
0110
1100
0011
0110
,  // measure 41
0010
0010
1000
0000
0001
0010
0100
1000
,  // measure 42
0001
0000
0100
0000
0001
1000
0000
0010
,  // measure 43
0000
0000
0000
1000
0000
0000
0000
0000
0000
0000
0000
0000
0100
0000
0000
0000
0000
0000
1000
0000
0000
0000
0000
0000
0010
0000
0000
0000
0000
0000
0000
0000
0100
0000
0000
0000
0000
0000
0000
0000
0000
0000
0001
0000
0000
0000
0000
0000
,  // measure 44
1000
0000
0101
0000
0010
0100
0000
0001
,  // measure 45
0000
1000
0000
0000
0010
0000
0100
0000
0001
0000
1000
0000
0100
0000
0000
0000
,  // measure 46
0010
0010
1000
0000
0001
0100
0000
0010
,  // measure 47
0000
0000
0000
1000
0000
0000
0000
0000
0000
0000
0000
0000
0010
0000
0000
0000
0000
0000
0100
0000
0000
0000
0000
0000
0001
0000
0000
0000
0000
0000
0000
0000
1000
0000
0000
0000
0000
0000
0000
0000
0000
0000
0010
0000
0000
0000
0000
0000
,  // measure 48
0100
0000
1010
0000
0001
1000
0000
0010
,  // measure 49
0000
0100
0000
0000
0010
0000
1000
0000
1100
0000
0000
0000
0011
0000
0000
0000
,  // measure 50
0001
0001
0010
0001
0100
0010
1000
0100
,  // measure 51
0010
0000
0000
1000
0000
0000
0010
0000
0100
0000
0000
0000
0001
0000
1000
0000
,  // measure 52
0010
0000
0110
0100
0001
1000
0010
0100
,  // measure 53
0001
0000
0000
1000
0000
0000
0010
0000
0100
0000
0000
0000
0001
0000
1000
0000
,  // measure 54
0010
0010
0000
1000
0001
0100
0010
1000
,  // measure 55
0100
0000
0000
1000
0000
0000
0010
0000
0100
0000
0000
0000
0001
0000
0010
0000
,  // measure 56
0100
0000
1100
1000
0001
0100
0010
1000
,  // measure 57
0001
0001
0100
0000
1001
0000
0011
0000
,  // measure 58
1100
0000
0000
0000
0200
0300
0000
0000
0220
0000
0000
0000
0000
0000
0000
0000
,  // measure 59
0000
0000
0330
0000
;

//---------------dance-single - ----------------
#NOTES:
     dance-single:
     :
     Easy:
     4:
     0.376,0.385,0.486,0.233,0.000: // measure 1
0000
0000
0000
0000
,  // measure 2
1100
1000
1001
0001
,  // measure 3
0101
0110
1010
0000
,  // measure 4
0101
0000
1010
0000
,  // measure 5
0002
0103
0002
2003
,  // measure 6
3010
0000
2000
3010
,  // measure 7
0100
0000
1000
0000
,  // measure 8
1001
0110
1001
0100
,  // measure 9
0010
0000
0001
1000
,  // measure 10
0010
0200
0000
0300
,  // measure 11
1001
2100
3010
1000
,  // measure 12
0010
0000
1000
0001
,  // measure 13
0100
0010
1010
1000
,  // measure 14
0001
0000
0010
0001
,  // measure 15
1000
0000
0020
0030
1000
0000
0010
0000
,  // measure 16
0000
0001
0100
0010
,  // measure 17
1000
0001
0101
1000
,  // measure 18
0001
0000
0100
1100
,  // measure 19
0000
0200
0301
1000
,  // measure 20
0001
0100
0000
0001
,  // measure 21
1000
0010
1100
0001
,  // measure 22
0100
0010
0000
0001
,  // measure 23
1000
0000
0020
0030
0000
0000
0001
0000
,  // measure 24
1000
0010
0000
0001
,  // measure 25
0100
0010
1100
0001
,  // measure 26
0100
0001
0000
1010
,  // measure 27
0000
0002
0013
1100
,  // measure 28
0100
0010
0000
0010
,  // measure 29
1000
0001
0000
0110
,  // measure 30
0001
1000
0000
0001
,  // measure 31
0100
0010
0000
1001
,  // measure 32
1000
1100
0100
0110
,  // measure 33
0011
1001
0000
1010
,  // measure 34
0000
0101
0000
2000
,  // measure 35
3001
0200
0320
1030
,  // measure 36
0000
0002
0103
1001
,  // measure 37
0000
1100
0000
0101
,  // measure 38
0100
0110
0000
1100
,  // measure 39
0000
0101
0000
1001
,  // measure 40
0110
1001
0110
1100
,  // measure 41
0002
0103
2000
3002
,  // measure 42
1003
0010
0100
0001
,  // measure 43
0000
0100
0010
1000
,  // measure 44
0001
0101
0100
0001
,  // measure 45
0000
1000
0001
0100
,  // measure 46
0002
0103
0001
1000
,  // measure 47
0000
0010
0100
0001
,  // measure 48
1000
0110
0100
0001
,  // measure 49
0000
1000
1010
0110
,  // measure 50
2000
3100
0001
0100
,  // measure 51
0001
1000
0100
0010
,  // measure 52
0001
1001
0100
0010
,  // measure 53
1000
0001
0010
0100
,  // measure 54
1000
0000
0100
0010
,  // measure 55
1000
0001
0100
0001
,  // measure 56
1000
0110
0001
0100
,  // measure 57
0020
1030
1001
0101
,  // measure 58
1100
0000
0000
0000
2000
3000
0000
0000
0220
0000
0000
0000
0000
0000
0000
0000
,  // measure 59
0000
0000
0330
0000
;
