#TITLE:Hydrogen Blueback;
#SUBTITLE:(IIDX ver.);
#ARTIST:Mad Child;
#TITLETRANSLIT:;
#SUBTITLETRANSLIT:;
#ARTISTTRANSLIT:;
#GENRE:;
#CREDIT:Telperion;
#BANNER:Hydrogen Blueback 512.png;
#BACKGROUND:Summer_Contest2010-bg.png;
#LYRICSPATH:;
#CDTITLE:;
#MUSIC:Hydrogen Blueback.mp3;
#OFFSET:-13.525;
#SAMPLESTART:13.515;
#SAMPLELENGTH:26.853;
#SELECTABLE:YES;
#DISPLAYBPM:143.000;
#BPMS:0.000=143.000,132.000=429.000,136.000=143.000,140.000=715.000,143.000=428.996,144.000=143.000,198.000=429.000,199.000=715.000,200.000=143.000,206.000=429.000,207.000=715.000,208.000=143.000;
#STOPS:132.000=0.140
,132.500=0.140
,133.000=0.140
,133.500=0.140
,134.000=0.140
,134.500=0.140
,135.000=0.140
,135.500=0.140
,140.000=0.084
,140.250=0.084
,140.500=0.084
,140.750=0.084
,141.000=0.084
,141.250=0.084
,141.500=0.084
,141.750=0.084
,142.000=0.084
,142.250=0.084
,142.500=0.084
,142.750=0.084
,143.000=0.140
,143.500=0.140
,198.000=0.140
,198.500=0.140
,199.000=0.084
,199.250=0.084
,199.500=0.084
,199.750=0.084
,206.000=0.140
,206.500=0.140
,207.000=0.084
,207.250=0.084
,207.500=0.084
,207.750=0.084
;
#BGCHANGES:;
#KEYSOUNDS:;

//---------------dance-single - Telperion----------------
#NOTES:
     dance-single:
     Telperion:
     Hard:
     8:
     0.545,0.521,0.074,0.112,0.316:
1000
0000
0000
1000
0001
0000
0000
0001
0200
0000
0010
0000
0310
0000
0000
0000
,
1000
0000
0000
1000
0100
0000
0000
0100
0020
0000
0001
0000
0031
0000
0000
0000
,
0100
0000
0000
0100
0010
0000
0000
0010
2000
0000
0010
0000
3010
0000
0000
0000
,
1000
0000
0000
1000
0001
0000
0000
0001
0010
0000
0100
0000
1000
0000
0010
0000
,
0100
0000
0000
0100
1000
0000
0000
1000
0100
0000
0010
0000
0010
0000
0100
0000
,
0001
0000
0000
0001
0100
0000
0000
0100
0010
0000
1000
0000
1000
0000
0010
0000
,
1000
0000
0000
1000
0100
0000
0000
0100
0001
0000
0100
0000
0010
0000
0100
0000
,
1000
0000
0000
1000
0001
0000
0000
0001
1000
0000
0001
0000
1000
0001
0000
1000
,
0010
0100
0100
1000
0100
0001
0001
0010
,
0100
0100
1000
0100
0001
0100
0020
0000
,
0031
1000
1000
0100
0001
0100
0001
0100
,
0010
0001
0001
0100
0100
0010
0010
1000
,
1000
0000
0000
0001
0100
0000
0000
0100
0010
0000
1000
0000
0100
0000
0100
0000
,
0020
0001
0001
0031
0100
0010
0001
0001
,
1000
0100
1000
0100
0001
0100
0001
0100
,
0010
1000
0100
0010
0002
0000
1003
0000
,
0000
0000
0000
0000
,
0000
0000
0000
0000
,
0000
0000
0000
0000
,
0000
0000
0000
0000
,
0001
0000
0000
1000
0000
0000
1001
0000
0000
0000
0100
0000
0010
0000
1000
0000
,
0100
0000
0000
0010
0000
0000
0110
0000
0000
0000
0010
0000
0010
0000
0001
0000
,
0100
0000
0000
1000
0000
0000
1100
0000
0000
0000
0100
0000
0001
0000
2000
0000
,
0100
0000
0000
0100
0000
0000
3100
0000
0000
0000
0000
0000
0000
0000
0000
0000
,
1000
0000
0000
1000
0001
0000
0000
0001
0200
0000
0010
0000
0310
0000
0000
0000
,
1000
0000
0000
1000
0100
0000
0000
0100
0010
0000
0001
0000
0010
0000
0001
0000
,
0100
0000
0000
0100
0010
0000
0000
0010
1000
0000
0100
0000
0001
0000
0100
0000
,
1000
0000
0000
1000
0100
0000
0000
0010
0001
0000
0100
0000
0100
0000
0100
0000
,
0010
0000
0000
0010
0100
0000
0000
0100
0001
0000
0000
0001
0010
0000
0000
0100
,
1000
0000
0000
1000
0010
0000
0000
0010
0100
0000
0000
0100
1000
0000
0000
0100
,
0001
0000
0000
0001
0010
0000
0000
1000
0010
0000
0000
0001
0010
0000
0000
0100
,
1000
0000
0000
1001
0000
0000
0110
0000
0000
0000
0001
0000
1000
0000
0001
0000
,
0100
0000
0000
0100
1000
0000
0000
1000
0100
0000
0000
0100
0010
0000
0000
0010
,
1000
0100
0001
0100
1000
0100
0001
0100
,
1000
0000
0000
1000
0001
0000
0000
0001
0100
0000
0000
0100
0010
0000
0000
0010
,
0001
0000
1000
0000
0100
0000
0001
1000
,
0001
0000
0000
0001
0100
0000
0000
0100
0010
0000
1000
0000
0001
0000
1000
0000
,
0100
0000
0000
0100
0010
0000
0000
0010
0001
0000
0100
0000
0010
0000
0100
0000
,
0001
1000
0100
1000
0010
1000
0001
0100
,
1000
0000
0100
0010
1000
0000
0100
0010
0001
0000
0000
0000
0000
0000
0000
0000
,
1000
0100
0010
0001
2000
0001
3001
0000
,
1000
0010
0100
1000
0200
0010
0310
0000
,
1000
0001
0001
0010
0010
0001
0001
0000
,
1000
0001
0100
1000
0100
0001
0010
0000
,
0100
1000
0100
1000
0100
0010
0010
0010
,
0001
0100
0001
0100
0010
0010
1000
1000
,
0100
1000
0001
1000
0010
0100
1000
0100
,
0002
0000
1003
0000
2000
0000
3001
0000
0100
0000
0001
0000
1000
0100
0000
1000
,
0001
0000
1000
0000
0100
0000
0010
0100
0010
0000
0001
0000
0100
0000
0000
0000
,
0010
0000
0010
0000
1000
0000
1000
0000
0001
0000
1000
0000
0001
1000
0001
1000
,
0001
0000
1000
0000
1000
0000
0100
1000
0100
1000
0100
0000
1000
0000
0010
0000
,
0100
0000
0001
0000
0001
0000
0010
0000
0001
0000
1000
0000
0001
1000
0001
1000
,
0001
0000
1000
0000
0001
0010
0001
0000
,
1000
0000
0001
0000
1000
0010
1000
0010
,
0100
1000
0100
0001
0010
0100
0001
1000
,
0010
0001
0100
0010
0110
0000
0110
0000
,
1001
0000
0000
0000
;

//---------------dance-single - Telperion----------------
#NOTES:
     dance-single:
     Telperion:
     Challenge:
     10:
     0.652,0.571,0.223,0.028,0.526:
1000
0001
1000
0000
0001
0000
1000
0100
0010
0100
0010
0000
0010
0000
0000
0000
,
0001
0100
0001
0000
0100
0000
0010
0100
0010
0100
1000
0000
0100
0000
0000
0000
,
0010
1000
0010
0000
0100
0000
1000
0100
1000
0100
0010
0000
1000
0000
0000
0000
,
1000
0100
1000
0000
0100
0000
0010
0100
0010
0001
0010
0000
0001
0000
0001
0000
,
1000
0000
0010
0000
0010
0000
1000
0010
1000
0010
0100
0000
0100
0000
0000
0000
,
1000
0000
0100
0000
0001
0000
0100
0001
0010
0001
0010
0000
0100
0000
0000
0000
,
1000
0000
1000
0000
0001
0000
1000
0001
0100
0001
0100
0000
0010
0000
1000
0000
,
0100
0010
0001
0000
0100
0010
1000
0000
0010
0000
0001
0000
0010
0100
0000
0001
,
0010
0100
0110
1000
0010
0100
0110
0000
,
0001
0000
1000
0000
0100
0000
0001
0000
1000
0000
0010
0000
0001
0010
0100
1000
,
0001
0100
0110
1000
0001
0010
0011
0100
,
1000
0000
0001
0000
0100
0000
1000
0000
0001
0000
0010
0000
0100
1000
0100
0010
,
1000
0000
0000
1000
0001
0000
0000
0001
0010
0000
0000
0010
0100
0000
0000
0100
,
1000
0000
0000
1000
0001
0000
0000
0001
1000
0000
0001
0000
1000
0001
1000
0000
,
0001
0100
0001
0000
1000
0100
1000
0000
0001
0000
0100
0000
1000
0100
1000
0100
,
0010
1000
0100
0010
0120
0000
1030
0000
,
0000
0000
0000
0000
,
0000
0000
0000
0000
,
0000
0000
0000
0000
,
0000
0000
0000
0000
0000
1100
1000
0001
,
0101
0000
0000
1001
0000
0000
1100
0000
0000
0000
0100
0000
0010
0000
0001
0000
,
0101
0000
0000
1100
0000
0000
1010
0000
0000
0000
0010
0000
0100
0000
0010
0000
,
0110
0000
0000
1010
0000
0000
0101
0000
0000
0000
0001
0000
1000
0000
0100
0000
,
0101
0000
0000
1100
0000
0000
1001
0000
0000
0000
0000
0000
0000
0000
0000
0000
,
1000
0000
0001
0100
0001
0000
0100
0001
0100
0000
0010
0000
1000
0000
0100
0000
,
0010
0000
0001
0010
0001
0000
0010
0001
0010
0000
0100
0000
0100
0000
1000
0000
,
1000
0000
0001
0100
0010
0000
1000
0100
0010
0000
0100
0000
1000
0000
0100
0000
,
0001
0000
0100
1000
0001
0000
0100
1000
0100
0000
0001
1000
0001
0000
0000
0000
,
1000
0001
1001
0100
0010
1000
1010
0000
,
1000
0100
0110
0001
0100
1000
1100
0000
,
0100
0001
1001
0100
0010
0001
0101
0000
,
1000
0000
0000
1000
0001
0000
0000
0001
1000
0000
0000
0000
0000
0000
0000
0000
,
1000
0000
0000
1000
0100
0000
0000
0010
0001
0000
0000
0001
0100
0000
0000
0100
,
0010
1000
0010
0100
0010
0001
0010
1000
,
0100
0000
0000
0100
0010
0000
0001
0100
0010
0000
0000
0010
1000
0000
1000
0100
,
0010
0000
0001
0100
0010
0000
1000
0100
0010
0000
0000
0000
0100
0000
0010
0000
,
0100
1000
0001
0100
1000
0100
0001
0000
,
0010
0100
0001
0100
0010
0001
0010
0100
,
0010
0000
0001
1000
0100
0000
1000
0001
0100
0000
0001
1000
0010
0000
1000
0001
,
0010
0000
0100
1000
0010
0000
0100
0001
0010
0000
0000
0000
0000
0000
0000
0000
,
0001
1000
0001
0000
1000
0000
0100
1000
0100
1000
0100
0000
0020
0000
0000
0000
,
0031
0100
0001
0000
0100
0000
0010
0100
0010
0100
0010
0000
0100
0000
0001
0000
,
0010
0100
1000
0000
0001
0000
1000
0001
1000
0001
0100
0000
0020
0000
0000
0000
,
1030
0010
1000
0000
0100
0000
0010
0100
0010
0001
0010
0000
0001
0000
0010
0000
,
0100
1000
0010
0000
0100
0000
0010
1000
0001
1000
0001
0000
0100
0000
0000
0000
,
1000
0100
1000
0000
0001
0000
0100
0001
0100
0010
0100
0000
0010
0000
0000
0000
,
0001
1000
0001
0000
0010
0000
0100
1000
0001
1000
0100
0000
1000
0000
0000
0000
,
0100
0001
0100
0000
0010
1000
0010
0000
0100
1000
0100
0000
1000
0001
0000
1000
,
0100
1000
0001
0000
0100
1000
0001
0000
,
1000
0000
0100
0000
0010
0000
0001
0000
1000
0000
0100
0000
0010
0001
0010
0001
,
0100
0001
0010
0000
1000
0001
0010
0000
,
1000
0000
0100
0000
1000
0000
0001
0000
0100
0000
1000
0000
0100
0010
0100
0001
,
0100
0000
0000
0010
1000
0000
0000
1000
0100
0000
0000
0100
0010
0000
0000
0010
,
0001
0000
0000
0001
0100
0000
0000
0100
0010
0000
0010
0000
1000
0100
1000
0100
,
0010
0100
1000
0000
0001
0100
0010
0000
1000
0010
0100
0001
0010
0100
1000
0001
,
1000
0000
0100
0000
0001
0000
0100
0000
1000
0000
0000
0000
0001
1000
0000
0000
;

//---------------dance-double - Telperion----------------
#NOTES:
     dance-double:
     Telperion:
     Hard:
     8:
     0.516,0.417,0.047,0.047,0.437:
00000001
00000000
00000000
00000001
00000100
00000000
00000000
00000100
00001000
00000000
00010000
00000000
00001000
00000000
00000000
00000000
,
10000000
00000000
00000000
10000000
01000000
00000000
00000000
01000000
00010000
00000000
00001000
00000000
00010000
00000000
00000000
00000000
,
00000001
00000000
00000000
00000001
00000100
00000000
00000000
00000100
00001000
00000000
00010000
00000000
00001000
00000000
00000000
00000000
,
10000000
00000000
00000000
10000000
01000000
00000000
00000000
01000000
00010000
00000000
00001000
00000000
00010000
00000000
00001000
00000000
,
01000000
00100000
01000000
00100000
00010000
00001000
00010000
00000000
,
00000100
00000010
00000100
00000010
00000001
00000100
00000100
00000100
,
00000010
00001000
00000010
00001000
00000100
00000001
00000100
00000000
,
00001000
00000000
00000010
00000000
00100000
00000000
00001000
00000000
10000000
00000000
00010000
00000000
01000000
00010000
00000000
01000000
,
00100000
01000000
10000000
01000000
00100000
01000000
00010000
00000000
,
10000000
01000000
00010000
00001000
00000010
00000001
00000100
00000010
,
00001000
00000100
00000001
00000100
00000010
00000100
00001000
00000000
,
00000001
00000100
00001000
00010000
00100000
10000000
00200000
00000000
,
01300000
10000000
01000000
00100000
01000000
00010000
00100000
00000000
,
01000000
00010000
00001000
00000100
00000001
00000010
00002000
00000000
,
01003000
00010000
01000000
10000000
01000000
00100000
01000000
00010000
,
00100000
01000000
10000000
00100000
01000000
00000000
01100000
00000000
,
00000000
00000000
00000000
00000000
,
00000000
00000000
00000000
00000000
,
00000000
00000000
00000000
00000000
,
00000000
00000000
00000000
00000000
00000000
00010000
00001000
00010000
,
00100000
00000000
00000000
10000000
00000000
00000000
01000000
00000000
00000000
00000000
00010000
00000000
00001000
00000000
00000100
00000000
,
00000001
00000000
00000000
00000010
00000000
00000000
00001000
00000000
00000000
00000000
00010000
00000000
00100000
00000000
10000000
00000000
,
01000000
00000000
00000000
00010000
00000000
00000000
00001000
00000000
00000000
00000000
00000100
00000000
00000001
00000000
00000100
00000000
,
00001000
00000000
00000000
00001000
00000000
00000000
00011000
00000000
00000000
00000000
00000000
00000000
00000000
00000000
00000000
00000000
,
00001000
00000000
00000000
00001000
00100000
00000000
00000000
00100000
01000000
00000000
00000000
01000000
10000000
00000000
00000000
10000000
,
00010000
00000000
00000000
00010000
01000000
00000000
00000000
01000000
00100000
00000000
00000000
00100000
00010000
00000000
00000000
00010000
,
10000000
00000000
00000000
10000000
01000000
00000000
00000000
01000000
00010000
00000000
00000000
00010000
00001000
00000000
00000000
00001000
,
00000010
00000000
00000000
00000100
00000001
00000000
00000000
00000010
00000100
00000000
00000000
00000000
00000100
00000000
00000010
00000000
,
00000001
00000000
00000000
00000001
00000100
00000000
00000000
00000100
00000010
00000000
00000000
00000010
00001000
00000000
00000000
00001000
,
00000100
00000000
00000000
00000100
00000010
00000000
00000000
00000010
00001000
00000000
00000000
00001000
00010000
00000000
00000000
00010000
,
01000000
00000000
00000000
01000000
10000000
00000000
00000000
10000000
00100000
00000000
00000000
00100000
00010000
00000000
00000000
00010000
,
00001000
00000000
00000000
00001000
00010000
00000000
00000000
00010000
00001000
00000000
00000000
00000000
00000000
00000000
00000000
00000000
,
00010000
00000000
00000000
00010000
00100000
00000000
00000000
00100000
10000000
00000000
00000000
10000000
01000000
00000000
00000000
01000000
,
00100000
01000000
00100000
01000000
00100000
00010000
01000000
00100000
,
00010000
00000000
00000000
00010000
00000100
00000000
00000000
00000100
00000010
00000000
00000000
00000010
00000001
00000000
00000000
00000002
,
00000100
00000000
00000100
00000000
00000100
00000003
00000100
00001000
,
00000100
00000000
00000000
00000100
00000010
00000000
00000000
00000010
00001000
00000000
00000000
00001000
00000100
00000000
00000000
00000100
,
01000000
00000000
00000000
01000000
00001000
00000000
00000000
00001000
00100000
00000000
00000000
00100000
00010000
00000000
00000000
00010000
,
10000000
01000000
00100000
00010000
00001000
00000100
00000010
00000001
,
00000100
00010000
00011000
00000000
,
00100000
00000000
00000000
00100000
10000000
00000000
00000000
10000000
01000000
00000000
00010000
00000000
00001000
00000000
00000000
00000000
,
00000010
00000000
00000000
00000010
00000001
00000000
00000000
00000001
00000100
00000000
00001000
00000000
00010000
00000000
00000000
00000000
,
00100000
00000000
00000000
00100000
10000000
00000000
00000000
10000000
01000000
00000000
00100000
00000000
00010000
00000000
00000000
00000000
,
00000010
00000000
00000000
00000010
00000001
00000000
00000000
00000001
00000100
00000000
00001000
00000000
00010000
00000000
00001000
00000000
,
00000010
00000000
00000000
00000010
00000001
00000000
00000000
00000001
00000100
00000000
00000000
00000100
00000010
00000000
00000000
00000010
,
00001000
00000000
00000000
00001000
00000100
00000000
00000000
00000100
00010000
00000000
00000000
00010000
00100000
00000000
00000000
00100000
,
01000000
00000000
00000000
01000000
00001000
00000000
00000000
00001000
00010000
00000000
00000000
00010000
00000100
00000000
00000000
00000100
,
00000010
00000001
00000100
00000010
00000001
00001000
00000100
00000000
,
00000010
00000000
00000000
00000010
00010000
00000000
00000000
00010000
01000000
00000000
00000000
01000000
00100000
00000000
00000000
00100000
,
00001000
00010000
00001000
00010000
00001000
00010000
00002000
00000000
,
00013000
00000000
00000000
00010000
00000100
00000000
00000000
00000100
00000010
00000000
00000000
00000001
00000100
00000000
00000000
00001000
,
00010000
00001000
00010000
00001000
00010000
00001000
00020000
00000000
,
00031000
00000000
00000000
00001000
00000100
00000000
00000000
00000100
00000010
00000000
00000000
00000010
00000001
00000000
00000000
00000001
,
00001000
00000000
00000000
00000100
00000010
00000000
00000000
00001000
00000001
00000000
00000000
00000010
00000100
00000000
00000000
00000100
,
00001000
00000001
00000010
00000100
00001000
00010000
00100000
01000000
,
10000000
00100000
01000000
00010000
00100000
00000000
11000000
00000000
,
00011000
00000000
00000000
00000000
;

//---------------dance-double - Telperion----------------
#NOTES:
     dance-double:
     Telperion:
     Challenge:
     9:
     0.606,0.573,0.140,0.009,0.353:
10000000
00000000
00000000
10000000
01000000
00000000
00000000
01000000
00010000
00000000
00001000
00000000
00011000
00000000
00000000
00000000
,
00000001
00000000
00000000
00000001
00000100
00000000
00000000
00000100
00001000
00000000
00010000
00000000
00011000
00000000
00000000
00000000
,
10000000
00000000
00000000
10000000
01000000
00000000
00000000
00010000
00001000
00000000
00000010
00000000
00000011
00000000
00000000
00000000
,
00000001
00000000
00000000
00000001
00000100
00000000
00000000
00000100
00001000
00000000
00010000
00000000
00011000
00000000
00001000
00000000
,
00011000
00000000
00010000
00001000
00010000
00000000
00000000
00100000
01000000
00000000
00010000
00000000
00110000
00000000
00000000
00000000
,
10000000
00000000
01000000
10000000
01000000
00000000
00000000
10000000
00100000
00000000
00001000
00000000
00000010
00000000
00000100
00000000
,
00001000
00000000
00000100
00000010
00000100
00000000
00000001
00000010
00000001
00000000
00001000
00000000
00001001
00000000
00000000
00000000
,
00001000
00000001
00001000
00000000
00000100
00010000
00001000
00000000
01000000
00010000
10000000
00000000
01000000
00100000
00000000
00010000
,
01000000
00100000
00010000
00001000
00000100
00000010
00000001
00000000
,
00001000
00000000
00000100
00000000
00000001
00000000
00010000
00000000
00000100
00000000
00000010
00000000
00000100
00000010
00000100
00000010
,
00000001
00000100
00001000
00010000
00100000
01000000
10000000
00000000
,
01000000
00000000
00010000
00000000
00100000
00000000
10000000
00000000
00010000
00000000
00001000
00000000
00010000
00001000
00010000
00000000
,
00001000
00000000
00000000
00001000
00010000
00000000
00000000
00100000
10000000
00000000
00000000
10000000
01000000
00000000
00000000
00010000
,
00001000
00000000
00000100
00000000
00000010
00000000
00000001
00000000
00001000
00000000
00000100
00000000
00000010
00000100
00000010
00000100
,
00000001
00000010
00000001
00000000
00001000
00000010
00001000
00000000
00000100
00010000
00000100
00000000
01000000
00001000
01000000
00000000
,
00010000
10000000
00010000
00000000
10000000
00000000
01000000
00000000
01100000
00000000
00000000
00000000
10010000
00000000
00000000
00000000
,
00000000
00000000
00000000
00000000
,
00000000
00000000
00000000
00000000
,
00000000
00000000
00000000
00000000
,
00000000
00000000
00000000
00000000
00000000
10010000
00000000
10010000
,
10000000
00000000
10000000
01000000
00000000
01000000
00100000
00000000
00000000
00000000
00010000
00000000
01000000
00000000
00100000
00000000
,
00010000
00000000
00010000
00001000
00000000
00001000
00000100
00000000
00000000
00000000
00000001
00000000
00000010
00000000
00000100
00000000
,
00001000
00000000
00001000
00010000
00000000
00010000
00100000
00000000
00000000
00000000
01000000
00000000
10000000
00000000
00100000
00000000
,
01100000
00000000
00000000
11000000
00000000
00000000
01010000
00000000
00000000
00000000
00010000
00000000
10000000
00000000
01000000
00000000
,
00100000
00001000
00000100
00000001
00000010
00001000
00010000
00001000
,
00000100
00000010
00010000
01000000
00100000
00010000
01000000
10000000
,
00010000
00100000
00001000
00010000
01000000
00001000
00100000
00000010
,
00001000
00000100
00000010
00000001
00000100
00000010
00000020
00000000
,
00001030
00010000
01000000
00100000
00010000
00001000
00000100
00000010
,
00001000
00010000
01000000
00100000
10000000
01000000
00010000
00000100
,
00000010
00000001
00000010
00000001
00000100
00001000
00010000
00001000
,
00010000
00000000
00010000
00001000
00000000
00001000
00010000
00000000
00000000
00000000
00000000
00000000
00000000
00000000
00000000
00000000
,
00001000
00010000
00100000
10000000
01000000
00010000
00100000
00010000
,
01000000
10000000
00010000
00100000
00000100
00001000
00000001
00000010
,
00001000
00000001
00000100
00001000
00000010
00000001
00000100
00000001
,
00000010
00000000
00000100
00000010
00000100
00000000
00000010
00000100
00000010
00000000
00000000
00000000
00000100
00000000
00000010
00000000
,
00001000
00000100
00010000
01000000
00100000
00010000
00000010
00001000
,
00010000
00100000
01000000
00001000
00000100
00000010
00010000
00100000
,
10000000
00000000
01000000
10000000
00010000
00000000
01000000
00001000
00010000
00000000
00000100
00001000
00000001
00000000
00000100
00001000
,
00010000
00000001
10000000
00000000
,
00001000
00010000
00001000
00010000
01000000
10000000
00100000
00010000
,
00001000
00010000
00001000
00010000
00000100
00000010
00000001
00000100
,
00001000
00010000
00001000
00010000
00001000
10000000
00100000
00001000
,
00010000
00001000
00010000
00001000
00000010
00000100
00000001
00000010
,
00000100
00000000
00000010
00000000
00000100
00000000
00000010
00000100
00001000
00000010
00000100
00000000
00000100
00000000
00001000
00000000
,
00010000
00000000
00001000
00000000
00010000
00000000
00001000
00010000
00001000
00100000
00010000
00000000
00010000
00000000
01000000
00000000
,
01000000
00000000
00100000
00000000
10000000
00000000
01000000
00100000
00010000
00100000
00001000
00000000
00010000
00000000
00010000
00000000
,
00001000
00010000
00000100
00000000
00001000
00000010
00010000
00000000
00001000
00100000
00010000
00000000
01000000
00001000
00000000
00010000
,
00001000
01000000
10000000
01000000
00100000
00010000
00001000
00000100
,
00000010
00000000
00001000
00000000
00000001
00000000
00000010
00000000
00000100
00000000
00000100
00000000
00001000
00000100
00001000
00000100
,
00001000
00000001
00000010
00000100
00001000
00010000
00100000
01000000
,
10000000
00000000
01000000
00000000
00010000
00000000
01000000
00000000
10000000
00000000
10000000
00000000
00010000
10000000
00010000
10000000
,
00010000
00000000
00000000
00010000
01000000
00000000
00000000
01000000
10000000
00000000
00000000
10000000
00100000
00000000
00000000
00100000
,
00010000
00000000
00000000
00010000
10000000
00000000
00000000
10000000
01000000
00000000
01000000
00000000
00010000
01000000
00010000
01000000
,
00010000
00001000
01000000
00000000
00010000
10000000
01000000
00000000
00100000
00001000
01000000
00000000
00000100
00010000
00000001
00000000
,
00000100
00000010
00001000
00000000
00000100
00000000
00000000
00000000
10000000
00000000
00000000
00000000
00000001
00000000
00000000
00000000
,
00011000
00000000
00000000
00000000
;

//---------------dance-single - Telperion----------------
#NOTES:
     dance-single:
     Telperion:
     Medium:
     6:
     0.372,0.363,0.251,0.093,0.023:
1000
0000
0001
0000
1000
0100
0001
0000
,
0100
0000
0001
0000
0100
0001
0010
0000
,
0001
0000
0010
0000
0001
0010
1000
0000
,
0001
0000
1000
0000
0010
0100
0001
1000
,
0100
0000
0010
0000
0100
0010
0001
0100
,
0010
0000
0100
0000
0010
1000
0100
0010
,
0001
0000
1000
0000
0001
0100
1000
0100
,
0001
1001
1001
0200
,
1300
0000
0001
0100
1000
0100
0001
0000
,
1000
0000
0001
0010
1000
0010
0002
0000
,
1003
0000
0010
0100
1000
0100
0001
0000
,
0010
0000
0100
1000
0100
0001
0200
0000
,
1300
0001
0100
0010
,
0001
1000
0010
0100
,
1000
0001
1000
0001
,
0100
0010
0220
0330
,
0000
0000
0000
0000
,
0000
0000
0000
0000
,
0000
0000
0000
0000
,
0000
0000
0000
0000
0000
1001
0000
0000
,
1000
0000
0000
0001
0000
0000
1000
0000
0000
0000
0100
0000
0010
0000
0000
0000
,
0001
0000
0000
0100
0000
0000
0010
0000
0000
0000
0100
0000
0010
0000
0000
0000
,
1000
0000
0000
0100
0000
0000
1000
0000
0000
0000
0001
0000
0100
0000
1000
0000
,
0100
0000
0000
1000
0000
0000
0100
0000
0000
0000
0000
0000
0000
0000
0000
0000
,
0001
1000
0100
0010
,
0001
0100
1000
0010
,
0100
1000
0001
0010
,
1000
0100
0001
0010
,
1000
1001
0001
0101
,
0100
0110
0010
1010
,
1000
1100
0100
0101
,
1000
0000
0000
0001
0000
0000
1000
0000
0000
0000
0000
0000
0000
0000
0000
0000
,
1000
0101
0001
1100
,
0001
1000
0001
0000
,
1000
0011
0001
1010
,
0100
0010
0100
0000
,
1000
0011
0100
1010
,
0001
1100
0010
0101
,
1000
0001
1000
0001
1000
0001
1000
0001
,
0100
0011
1010
0000
,
0100
0000
0010
0000
0001
0100
1000
0000
,
0100
0000
0010
0000
1000
0100
0001
0000
,
0100
0000
1000
0000
0001
0100
1000
0000
,
0100
0000
0001
0000
1000
0100
0001
0100
,
1000
0000
0001
0000
0100
0010
0010
0000
,
1000
0000
0100
0000
0010
0100
0100
0000
,
0010
0000
0001
0000
1000
0001
1000
0000
,
1100
0101
0011
0101
,
1001
0000
0100
0000
0010
0100
1000
0000
,
0001
0000
0100
0000
0010
0100
0010
0000
,
1001
0000
0010
0000
1000
0100
0100
0000
,
0010
0001
0010
0001
0010
0001
0020
0000
,
0031
0100
1000
0010
,
0001
1000
0002
2003
,
3001
0001
1000
1000
,
0100
0010
0220
0330
;

//---------------dance-single - Telperion----------------
#NOTES:
     dance-single:
     Telperion:
     Easy:
     4:
     0.282,0.259,0.167,0.121,0.000:
1000
1000
0001
0000
,
0001
0001
0100
0000
,
0100
0100
0010
0000
,
0010
0010
1000
0001
,
0010
0010
0100
0000
,
1000
0001
0010
0000
,
0100
1000
0001
0000
,
0100
0001
1000
1000
,
0001
1001
1000
0000
,
1000
1001
0001
1001
,
0100
0110
0010
0000
,
0010
0110
0100
0101
,
0001
1001
0010
0000
,
0010
1001
0010
1001
,
0100
1000
0001
0100
,
1000
0100
0020
0130
,
0000
0000
0000
0000
,
0000
0000
0000
0000
,
0000
0000
0000
0000
,
0000
0000
0000
0000
,
2002
0000
3003
0000
,
2200
0000
3300
0000
,
2002
0000
3003
0000
,
0101
0000
0000
0000
,
1000
0100
0010
0001
,
1000
0100
0010
0001
,
0001
0100
0010
1000
,
0001
0100
0010
0000
,
0010
1000
1000
0001
,
0001
0100
0100
1000
,
1000
0010
0010
0001
,
0100
0010
0110
0000
,
0010
1000
0001
0010
,
0200
0000
0000
0000
,
1300
0001
0100
0010
,
2000
0000
0000
0000
,
3001
0010
0100
0010
,
0001
0010
0100
1000
,
0010
0100
0010
1000
,
0100
0010
0110
0000
,
0001
0000
1000
0000
0001
1000
0001
0000
,
1000
0000
0001
0000
1000
0001
1000
0000
,
0001
0000
1000
0000
0001
1000
0001
0000
,
1000
0001
1000
0000
,
0100
0000
0010
0000
0100
0010
0100
0000
,
0010
0000
0100
0000
0010
0100
0010
0000
,
0100
0000
0010
0000
0100
0010
0100
0000
,
0010
0001
0100
0010
,
1000
0001
0001
1000
,
1000
0001
2002
3003
,
0010
0100
0100
0010
,
0010
0100
0220
0330
,
0001
0100
0010
1000
,
0100
0001
0100
1000
,
0001
0100
1000
0100
,
0001
1000
0001
1001
;

//---------------dance-single - Telperion----------------
#NOTES:
     dance-single:
     Telperion:
     Beginner:
     2:
     0.104,0.129,0.121,0.000,0.000:
1000
0000
0000
0000
,
0001
0000
0000
0000
,
1000
0000
0000
0000
,
0001
0000
0000
0000
,
0100
0000
0000
0000
,
0010
0000
0000
0000
,
0100
0000
0000
0000
,
0010
0000
1000
0000
,
0001
0000
0000
0000
,
1000
0000
0000
0000
,
0001
0000
0000
0000
,
1000
0000
0000
0000
,
0100
0000
0000
0000
,
0010
0000
0000
0000
,
0100
0000
0000
0000
,
0010
0000
0000
0000
,
0000
0000
0000
0000
,
0000
0000
0000
0000
,
0000
0000
0000
0000
,
0000
0000
0000
0000
,
1001
0000
0000
0000
,
1001
0000
0000
0000
,
1001
0000
0000
0000
,
1001
0000
0000
0000
,
1000
0000
0001
0000
,
1000
0000
0000
0000
,
0001
0000
1000
0000
,
0001
0000
0000
0000
,
0100
0000
0010
0000
,
0100
0000
0000
0000
,
0010
0000
0100
0000
,
0010
0000
0000
0000
,
1000
0000
0000
0000
,
0001
0000
0000
0000
,
1000
0000
0000
0000
,
0001
0000
0000
0000
,
1000
0000
0000
0000
,
0001
0000
0000
0000
,
1000
0000
0000
0000
,
0001
0000
0000
0000
,
1001
0000
0000
0000
,
0001
0000
0010
0000
,
0110
0000
0000
0000
,
0100
0000
1000
0000
,
1001
0000
0000
0000
,
0001
0000
0100
0000
,
0110
0000
0000
0000
,
0010
0000
1000
0000
,
1001
0000
0000
0000
,
1001
0000
0000
0000
,
0110
0000
0000
0000
,
0110
0000
0000
0000
,
1000
0000
0001
0000
,
0100
0000
0010
0000
,
1000
0000
0100
0000
,
0010
0000
0110
0000
;

//---------------dance-double - Telperion----------------
#NOTES:
     dance-double:
     Telperion:
     Medium:
     5:
     0.268,0.286,0.028,0.019,0.023:
10000000
01000000
00010000
00000000
,
00010000
01000000
10000000
00000000
,
10000000
01000000
00100000
00000000
,
00001000
00010000
00000010
00000100
,
00000001
00000000
00001000
00000000
00000001
00000100
00000010
00000000
,
00010000
00000000
00000010
00000000
00001000
00000100
00010000
00000000
,
00001000
00000000
00100000
00000000
00010000
10000000
01000000
00000000
,
10000000
00000000
00010000
00000000
01000000
00100000
01000000
00000000
,
00010000
00100000
01000000
10000000
,
00100000
00010000
00001000
00000000
,
00000001
00000010
00000100
00001000
,
00000001
00000100
00001000
00000100
,
00000001
00000010
00000100
00010000
,
00001000
00100000
01000000
10000000
,
00010000
01000000
10000000
01000000
,
00010000
10000000
10010000
00000000
,
00000000
00000000
00000000
00000000
,
00000000
00000000
00000000
00000000
,
00000000
00000000
00000000
00000000
,
00000000
00000000
00000000
00000000
,
00001000
00000000
00000000
00010000
00000000
00000000
00001000
00000000
00000000
00000000
00000000
00000000
00000000
00000000
00000000
00000000
,
00100000
00000000
00000000
00010000
00000000
00000000
00100000
00000000
00000000
00000000
00000000
00000000
00000000
00000000
00000000
00000000
,
00010000
00000000
00000000
10000000
00000000
00000000
00010000
00000000
00000000
00000000
00000000
00000000
00000000
00000000
00000000
00000000
,
10000000
00000000
00000000
01000000
00000000
00000000
10000000
00000000
00000000
00000000
00000000
00000000
00000000
00000000
00000000
00000000
,
00010000
10000000
01000000
00010000
,
00001000
00000100
00000001
00000000
,
00001000
00000001
00000100
00001000
,
00010000
01000000
00100000
00000000
,
00010000
10000000
00100000
00010000
,
00001000
00000100
00000010
00000000
,
00001000
00000001
00000010
00000100
,
00010000
00000000
00000000
00001000
00000000
00000000
00010000
00000000
00000000
00000000
00000000
00000000
00000000
00000000
00000000
00000000
,
00001000
00010000
00100000
00010000
,
00002000
00000000
00013000
00000000
,
00010000
00001000
00000010
00001000
,
00020000
00000000
00031000
00000000
,
00001000
00010000
00100000
00010000
,
00001000
00000100
00001000
00010000
,
00001000
00000010
00001000
00010000
,
01000000
00010000
00011000
00000000
,
00001000
00100000
01000000
10000000
,
00010000
01000000
00100000
00000000
,
00010000
00000100
00000010
00000001
,
00000100
00000010
00001000
00000000
,
00000100
00010000
00001000
01000000
,
00010000
10000000
01000000
00000000
,
00010000
00000100
00001000
00000001
,
00000100
00000010
00010000
00000000
,
00001000
00010000
00001000
00000000
00010000
00001000
00010000
00000000
,
00001000
00010000
00001000
00000000
00100000
00000000
00000000
00000000
,
00010000
00100000
00010000
00000000
00100000
00010000
00100000
00000000
,
00010000
00100000
00010000
00000000
00100000
00000000
00000000
00000000
,
00001000
00010000
00001000
00000000
00010000
00001000
00010000
00000000
,
00001000
00010000
00001000
00000000
00010000
00000000
00001000
00000000
,
00000100
00000010
00001000
00000100
,
00000010
00000001
00001000
00000000
,
00001001
00000000
00000000
00000000
;

//---------------dance-double - Telperion----------------
#NOTES:
     dance-double:
     Telperion:
     Easy:
     2:
     0.116,0.104,0.028,0.009,0.000:
00000001
00000000
00001000
00000000
,
00000100
00000000
00010000
00000000
,
00001000
00000000
01000000
00000000
,
00010000
00000000
00000000
00000000
,
10000000
00000000
00010000
00000000
,
01000000
00000000
00001000
00000000
,
00010000
00000000
00000100
00000000
,
00001000
00000000
00000000
00000000
,
00000010
00000000
00001000
00000000
,
00100000
00000000
00010000
00000000
,
00000100
00000000
00001000
00000000
,
01000000
00000000
00000000
00000000
,
00100000
00000000
00001000
00000000
,
00010000
00000000
00100000
00000000
,
10000000
00000000
01000000
00000000
,
10000000
00000000
00010000
00000000
,
00000000
00000000
00000000
00000000
,
00000000
00000000
00000000
00000000
,
00000000
00000000
00000000
00000000
,
00000000
00000000
00000000
00000000
,
00010000
00000000
00000000
00000000
,
00001000
00000000
00000000
00000000
,
00000100
00000000
00000000
00000000
,
00000010
00000000
00000000
00000000
,
00001000
00000000
00000000
00000000
,
00000001
00000000
00000000
00000000
,
00000100
00000000
00000000
00000000
,
00010000
00000000
00000000
00000000
,
10000000
00000000
00000000
00000000
,
01000000
00000000
00000000
00000000
,
00001000
00000000
00000000
00000000
,
00000001
00000000
00000000
00000000
,
00010000
00000000
00001000
00000000
,
00011000
00000000
00000000
00000000
,
00001000
00000000
00010000
00000000
,
00011000
00000000
00000000
00000000
,
00010000
00000000
00001000
00000000
,
00100000
00000000
00010000
00000000
,
10000000
00000000
00001000
00000000
,
00200000
00000000
00300000
00000000
,
00100000
00000000
01000000
00000000
,
10000000
00000000
00010000
00000000
,
01000000
00000000
00100000
00000000
,
00010000
00000000
00000000
00000000
,
00001000
00000000
00000010
00000000
,
00000001
00000000
00000100
00000000
,
00000010
00000000
00001000
00000000
,
00000001
00000000
00000000
00000000
,
00000100
00000000
00001000
00000000
,
00010000
00000000
00000000
00000000
,
01000000
00000000
00010000
00000000
,
00001000
00000000
00000000
00000000
,
00000100
00000000
00001000
00000000
,
00010000
00000000
01000000
00000000
,
10000000
00000000
00001000
00000000
,
00010000
00000000
00000010
00000000
,
00011000
00000000
00000000
00000000
;
