#TITLE:Empire State Glory;
#SUBTITLE:(IIDX ver.);
#ARTIST:Dirty Androids;
#TITLETRANSLIT:;
#SUBTITLETRANSLIT:;
#ARTISTTRANSLIT:;
#GENRE:;
#CREDIT:Telperion;
#BANNER:Empire State Glory.png;
#BACKGROUND:Summer_Contest2010-bg.png;
#LYRICSPATH:;
#CDTITLE:;
#MUSIC:Empire State Glory.mp3;
#OFFSET:-7.045;
#SAMPLESTART:36.178;
#SAMPLELENGTH:13.873;
#SELECTABLE:YES;
#DISPLAYBPM:86.500:346.000;
#BPMS:0.000=86.500,8.000=57.667,8.000=173.000,36.500=576.667,38.500=173.000,96.000=519.000,100.000=865.000,102.000=173.000,104.000=86.500,120.000=173.000,208.000=519.000,212.000=865.000,214.000=173.000,224.000=194.625,233.000=216.250,243.000=237.875,254.000=259.500,266.000=281.125,279.000=302.750,293.000=346.000,309.000=173.000;
#STOPS:8.000=1.040
,36.500=0.208
,37.000=0.208
,37.500=0.208
,38.000=0.208
,96.000=0.116
,96.500=0.116
,97.000=0.116
,97.500=0.116
,98.000=0.116
,98.500=0.116
,99.000=0.116
,99.500=0.116
,100.000=0.069
,100.250=0.069
,100.500=0.069
,100.750=0.069
,101.000=0.069
,101.250=0.069
,101.500=0.069
,101.750=0.069
,208.000=0.116
,208.500=0.116
,209.000=0.116
,209.500=0.116
,210.000=0.116
,210.500=0.116
,211.000=0.116
,211.500=0.116
,212.000=0.069
,212.250=0.069
,212.500=0.069
,212.750=0.069
,213.000=0.069
,213.250=0.069
,213.500=0.069
,213.750=0.069
;
#BGCHANGES:;
#KEYSOUNDS:;

//---------------dance-single - Telperion----------------
#NOTES:
     dance-single:
     Telperion:
     Hard:
     9:
     0.602,0.746,0.202,0.132,0.343:
1000
0000
0100
0000
0010
0100
1000
0000
0001
0000
0100
0000
0010
0100
0001
0000
,
1000
0000
0001
0000
1000
0001
0100
0001
0010
0000
0100
1000
0010
0100
0001
0000
,
1000
1001
1000
0001
,
1000
0001
1000
0001
,
1000
0001
0100
1000
,
0100
0001
0010
0100
,
0001
0100
1000
0000
0001
0000
0100
0000
,
0010
0001
0010
1000
,
0100
0010
0001
0100
0010
1000
0001
0010
,
0001
1000
0001
1000
0001
1000
0001
0000
,
0110
0000
0001
1000
0100
0010
0001
0000
,
0200
0000
1300
0100
0001
0100
1000
0100
,
0002
0000
0013
0100
1000
0001
1001
0000
,
0110
0000
0001
1000
0010
0001
1000
0100
,
0020
0000
1030
0010
0100
0001
0010
0000
,
0100
0010
0001
0010
1000
0010
0001
0100
,
0120
0000
1030
0100
0010
1000
0001
0100
,
0010
0001
0100
0010
1000
0001
0100
0000
,
0001
0000
1010
0000
0100
0001
0000
0010
,
0100
1000
1000
0001
0100
0001
0000
0000
,
1000
0000
0011
0000
0100
1000
0000
0001
,
0100
1000
0100
0010
0100
1000
0100
0001
,
0010
0000
1100
0000
0010
0001
0000
0100
,
0001
0010
0010
0100
1000
0001
0010
0100
,
1000
0010
0100
0001
0100
0010
1000
0100
,
0010
0100
0010
0100
0020
0000
0100
0000
,
0230
0000
2300
0000
,
0002
0000
3003
0000
,
0200
0000
2300
0000
,
3010
0000
0000
0000
0001
0000
0000
0000
0100
0000
0000
0110
0000
0120
0000
0000
,
0130
0000
1000
0000
0001
0100
1000
0000
,
0011
0000
0010
0000
0100
0001
0010
0100
,
0001
0000
0100
0000
1000
0010
0100
1000
,
0100
0001
0100
0000
1000
0100
0001
0010
,
0100
0001
0100
0000
1000
0010
0001
0010
,
1000
0010
0100
0000
1000
0100
0010
1000
,
0100
0001
0100
0000
0010
0001
0100
0010
,
0001
0010
1000
0100
0010
1000
0010
0001
,
1000
0001
0100
0001
,
1000
0000
0100
0010
0000
0010
0100
1000
,
0001
0100
0001
1000
,
0010
0100
0010
1000
0000
1000
0010
0100
,
0001
1000
0100
1000
,
0001
0010
0001
0010
0100
1000
0100
0010
,
0001
0000
0000
0100
0000
0000
0110
0000
0000
1001
0000
0000
1100
0000
0001
0000
,
1001
1001
0010
0100
0000
0000
0000
0000
,
1001
1000
0001
0000
0100
0010
0000
1000
,
0100
0000
0010
0001
1000
0010
1000
0000
,
0100
0010
0001
0000
1000
0100
0000
1000
,
0010
0000
0100
1000
0000
0100
0001
0010
,
0100
1000
0010
0000
0001
0010
0000
1000
,
0010
0000
0001
0010
0000
0100
1000
0100
,
0001
1000
0100
1000
0001
0100
0001
1000
,
0001
1000
0001
1000
0002
1000
2003
0000
,
3001
0100
0110
0000
1000
0100
0110
0000
,
0001
0100
0010
1000
0010
0100
0001
0000
,
1000
0000
0000
0000
0000
0000
0000
0000
0000
0100
0000
0000
0000
0000
0000
0000
0000
0000
0110
0000
0000
0000
0000
0000
0000
0000
0000
0000
0000
0000
0000
0000
0000
0000
0000
0000
0001
0000
0000
0000
0000
0000
0000
0000
0000
0100
0000
0000
0000
0000
0000
0000
0000
0000
0110
0000
0000
0000
0000
0000
0000
0000
0000
0000
,
0000
0000
0000
0000
0000
0000
0000
0000
1000
0000
0000
0000
0000
0000
0000
0000
0000
0100
0000
0000
0000
0000
0000
0000
0000
0000
0010
0000
0000
0000
0000
0000
0000
0000
0000
0001
0000
0000
0000
0000
0000
0000
0000
0000
0100
0000
0000
0000
0000
0000
0000
0000
0000
1000
0000
0000
0000
0000
0000
0000
0000
0000
0100
0000
,
0000
0000
0000
0000
0000
0000
0000
0010
0000
0000
0000
0000
0000
0000
0000
0000
1000
0000
0000
0000
0000
0000
0000
0000
0000
0000
0100
0000
0000
0000
0000
0000
0000
0000
0000
0000
0110
0000
0000
0000
0000
0000
0000
0000
0000
0000
0000
0000
0000
0000
0000
0000
0000
0000
0000
0000
0001
0000
0000
0000
0000
0000
0000
0000
,
0000
0100
0000
0000
0000
0000
0110
0000
0000
0000
0000
0000
0000
0000
0000
0000
1000
0000
0000
0000
0000
0001
0000
0000
0000
0000
0100
0000
0000
0000
0000
0010
,
0000
0000
0000
0000
0000
0000
0000
0000
1000
0000
0000
0000
0000
0000
0000
0000
0000
0000
0010
0000
0000
0000
0000
0000
0000
0000
0000
0000
0100
0000
0000
0000
0000
0000
0000
0000
0000
0000
0001
0000
0000
0000
0000
0000
0000
0000
0000
0000
1000
0000
0000
0000
0000
0000
0000
0000
0000
0000
0000
0100
0000
0000
0000
0000
,
0000
0000
0000
0000
0000
0000
1000
0000
0000
0000
0000
0000
0000
0000
0000
0000
0000
0100
0000
0000
0000
0000
0000
0000
0000
0000
0000
0000
0010
0000
0000
0000
0000
0000
0000
0000
0000
0000
0000
0100
0000
0000
0000
0000
0000
0000
0000
0000
0000
0000
0010
0000
0000
0000
0000
0000
0000
0000
0000
0000
0000
0001
0000
0000
,
0000
0000
0000
0000
0000
0000
0000
0000
0100
0000
0000
0000
0000
0000
0000
0000
0000
0000
0000
0001
0000
0000
0000
0000
0000
0000
0000
0000
0000
0000
1000
0000
0000
0000
0000
0000
0000
0000
0000
0000
0000
0010
0000
0000
0000
0000
0000
0000
0000
0000
0000
0000
1000
0000
0000
0000
0000
0000
0000
0000
0000
0000
0000
0100
,
0000
0000
0000
0000
0000
0000
0000
0000
0000
0000
0001
0000
0000
0000
0000
0000
0000
0000
0000
0000
0000
0100
0000
0000
0000
0000
0000
0000
0000
0000
0000
0000
1000
0000
0000
0000
0000
0000
0000
0000
0000
0000
0000
0000
0001
0000
0000
0000
0000
0000
0000
0000
0000
0000
0000
0000
0100
0000
0000
0000
0000
0000
0000
0000
,
0000
1000
0000
0000
0010
0000
0000
1000
0000
0000
0100
0000
0000
0000
0000
0000
,
0001
0000
0000
1000
0000
0000
0100
0000
0000
1000
0000
0000
0001
0000
0000
0010
,
0000
0000
0000
0000
0000
0000
0000
0000
0100
0000
0000
0000
0000
0000
0000
0000
0000
0000
0000
0000
0010
0000
0000
0000
0000
0000
0000
0000
0000
0000
0000
0000
0001
0000
0000
0000
0000
0000
0000
0000
0000
0000
0000
0000
0000
0100
0000
0000
0000
0000
0000
0000
0000
0000
0000
0000
0000
0000
1000
0000
0000
0000
0000
0000
,
0000
0000
0000
0000
0000
0000
0000
0100
0000
0000
0000
0000
0000
0000
0000
0000
0000
0000
0000
0000
0010
0000
0000
0000
0000
0000
0000
0000
0000
0000
0000
0000
0000
0100
0000
0000
0000
0000
0000
0000
0000
0000
0000
0000
0000
0000
0001
0000
0000
0000
0000
0000
0000
0000
0000
0000
0000
0000
0000
0000
0000
0000
0000
0000
,
0000
0000
0000
0000
0000
0000
0000
0000
1000
0000
0000
0000
0000
0000
0000
0000
0000
0000
0000
0000
0000
0010
0000
0000
0000
0000
0000
0000
0000
0000
0000
0000
0000
0000
0100
0000
0000
0000
0000
0000
0000
0000
0000
0000
0000
0000
0000
1000
0000
0000
0000
0000
0000
0000
0000
0000
0000
0000
0000
0000
0001
0000
0000
0000
,
0000
0000
0000
0000
0000
0000
0000
0000
0000
0010
0000
0000
0000
0000
0000
0000
0000
0000
0000
0000
0000
0000
1000
0000
0000
0000
0000
0000
0000
0000
0000
0000
0000
0000
0000
0100
0000
0000
0000
0000
0000
0000
0000
0000
0000
0000
0000
0000
0010
0000
0000
0000
0000
0000
0000
0000
0000
0000
0000
0000
0000
0000
0001
0000
,
0000
0000
0000
0000
0000
0000
0100
0000
0000
0000
0000
0000
0000
0010
0000
0000
0000
0000
0000
0000
0001
0000
0000
0000
0000
0000
0000
1000
0000
0000
0000
0000
,
0000
0000
0100
0000
0000
0000
0000
0000
0000
0001
0000
0000
0000
0000
0000
0000
1000
0000
0000
0000
0000
0000
0000
0100
0000
0000
0000
0000
0000
0000
0001
0000
,
0000
0000
0000
0000
0000
1000
0000
0000
0000
0000
0000
0000
0010
0000
0000
0000
0000
0000
0000
0001
0000
0000
0000
0000
0000
0000
0100
0000
0000
0000
0000
0000
,
0000
0010
0000
0000
0000
0000
0000
0000
0001
0000
0000
0000
0000
0000
0000
0000
0100
0000
0000
0000
0000
0000
0000
0000
0001
0000
0000
0000
0000
0000
0000
0000
,
0010
1000
0100
0010
,
0001
1000
0100
0010
,
0001
1000
0002
2000
,
0000
3003
0000
0000
;

//---------------dance-single - Telperion----------------
#NOTES:
     dance-single:
     Telperion:
     Medium:
     7:
     0.475,0.607,0.149,0.193,0.141:
1000
0100
0010
0010
0001
0100
0010
0010
,
1000
0010
1000
0000
0001
0100
0001
0000
1000
0000
0100
0000
1000
0000
0001
0000
,
1000
1001
1000
0001
,
1000
0001
1000
0001
,
1000
0100
0010
0001
,
0100
0010
1000
0100
,
1000
0100
0001
0000
0100
0000
0001
0000
,
0100
0010
0100
0010
,
0100
1000
0100
0000
1000
0001
1000
0000
,
0001
1000
0001
1000
0001
0000
1000
0000
,
1001
0000
0001
0100
0000
0100
0001
0000
,
1000
0000
0100
1000
0010
0100
1000
0000
,
0101
0000
0001
1000
0000
1000
0100
0000
,
0010
0000
0001
0100
0000
0100
0010
0100
,
0001
0000
1000
0010
0100
0001
0100
0000
,
0010
1000
0100
0010
0000
0001
1000
0100
,
1000
0001
0100
0000
1000
0100
0001
0000
,
1000
0000
0000
0001
0000
0000
1000
0000
0000
0001
0000
0000
1000
0000
0000
0000
,
0110
0000
1000
0010
0000
1000
0000
0000
,
0110
0000
0001
0100
0000
0001
1000
0000
,
1100
0000
0100
0010
0000
0001
0100
0010
,
1000
0000
0010
0100
1000
0100
0010
1000
,
0100
0000
1000
0100
1000
0000
0001
0100
,
0001
0010
0001
0010
0000
0100
1000
0000
,
0001
1000
0001
1000
,
0010
0100
0020
0130
,
0120
0000
2030
0000
,
0002
0000
3003
0000
,
0020
0000
0230
0000
,
2300
0000
0002
3003
,
1001
0000
1000
0100
0000
0010
0100
0000
,
0110
0000
0010
0001
0000
0100
0010
1000
,
0100
0000
1000
0010
0000
0100
1000
0100
,
0010
0000
1000
0000
0001
1000
0000
0000
,
0011
0000
0001
0100
0000
0010
0000
0000
,
1010
0000
1000
0100
0000
0010
0001
1000
,
0001
0000
0010
0100
0000
0100
0010
0001
,
0100
0000
0001
0100
1000
0100
0010
1000
,
0002
1000
2003
3001
,
1001
0000
1000
0010
0000
0001
0010
0000
,
2000
3100
0020
0031
,
0200
0000
1000
0000
0301
0100
0001
1000
,
0200
0000
0001
0000
1000
0000
0001
0300
,
1000
0100
1000
0100
0001
0100
0001
0100
,
1000
0000
0000
0010
0000
0000
0100
0000
0000
0001
0000
0000
0010
0000
0100
0000
,
0001
0100
1000
0010
0002
0000
0000
0000
,
0013
0000
1000
0010
0000
0100
0000
0000
,
0011
0000
0010
0100
0000
1000
0010
0100
,
1000
0000
0100
0001
0000
1000
0000
0000
,
1000
0100
0001
0000
0001
0100
1000
0000
,
1001
0000
1000
0001
0000
0001
0100
0010
,
0100
0000
0100
1000
0100
0010
1000
0000
,
0001
1000
0001
1000
,
0100
0010
0200
0310
,
0110
0001
0100
0010
,
1000
0200
0001
1300
,
0020
0000
0000
0000
0000
0000
0000
0000
0000
0001
0000
0000
0000
0000
0000
0000
0000
0000
0230
0000
0000
0000
0000
0000
0000
0000
0000
0001
0000
0000
0000
0000
,
0000
0000
0000
0000
0310
0000
0000
0000
0000
0000
0000
0000
0000
1000
0000
0000
0000
0000
0000
0000
0000
0000
0002
0000
0000
0000
0000
0000
0000
0000
0000
0100
,
0000
0000
0000
0000
1003
0000
0000
0000
0000
0100
0000
0000
0000
0000
0010
0000
,
0000
0000
0000
0100
0000
0000
0000
0000
0001
0000
0000
0000
0000
0200
0000
0000
,
0000
0000
0010
0000
0000
0000
0000
1000
0000
0000
0000
0000
0310
0000
0000
0000
,
0000
0000
0000
0001
0000
0000
0000
0000
0000
0000
0000
0000
0000
0000
0100
0000
0000
0000
0000
0000
0000
0000
0000
0000
0000
0010
0000
0000
0000
0000
0000
0000
,
0000
0000
0000
0000
1000
0000
0000
0000
0000
0000
0000
0000
0000
0000
0000
1100
0000
0000
0000
0000
0000
0000
0000
0000
0000
0000
0001
0000
0000
0000
0000
0000
,
0000
0000
0000
0000
0000
0101
0000
0000
0000
0000
0000
0000
0000
0000
0000
0000
1000
0000
0000
0000
0000
0000
0000
0000
0000
0000
0000
0000
0100
0000
0000
0000
,
0000
0000
0001
0000
0000
0100
0000
0000
,
1000
0000
0000
0010
0000
0000
0200
0000
,
0000
0000
0000
0000
0001
0000
0000
0000
0000
0000
0000
0000
0000
0000
0000
0000
1300
0000
0000
0000
0000
0000
0000
0000
0000
0000
0000
0000
0000
0100
0000
0000
,
0000
0000
0000
0000
0000
0000
0000
0000
0000
0000
0001
0000
0000
0000
0000
0000
0000
0000
0000
0000
0000
0000
0000
0100
0000
0000
0000
0000
0000
0000
0000
0000
,
0000
0000
0000
0000
1000
0000
0000
0000
0000
0000
0000
0000
0000
0000
0000
0000
0000
0100
0000
0000
0000
0000
0000
0000
0000
0000
0000
0000
0000
0000
0001
0000
,
0000
0000
0000
0000
0000
0000
0000
0000
0000
0000
0000
0010
0000
0000
0000
0000
0000
0000
0000
0000
0000
0000
0000
0000
0100
0000
0000
0000
0000
0000
0000
0000
,
0000
0000
0000
1000
0000
0000
0000
0000
0000
0000
0010
0000
0000
0000
0000
0000
,
0000
0100
0000
0000
0000
0000
0000
0000
0001
0000
0000
0000
0000
0000
0000
0010
,
0000
0000
0000
0000
0000
0000
0100
0000
0000
0000
0000
0000
0000
1000
0000
0000
,
0000
0001
0000
0010
,
0000
0100
0000
1000
,
0000
0001
0000
0010
,
0000
0100
0000
1000
;

//---------------dance-single - Telperion----------------
#NOTES:
     dance-single:
     Telperion:
     Easy:
     5:
     0.351,0.407,0.167,0.465,0.031:
2000
0000
3002
0000
,
0103
1000
0100
0002
,
1003
1001
0000
0000
,
0000
0000
0000
0000
,
0000
0000
0000
0000
,
0000
0000
0000
0000
,
1000
0001
1000
0000
0100
0000
0010
0000
,
0100
1000
0001
0100
,
0001
1000
0010
0100
,
0120
0000
0000
0130
,
0110
0000
0000
0000
0000
0001
1000
0000
,
1001
0000
0000
0000
0000
1000
0100
0000
,
0110
0000
0000
0000
0000
0010
0001
0000
,
0101
0000
0000
0000
0100
0010
0000
0000
,
0110
0000
0000
0000
0000
0001
1000
0000
,
1100
0000
0000
0000
0000
1000
0001
0000
,
0101
0000
0000
0000
0000
0001
1000
0000
,
0001
0000
0001
1000
0000
1000
0001
0000
,
1000
0000
0100
0000
0000
0010
0100
0000
,
1000
0000
0001
0000
0000
0100
0010
0000
,
0100
0000
0001
0000
0000
0010
0100
0000
,
1000
0000
0010
0000
1000
0001
0000
0000
,
0100
0000
0010
0000
0000
0110
0000
0000
,
1000
0000
0001
0000
0000
1001
0000
0000
,
2000
0000
0000
0000
,
0002
0000
3003
1001
,
0210
0000
2300
0000
,
0002
0000
3003
0000
,
0200
0000
0302
0000
,
2000
0000
3003
1001
,
0110
0000
1000
0000
0000
0100
0010
0000
,
0001
0000
0100
0000
0000
0010
1000
0000
,
0100
0000
0010
0000
0000
0001
0100
0000
,
0010
0000
0100
0000
0010
0100
0000
0010
,
0100
0000
0001
0000
0000
0010
0100
0000
,
1000
0000
0010
0000
0000
0100
0001
0000
,
1000
0000
0100
0000
0000
0010
0001
0000
,
1000
0100
0001
0100
,
2000
0001
3002
1000
,
1003
0000
0000
0110
0000
0000
0000
0000
,
2000
3100
0002
0103
,
1001
0000
0000
0110
0000
0000
0000
0000
,
0020
0031
0200
1300
,
0020
0130
2000
3100
,
0001
0000
0001
1000
0000
1000
0001
1000
,
0001
1000
0001
1000
0000
0000
0000
0000
,
1000
0000
0100
0000
1000
0100
0000
1000
,
0100
0010
0001
0000
,
0100
0000
0001
0000
0100
0001
0000
0100
,
0010
0000
1000
0000
0100
1000
0000
0000
,
0001
0000
1000
0000
0001
1000
0000
0001
,
0010
0000
0100
0000
0010
0100
0000
0010
,
0200
0000
0000
0000
,
2300
0000
3001
0100
,
1002
0000
2003
0000
,
3200
0000
0320
0000
,
0032
0000
0000
0000
0000
0000
0000
0000
0003
0200
0000
0000
0000
0000
0000
0000
,
0000
0300
0020
0000
0000
0000
0000
0000
0000
0000
0030
2000
0000
0000
0000
0000
,
0000
0000
0000
3000
0200
0000
0000
0000
0000
0000
0000
0000
0300
0000
0020
0000
,
0000
0000
0000
0030
0002
0000
0000
0000
,
0003
0200
0000
0000
0000
0300
0020
0000
,
0000
0000
0000
0000
0030
0000
0000
2000
0000
0000
0000
0000
0000
0000
0000
3000
,
0000
0000
0200
0000
0000
0000
0000
0000
0000
0000
0300
0000
0000
1000
0000
0000
,
0000
0000
0000
0000
0000
0001
0000
0000
0000
0000
0000
0000
0000
0000
0000
0000
2000
0000
0000
0000
0000
0000
0000
0000
0000
0000
0000
0000
0000
0000
0000
0000
,
3000
0002
0000
0003
,
0200
0000
0300
0020
,
0000
0030
2000
0000
,
3000
0000
0000
0000
0000
0200
0000
0000
0000
0000
0000
0000
0000
0300
0000
0000
,
0000
0000
0020
0000
0000
0000
0000
0000
0000
0000
0030
0000
0000
0000
0000
0002
,
0000
0000
0000
0000
0000
0000
0000
0003
0000
0000
0000
0000
2000
0000
0000
0000
,
0000
0000
3000
0000
0000
0020
0000
0000
,
0000
0030
0000
0000
0200
0000
0000
0000
,
0300
0000
0000
0002
0000
0000
0000
0003
,
0000
2000
0000
3000
,
0000
0020
0000
0030
,
0000
0200
0000
0300
,
0000
0002
0000
0000
,
0000
0003
0000
0000
;

//---------------dance-single - Telperion----------------
#NOTES:
     dance-single:
     Telperion:
     Beginner:
     2:
     0.088,0.102,0.105,0.088,0.000:
1000
0000
0000
0000
,
0001
0000
1000
0000
,
1001
0000
0000
0000
,
0000
0000
0000
0000
,
0000
0000
0000
0000
,
0000
0000
0000
0000
,
0000
1000
0000
0000
,
0000
0001
0000
0000
,
0000
1000
0000
0000
,
0000
0000
0000
0000
,
1001
0000
0000
0000
,
0000
0000
0000
0000
,
1001
0000
0000
0000
,
0000
0000
0000
0000
,
1001
0000
0000
0000
,
0000
0000
0000
0000
,
1001
0000
0000
0000
,
0000
0000
0000
0000
,
1000
0000
0000
0000
,
0001
0000
0000
0000
,
1000
0000
0000
0000
,
0001
0000
0000
0000
,
0100
0000
0000
0000
,
0010
0000
0000
0000
,
0100
0000
0000
0000
,
0010
0000
0000
0000
,
2000
0000
0000
0000
,
3001
0000
0000
0000
,
0002
0000
0000
0000
,
1003
0000
0000
0000
,
1001
0000
0000
0000
,
0000
0000
0000
0000
,
1001
0000
0000
0000
,
0000
0000
0000
0000
,
1001
0000
0000
0000
,
0000
0000
0000
0000
,
1001
0000
0000
0000
,
0000
0000
0000
0000
,
1000
0000
0000
0000
,
0001
0000
0000
0000
,
0100
0000
0000
0000
,
0010
0000
0000
0000
,
1000
0000
0000
0000
,
0100
0000
0000
0000
,
0010
0000
0000
0000
,
0100
0000
0000
0000
,
0110
0000
0000
0000
,
0000
0000
0000
0000
,
0110
0000
0000
0000
,
0000
0000
0000
0000
,
0110
0000
0000
0000
,
0000
0000
0000
0000
,
0100
0000
0000
0000
,
1000
0000
0000
0000
,
0002
0000
0000
0000
,
0003
0000
0000
0000
,
2000
0000
0000
0000
,
3000
0000
0000
0000
,
0000
0002
0000
0000
,
0000
0003
0000
0000
,
0000
0000
0000
2000
,
0000
0000
0000
3000
,
0000
0000
0000
0000
,
0000
0000
0002
0000
,
0000
0000
0003
0000
,
0000
0000
0000
0000
,
0000
0000
2000
0000
,
0000
0000
3000
0000
,
0000
0000
0000
0000
,
0000
0000
0000
0002
,
0000
0000
0000
0003
,
0000
0000
0000
0000
,
0000
0000
0000
0000
,
0000
2000
0000
0000
,
0000
0000
0000
0000
,
0000
0000
0000
0000
,
0000
0000
0000
0000
,
0000
3000
0000
0000
;

//---------------dance-single - Telperion----------------
#NOTES:
     dance-single:
     Telperion:
     Challenge:
     10:
     0.779,1.000,0.325,0.193,0.593:
1000
0001
1000
0100
1000
0001
1000
0000
0001
0010
0001
1000
0010
1000
0001
0000
,
0010
0000
0100
0000
1000
0000
0010
0000
0100
0000
0001
0000
0010
0000
0001
0000
1000
0000
0100
0000
1000
0000
0100
0010
0000
0010
0001
0000
0100
0000
0002
0000
,
2000
3003
1001
0000
1000
0000
0001
0000
,
1000
0001
1000
0001
,
1000
0001
0100
1000
,
0100
0001
0010
0100
,
1000
0100
0001
0100
0001
0000
0100
1000
,
0100
0000
1000
0010
1000
0100
0010
0100
,
0001
0100
1000
0001
0100
0010
1000
0100
,
0010
0001
1100
0001
0101
0010
0110
0000
,
1001
0000
0001
1000
0100
1000
0001
0100
,
2000
0000
3100
0001
0010
0100
1000
0010
,
0002
0000
0013
0100
1000
0100
0010
1000
,
0200
0000
0310
0001
1001
1001
0000
0100
,
0020
0000
0130
1000
0001
0100
1000
0100
,
0020
0000
1030
0100
0001
0100
0010
0001
,
1000
0001
0100
1000
0100
0010
1000
0100
,
0010
0000
0001
0010
0001
0000
1000
0010
0000
1000
0001
0000
0010
0000
0001
0000
,
1002
0103
0010
0100
1000
1000
0000
0100
,
0021
0130
1000
0010
1000
0100
0010
0001
,
0210
0310
0001
1000
0010
0010
0000
0100
,
0210
1300
0010
1000
0100
0001
0100
0001
,
0120
0031
0100
0010
0001
0001
0000
0010
,
2100
3001
0100
0010
1000
0001
0100
0010
,
1000
0100
1000
0001
0100
0001
1000
0100
,
0010
0001
0010
0001
1000
0001
1000
0001
0100
0000
0010
0000
0100
0000
0000
0000
,
0210
0000
2000
0300
,
0002
3000
0200
0003
,
0020
0300
0002
0030
,
1003
0000
0000
0000
0100
0000
0000
0000
1000
0000
0100
0000
1000
0000
0001
0000
0100
0000
0001
0100
0001
0000
0010
0100
0000
0100
2000
0000
0001
0000
0000
0000
,
3001
0000
1000
0100
0010
0001
0100
0010
,
0110
0000
0001
0010
0100
1000
0001
1000
,
1001
0000
0001
0100
1000
0100
0100
0010
,
1000
0100
0001
0100
0100
0010
0001
0100
,
0110
0000
0001
0010
1000
0001
0010
0100
,
0110
0000
1000
0010
0001
1000
0010
0100
,
0110
0010
1000
0100
0020
0001
0001
0031
,
0100
0010
0100
0001
0010
1000
0100
0001
,
0010
0000
0100
1000
1100
1000
0001
0000
,
0100
0100
0010
0100
0100
0010
1000
0001
,
0010
0000
0001
0100
0101
0100
0010
0000
,
1000
0001
1000
0001
1000
0000
0001
0000
0010
0000
0100
1000
0100
0000
0100
0000
,
0110
0000
0001
0100
0100
1000
0010
0100
,
0010
0100
0010
0100
0001
1000
0100
0000
0010
0100
0010
0100
1000
0001
0100
0000
,
0010
0000
0000
0101
0000
0000
1100
0000
0000
0011
0000
0000
1010
0000
0001
0000
,
1001
0010
0110
0110
0000
0000
0000
0000
,
1000
0000
0001
0000
1000
0000
0100
1000
0100
1000
0001
0000
0100
0000
0010
0000
,
1000
0000
0100
0000
0010
0000
0001
0010
0001
0010
0100
0000
1000
0000
0001
0000
,
0100
0000
1000
0000
0100
0000
0010
0100
0010
0100
0010
0000
1000
0000
0010
0000
,
0100
0000
0001
0000
0010
0000
0001
1000
0010
1000
0001
0000
0010
0000
0100
0000
,
0100
0000
0010
0000
0001
0000
0100
0001
0100
0010
0100
0000
0001
0000
0010
0000
,
0100
1000
0001
0020
0100
0031
0010
0100
,
1000
0010
1000
0001
0010
0001
1000
0010
,
1000
0001
1000
0001
1000
0010
1000
0010
0100
0000
0010
0000
0100
0000
0000
0000
,
0110
0000
0100
0001
0001
0010
0100
0000
,
1010
0000
1000
0010
0100
1000
0100
0000
,
0011
0000
0000
0000
0000
0000
0000
0000
0000
0000
0000
0000
0000
0000
0000
0000
0000
0000
0100
0000
0000
0000
0000
0000
0000
0000
0000
1000
0000
0000
0000
0000
0000
0000
0000
0000
0100
0000
0000
0000
0000
0000
0000
0000
0000
0001
0000
0000
0000
0000
0000
0000
0000
0000
0100
0000
0000
0000
0000
0000
0000
0000
0000
0000
,
0000
0000
0000
0000
0000
0000
0000
0000
1010
0000
0000
0000
0000
0000
0000
0000
0000
0000
0000
0000
0000
0000
0000
0000
0000
0000
0100
0000
0000
0000
0000
0000
0000
0000
0000
1000
0000
0000
0000
0000
0000
0000
0000
0000
0100
0000
0000
0000
0000
0000
0000
0000
0000
0001
0000
0000
0000
0000
0000
0000
0000
0000
0100
0000
,
0000
0000
0000
0000
0000
0000
0000
0000
1001
0000
0000
0000
0000
0000
0000
0000
0000
0000
1000
0000
0000
0000
0000
0001
0000
0000
0000
0000
0010
0000
0000
0000
,
0000
0100
0000
0000
0000
0000
1000
0000
0000
0000
0000
0100
0000
0000
0000
0000
1100
0000
0000
0000
0000
0000
0000
0000
0000
0000
1000
0000
0000
0000
0000
0100
,
0000
0000
0000
0000
0010
0000
0000
0000
0000
0100
0000
0000
0000
0000
0010
0000
0000
0000
0000
0001
0000
0000
0000
0000
0101
0000
0000
0000
0000
0000
0000
0000
,
0000
0000
0000
0000
0000
0000
0010
0000
0000
0000
0000
0000
0000
0000
0000
0000
0000
1000
0000
0000
0000
0000
0000
0000
0000
0000
0000
0000
0100
0000
0000
0000
0000
0000
0000
0000
0000
0000
0000
0010
0000
0000
0000
0000
0000
0000
0000
0000
0000
0000
0001
0000
0000
0000
0000
0000
0000
0000
0000
0000
0000
0100
0000
0000
,
0000
0000
0000
0000
0000
0000
0000
0000
1000
0000
0000
0000
0000
0000
0000
0000
0000
0000
0000
0001
0000
0000
0000
0000
0000
0000
0000
0000
0000
0000
0010
0000
0000
0000
0000
0000
0000
0000
0000
0000
0000
1000
0000
0000
0000
0000
0000
0000
0000
0000
0000
0000
0001
0000
0000
0000
0000
0000
0000
0000
0000
0000
0000
0010
,
0000
0000
0000
0000
0000
0100
0000
0000
0000
0000
0000
0000
0000
0000
0000
0000
1000
0000
0000
0000
0000
0000
0100
0000
0000
0000
0000
0000
1000
0000
0000
0000
,
0000
0000
0010
0000
0000
0100
0000
0000
0010
0000
0000
0100
0000
0000
0001
0000
0000
0000
0000
0000
0010
0000
0000
0000
0000
0000
0000
0000
0000
0000
0000
0000
,
0001
0000
0000
0000
0000
0000
1000
0000
0000
0000
0000
0000
0100
0000
0000
0000
0000
0000
1000
0000
0000
0100
0000
0000
0010
0000
0000
0100
0000
0000
0010
0000
,
0000
0000
0000
0000
0000
0000
0000
0000
0001
0000
0000
0000
0000
0000
0000
0000
0000
0000
0000
0000
0100
0000
0000
0000
0000
0000
0000
0000
0000
0000
0000
0000
1000
0000
0000
0000
0000
0000
0000
0000
0000
0000
0000
0000
0000
0100
0000
0000
0000
0000
0000
0000
0000
0000
0000
0000
0000
0000
0001
0000
0000
0000
0000
0000
,
0000
0000
0000
0000
0000
0000
0000
0100
0000
0000
0000
0000
0000
0000
0000
0000
0000
0000
0000
0000
1000
0000
0000
0000
0000
0000
0000
0000
0000
0000
0000
0000
0000
0100
0000
0000
0000
0000
0000
0000
0000
0000
0000
0000
0000
0000
0010
0000
0000
0000
0000
0000
0000
0000
0000
0000
0000
0000
0000
0001
0000
0000
0000
0000
,
0000
0000
0000
0000
0000
0000
0000
0000
1010
0000
0000
0000
0000
0000
0000
0000
0000
0000
0000
0000
0000
0100
0000
0000
0000
0000
0000
0000
0000
0000
0000
0000
0000
0000
0100
0000
0000
0000
0000
0000
0000
0000
0000
0000
0000
0000
0000
1000
0000
0000
0000
0000
0000
0000
0000
0000
0000
0000
0000
0000
1000
0000
0000
0000
,
0000
0000
0000
0000
0000
0000
0000
0000
0000
0001
0000
0000
0000
0000
0000
0000
0000
0000
0000
0000
0000
0000
0001
0000
0000
0000
0000
0000
0000
0000
0000
0000
0000
0100
0000
0000
0000
0000
0000
0000
0000
0000
0000
0000
0000
0000
0000
0000
0010
0000
0000
0000
0000
0000
0000
0100
0000
0000
0000
0000
0000
0000
0010
0000
,
0000
0000
0000
0000
0000
0100
0000
0000
0000
0000
0000
0000
1000
0000
0000
0000
0000
0000
0000
0000
0000
0000
0000
0000
0000
0000
0100
0000
0000
0000
0000
0000
0000
0000
0000
0000
0000
0000
0000
0000
0001
0000
0000
0000
0000
0000
0000
1000
0000
0000
0000
0000
0000
0000
0001
0000
0000
0000
0000
0000
0000
1000
0000
0000
,
0000
0000
0000
0000
0100
0000
0000
0000
0000
0000
0000
0000
0000
0000
0000
0000
0000
0000
0010
0000
0000
0000
0000
0000
0000
0000
0000
0000
0000
0000
0000
0000
0001
0000
0000
0000
0000
0000
0000
0010
0000
0000
0000
0000
0000
0000
0001
0000
0000
0000
0000
0000
0000
0010
0000
0000
0000
0000
0000
0000
0100
0000
0000
0000
,
0000
0000
0000
1000
0000
0000
0000
0000
0000
0000
0100
0000
0000
0000
0000
0000
0000
0000
0000
0000
0000
0000
0000
0000
1000
0000
0000
0000
0000
0000
0000
0010
0000
0000
0000
0000
0000
0000
1000
0000
0000
0000
0000
0000
0000
0010
0000
0000
0000
0000
0000
0000
0100
0000
0000
0000
0000
0000
0000
0001
0000
0000
0000
0000
,
0000
0100
0000
0000
0000
0000
0000
0000
0001
0000
0000
0000
1000
0000
0000
0000
0010
0000
0000
0000
1000
0000
0000
0000
0100
0000
0000
0000
0010
0000
0000
0000
,
0001
1000
0001
0100
0010
1000
0001
1000
,
0001
0000
1000
0100
0010
0001
0100
0010
,
1000
0010
0100
0001
0010
0100
1000
0001
,
0010
0100
0000
0000
0000
0000
0000
0000
;

//---------------dance-double - Telperion----------------
#NOTES:
     dance-double:
     Telperion:
     Challenge:
     9:
     0.622,0.811,0.123,0.070,0.369:
10000000
00000000
00010000
10000000
01000000
00100000
01000000
00000000
10000000
00010000
01000000
00100000
01000000
00000000
00010000
10000000
,
01000000
00000000
00100000
00001000
00010000
00000000
00000100
00001000
00000001
00000000
00000100
00000000
00001000
00000000
00000002
00000000
,
00001003
00001001
00000001
00001000
,
00000001
00001000
00000001
00001000
,
00000001
00001000
00000100
01000000
,
00001000
10000000
00001000
00100000
,
00000010
00010000
00001000
00000000
00010000
00000000
00001000
00000000
,
00000100
00000001
00000010
00001000
,
00010000
00001000
00100000
01000000
10000000
01000000
00100000
01000000
,
10000000
00010000
01000000
00100000
01000000
00010000
10000000
00000000
,
10010000
00000000
01000000
00100000
00001000
00010000
00100000
00000000
,
01100000
00000000
00100000
10000000
01000000
00100000
00001000
00010000
,
00000100
00000000
00000010
00000001
00000100
00000010
00000100
00000000
,
00000001
00001000
00000100
00000000
00000011
00000100
00000000
00001000
,
00001010
00000000
00000001
00000100
00000001
00001000
00000001
00001000
,
00000010
00010000
00001000
00010000
00000100
01000000
00001000
00010000
,
00001000
00100000
00010000
10000000
01000000
00100000
00010000
10000000
,
00010000
00000000
00000000
01000000
00000000
00000000
10000000
00000000
00000000
01000000
00000000
00000000
00010000
00000000
10000000
00000000
,
00010000
10000000
01000000
00100000
00001000
00010000
00000000
00100000
,
00010000
00001000
00000100
00000010
00000000
00001000
00000001
00000000
,
00001000
00000100
00000010
00000001
00000010
00000100
00000000
00001000
,
00000001
00000100
00000100
00000010
00000010
00010000
00000000
00000000
,
00001000
00100000
00010000
10000000
01000000
00100000
00000000
00010000
,
01000000
00100000
01000000
00010000
00100000
00010000
01000000
00100000
,
10000000
01000000
10000000
00010000
01000000
00010000
10000000
01000000
,
00100000
01000000
00100000
01000000
00100000
01000000
00100000
01000000
00100000
00000000
01000000
00000000
00100000
00000000
00000000
00000000
,
02200000
03000000
00002000
00300000
,
00000200
00003000
00000300
00000000
,
00000020
00000000
00002000
00000030
,
01003000
10000000
00100000
00010000
00001000
00000100
00000110
00000000
,
00000010
00001000
00000100
00000010
00000001
00000100
00001000
00000100
,
00000001
00000010
00000100
00010000
00001000
00100000
00010000
00000000
,
10000000
01000000
01000000
00100000
00010000
00100000
10000000
00100000
,
00010000
01000000
00001000
00010000
00000010
00000100
00001000
00010000
,
01000000
10000000
01000000
00100000
00010000
10000000
00100000
01000000
,
10000000
01000000
00100000
10000000
00010000
01000000
00001000
00000000
,
00010000
00000010
00001000
00000100
00000001
00000100
00001000
00000010
,
00000001
00000010
00000100
00001000
00000002
00000000
00001003
00000000
,
00001001
00000000
00000010
00001000
00000100
00000010
00000001
00000000
,
00000100
00000000
00001000
00010000
00010000
01000000
10000000
00000000
,
10010000
00000000
00010000
01000000
00100000
10000000
00010000
00100000
,
01000000
00010000
00001000
00000100
00001000
00010000
01000000
00000000
,
01100000
00000000
00010000
01000000
00100000
00000000
10000000
01000000
,
00010000
00001000
00010000
00001000
00000010
00001000
00000010
00000001
,
00000100
00000000
00000000
00000110
00000000
00000000
00001000
00000000
00000000
00001100
00000000
00000000
00000010
00000000
00000001
00000000
,
00000100
00001000
00010000
01000000
00000000
00000000
00000000
00000000
,
10000000
01000000
00010000
00000000
00001000
01000000
00000000
00100000
,
00010000
00001000
00000100
00000000
00000010
00001000
00000000
00000100
,
00000010
00000001
00000100
00000000
00001000
00010000
00000000
00000100
,
00000010
00001000
00010000
01000000
00100000
01000000
10000000
00000000
,
00010000
01000000
10000000
01000000
00010000
01000000
10000000
01000000
,
00100000
00010000
00001000
00010000
00001000
00000100
00001000
00000100
,
00000010
00001000
00000100
00000010
00000001
00000100
00000010
00001000
,
00000001
00001000
00000001
00001000
00000001
00001000
00000001
00001000
00000001
00000000
00001000
00000000
00000001
00000000
00000000
00000000
,
00001001
00000000
00001000
00000100
00000010
00000000
00000001
00000100
,
00000010
00000000
00001000
00000100
00000010
00000100
00001000
00000000
,
00000001
00000000
00000000
00000000
00000000
00000000
00000000
00000000
00000000
00000000
00000000
00000000
00000000
00000000
00000000
00000000
00000000
00000000
00000100
00000000
00000000
00000000
00000000
00000000
00000000
00000000
00000000
00000010
00000000
00000000
00000000
00000000
00000000
00000000
00000000
00000000
00010000
00000000
00000000
00000000
00000000
00000000
00000000
00000000
00000000
00000000
00000000
00000000
00000000
00000000
00000000
00000000
00000000
00000000
00001000
00000000
00000000
00000000
00000000
00000000
00000000
00000000
00000000
00000010
,
00000000
00000000
00000000
00000000
00000000
00000000
00000000
00000000
00000001
00000000
00000000
00000000
00000000
00000000
00000000
00000000
00000000
00000000
00000000
00000000
00000000
00000000
00000000
00000000
00000000
00000000
00000100
00000000
00000000
00000000
00000000
00000000
00000000
00000000
00000000
00001000
00000000
00000000
00000000
00000000
00000000
00000000
00000000
00000000
00010000
00000000
00000000
00000000
00000000
00000000
00000000
00000000
00000000
00000100
00000000
00000000
00000000
00000000
00000000
00000000
00000000
00000000
00001000
00000000
,
00000000
00000000
00000000
00000000
00000000
00000000
00000000
00000100
00000000
00000000
00000000
00000000
00000000
00000000
00000000
00000000
00010000
00000000
00000000
00000000
00000000
00000000
00000000
00000000
00000000
00000000
00000000
00000000
00000000
00000000
00000000
00000000
00000000
00000000
00000000
00000000
00001000
00000000
00000000
00000000
00000000
00000000
00000000
00000000
00000000
00000000
01000000
00000000
00000000
00000000
00000000
00000000
00000000
00000000
00000000
00000000
00100000
00000000
00000000
00000000
00000000
00000000
00000000
00000000
,
00000000
00000000
00000000
00000000
00000000
00000000
01000000
00000000
00000000
00000000
00000000
00010000
00000000
00000000
00000000
00000000
00100000
00000000
00000000
00000000
00000000
01000000
00000000
00000000
00000000
00000000
10000000
00000000
00000000
00000000
00000000
00010000
,
00000000
00000000
00000000
00000000
00000000
00000000
00000000
00000000
00100000
00000000
00000000
00000000
00000000
00000000
00000000
00000000
00000000
00000000
01000000
00000000
00000000
00000000
00000000
00000000
00000000
00000000
00000000
00000000
10000000
00000000
00000000
00000000
00000000
00000000
00000000
00000000
00000000
00000000
00010000
00000000
00000000
00000000
00000000
00000000
00000000
00000000
00000000
00000000
01000000
00000000
00000000
00000000
00000000
00000000
00000000
00000000
00000000
00000000
00000000
10000000
00000000
00000000
00000000
00000000
,
00000000
00000000
00000000
00000000
00000000
00000000
01000000
00000000
00000000
00000000
00000000
00000000
00000000
00000000
00000000
00000000
00000000
00100000
00000000
00000000
00000000
00000000
00000000
00000000
00000000
00000000
00000000
00000000
10000000
00000000
00000000
00000000
00000000
00000000
00000000
00000000
00000000
00000000
00000000
00010000
00000000
00000000
00000000
00000000
00000000
00000000
00000000
00000000
00000000
00000000
01000000
00000000
00000000
00000000
00000000
00000000
00000000
00000000
00000000
00000000
00000000
00001000
00000000
00000000
,
00000000
00000000
00000000
00000000
00000000
00000000
00000000
00000000
00010000
00000000
00000000
00000000
00000000
00000000
00000000
00000000
00000000
00000000
00000000
00000010
00000000
00000000
00000000
00000000
00000000
00000000
00000000
00000000
00000000
00000000
00000100
00000000
00000000
00000000
00000000
00000000
00000000
00000000
00000000
00000000
00000000
00001000
00000000
00000000
00000000
00000000
00000000
00000000
00000000
00000000
00000000
00000000
00000100
00000000
00000000
00000000
00000000
00000000
00000000
00000000
00000000
00000000
00000000
00000001
,
00000000
00000000
00000000
00000000
00000000
00000010
00000000
00000000
00000000
00000000
00000000
00000000
00000000
00000000
00000000
00000000
00000110
00000000
00000000
00000000
00000000
00000000
00000000
00000000
00000000
00000000
00000000
00000000
00000100
00000000
00000000
00000000
,
00000000
00001000
00000000
00000000
00000001
00000000
00000000
00000100
00000000
00000000
00000010
00000000
00000000
00010000
00000000
00000000
,
00000100
00000000
00000000
00000000
00000000
00000000
00000010
00000000
00000000
00000001
00000000
00000000
00000100
00000000
00000000
00000001
,
00000000
00000000
00000000
00000000
00000100
00000000
00000000
00000000
00000000
00000000
00001000
00000000
00000000
00000000
00000000
00000000
00000100
00000000
00000000
00000000
00000000
00000000
00000000
00000000
00000000
00000000
00000000
00000000
00000000
00001000
00000000
00000000
,
00000000
00000000
00000000
00000000
00000000
00000000
00000000
00010000
00000000
00000000
00000000
00000000
00000000
00000000
00000000
00000000
00000000
00000000
00000000
00000000
00001000
00000000
00000000
00000000
00000000
00000000
00000000
00000000
00000000
00000000
00000000
00000000
00000000
00010000
00000000
00000000
00000000
00000000
00000000
00000000
00000000
00000000
00000000
00000000
00000000
00000000
01000000
00000000
00000000
00000000
00000000
00000000
00000000
00000000
00000000
00000000
00000000
00000000
00000000
00010000
00000000
00000000
00000000
00000000
,
00000000
00000000
00000000
00000000
00000000
00000000
00000000
00000000
01000000
00000000
00000000
00000000
00000000
00000000
00000000
00000000
00000000
00000000
00000000
00000000
00000000
10000000
00000000
00000000
00000000
00000000
00000000
00000000
00000000
00000000
00000000
00000000
00000000
00000000
00010000
00000000
00000000
00000000
00000000
00000000
00000000
00000000
00000000
00000000
00000000
00000000
00000000
00100000
00000000
00000000
00000000
00000000
00000000
00000000
00000000
00000000
00000000
00000000
00000000
00000000
10000000
00000000
00000000
00000000
,
00000000
00000000
00000000
00000000
00000000
00000000
00000000
00000000
00000000
00010000
00000000
00000000
00000000
00000000
00000000
00000000
00000000
00000000
00000000
00000000
00000000
00000000
01000000
00000000
00000000
00000000
00000000
00000000
00000000
00000000
00000000
00000000
00000000
00000000
00000000
00100000
00000000
00000000
00000000
00000000
00000000
00000000
00000000
00000000
00000000
00000000
00000000
00000000
00010000
00000000
00000000
00000000
00000000
00000000
00000000
00000000
00000000
00000000
00000000
00000000
00000000
00000000
10000000
00000000
,
00000000
00000000
00000000
00000000
00000000
00000000
01000000
00000000
00000000
00000000
00000000
00000000
00000000
00010000
00000000
00000000
00000000
00000000
00000000
00000000
00001000
00000000
00000000
00000000
00000000
00000000
00000000
01000000
00000000
00000000
00000000
00000000
,
00000000
00000000
00100000
00000000
00000000
00000000
00000000
00000000
00000000
00010000
00000000
00000000
00000000
00000000
00000000
00000000
10000000
00000000
00000000
00000000
00000000
00000000
00000000
01000000
00000000
00000000
00000000
00000000
00000000
00000000
00100000
00000000
,
00000000
00000000
00000000
00000000
00000000
00010000
00000000
00000000
00000000
00000000
00000000
00000000
00001000
00000000
00000000
00000000
00000000
00000000
00000000
00000100
00000000
00000000
00000000
00000000
00000000
00000000
00000010
00000000
00000000
00000000
00000000
00000000
,
00000000
00001000
00000000
00000000
00000000
00000000
00000000
00000000
00000100
00000000
00000000
00000000
00000000
00000000
00000000
00000000
00000010
00000000
00000000
00000000
00000000
00000000
00000000
00000000
00000001
00000000
00000000
00000000
00000000
00000000
00000000
00000000
,
00000100
00000010
00001000
00000100
,
00010000
00001000
01000000
00010000
,
00100000
01000000
00010000
00000100
,
00000001
00000000
00000000
00000000
;

//---------------dance-double - Telperion----------------
#NOTES:
     dance-double:
     Telperion:
     Hard:
     8:
     0.502,0.573,0.132,0.123,0.184:
10000000
01000000
00100000
00010000
10000000
01000000
00100000
00001000
,
00010000
00000100
00001000
00000010
00000100
00001000
00000100
00000002
,
00001003
00001001
00001000
00000001
,
00001000
00000001
00001000
00000001
,
00001000
00000010
00000100
00000010
,
00000100
00000010
00000100
00000010
,
00001000
00000100
00000010
00000000
00000001
00000000
00001000
00000000
,
00000100
00010000
00001000
00100000
,
00010000
10000000
01000000
10000000
00010000
00100000
00010000
10000000
,
02000000
00100000
00000000
00100000
00000000
00000000
03100000
00000000
,
01100000
00000000
00010000
10000000
00000000
10000000
01000000
00100000
,
00010000
00000000
00010000
01000000
00100000
01000000
00001000
00000000
,
00011000
00000000
00010000
00001000
00000000
00010000
00000100
00010000
,
00000010
00001000
00000001
00000000
00010000
00001000
00000000
00010000
,
00000001
00000000
00000100
00000001
00000100
00000000
00001000
00000100
,
00001000
00000000
00010000
00001000
00010000
00000000
01000000
00010000
,
01000000
10000000
00100000
01000000
00010000
00100000
00001000
00010000
,
00002000
00000000
00000000
00013000
00000000
00000000
00020000
00000000
00000000
00031000
00000000
00000000
00011000
00000000
00000000
00000000
,
00001000
00010000
00001000
00000000
00010000
00000100
00000000
00000020
,
00000000
00000000
00000130
00000000
00001000
00000100
00000010
00000000
,
00000001
00000100
00000010
00000000
00001000
00000100
00000000
00000002
,
00000000
00000000
00000103
00000000
00001000
00001100
00000000
00000000
,
00010000
00001000
00000100
00000000
00001000
00010000
01000000
00100000
,
00000000
00010000
01000000
00100000
10000000
00100000
01000000
00010000
,
00100000
01000000
00100000
01000000
,
10000000
00010000
10010000
00100000
,
20010000
00000000
30020000
00000000
,
00032000
00000000
00003001
00000000
,
00000020
00000000
00002030
00000000
,
02003000
00000000
03100000
01100000
,
10010000
00000000
10000000
01000000
00000000
00100000
00001000
00010000
,
00000100
00000000
00000010
00000001
00000000
00001000
00000000
00000000
,
00001001
00000000
00000001
00000100
00000000
00000010
00001000
00000100
,
00010000
00000000
00001000
00000000
01000000
00100000
00000000
00000000
,
10010000
00000000
10000000
01000000
00000000
00100000
01000000
00010000
,
00001000
00000000
00000100
00000010
00000000
00001000
00000000
00000000
,
00001001
00000000
00000001
00000100
00000010
00000000
00001000
00000100
,
00010000
00001000
00100000
00010000
10000000
01000000
00010000
00000000
,
10010000
00000000
00010000
00100000
01000000
00000000
00100000
00010000
,
10000000
00100000
01000000
00001000
00010000
00000010
00001000
00000000
,
00000001
00000000
00000001
00001000
00000001
00000000
00000001
00001000
,
00000001
00000010
00000100
00001000
00000100
00010000
00001000
00100000
,
00010000
00000000
10000000
00000000
00010000
10000000
00010000
00000000
,
01000000
10000000
01000000
00010000
01000000
10000000
01000000
00010000
,
00100000
00000000
00000000
01000000
00000000
00000000
10000000
00000000
00000000
00100000
00000000
00000000
01000000
00000000
00010000
00000000
,
00100000
01000000
00100000
01000000
00000000
00000000
00000000
00000000
,
01100000
00000000
00010000
10000000
00010000
01000000
00000000
01000000
,
00100000
00000000
00100000
00010000
00000000
00010000
00001000
00000100
,
00000010
00001000
00000001
00000000
00001000
00000100
00000000
00000010
,
00000001
00001000
00000100
00010000
00001000
00100000
00010000
00100000
,
01000000
00000000
10000000
00000000
00100000
01000000
00010000
00100000
,
01000000
00000000
10000000
00100000
01000000
00010000
00100000
01000000
,
10000000
00010000
10000000
00010000
,
01000000
00200000
02000000
03300000
,
01100000
00000000
00100000
00000000
10000000
01000000
00000000
00010000
,
00001000
00000100
00000001
00000000
,
00000010
00000000
00000000
00000000
00000000
00000000
00000000
00000000
00000000
00000000
00000000
00000000
00000000
00000000
00000000
00000000
00000000
00000000
00000001
00000000
00000000
00000000
00000000
00000000
00000000
00000000
00000000
00000000
00000000
00000000
00000000
00000000
00000000
00000000
00000000
00000000
00000001
00000000
00000000
00000000
00000000
00000000
00000000
00000000
00000000
00000100
00000000
00000000
00000000
00000000
00000000
00000000
00000000
00000000
00000000
00000000
00000000
00000000
00000000
00000000
00000000
00000000
00000000
00000100
,
00000000
00000000
00000000
00000000
00000000
00000000
00000000
00000000
00001000
00000000
00000000
00000000
00000000
00000000
00000000
00000000
00000000
00000000
00000000
00000000
00000000
00000000
00000000
00000000
00000000
00000000
00010000
00000000
00000000
00000000
00000000
00000000
00000000
00000000
00000000
00000000
00000000
00000000
00000000
00000000
00000000
00000000
00000000
00000000
00001000
00000000
00000000
00000000
00000000
00000000
00000000
00000000
00000000
00010000
00000000
00000000
00000000
00000000
00000000
00000000
00000000
00000000
00000000
00000000
,
00000000
00000000
00000000
00000000
01000000
00000000
00000000
00000000
00000000
10000000
00000000
00000000
00000000
00000000
10000000
00000000
,
00000000
00100000
00000000
00000000
00000000
00000000
00000000
00000000
00000000
00000000
00000000
00100000
00000000
00000000
00000000
00000000
00010000
00000000
00000000
00000000
00000000
00000000
00000000
00000000
00000000
00000000
00001000
00000000
00000000
00000000
00000000
00000000
,
00000000
00000000
00100000
00000000
00000000
00000000
00000000
01000000
00000000
00000000
00000000
00000000
10000000
00000000
00000000
00000000
,
00000000
00000000
00000000
01000000
00000000
00000000
00000000
00000000
00000000
00000000
00000000
00000000
00000000
00000000
00100000
00000000
00000000
00000000
00000000
00000000
00000000
00000000
00000000
00000000
00000000
00001000
00000000
00000000
00000000
00000000
00000000
00000000
,
00000000
00000000
00000000
00000000
00000000
00000000
00000000
00000000
00010000
00000000
00000000
00000000
00000000
00000000
00000000
00000000
00000000
00000000
00000000
00000000
00000000
00000000
00000000
00000000
00000000
00000000
00000000
00000000
00000000
00000000
00100000
00000000
00000000
00000000
00000000
00000000
00000000
00000000
00000000
00000000
00000000
00000000
00000000
00000000
00000000
00000000
00000000
00000000
00000000
00000000
00000000
00000000
00010000
00000000
00000000
00000000
00000000
00000000
00000000
00000000
00000000
00000000
00000000
00001000
,
00000000
00000000
00000000
00000000
00000000
00000000
00000000
00000000
00000000
00000000
00000000
00000000
00000000
00000000
00000000
00000000
00000000
00000000
00000000
00000000
00000000
00000100
00000000
00000000
00000000
00000000
00000000
00000000
00000000
00000000
00000000
00000000
00000001
00000000
00000000
00000000
00000000
00000000
00000000
00000000
00000000
00000000
00000000
00000000
00000000
00000000
00000000
00000000
00000000
00000000
00000000
00000000
00000000
00000000
00000000
00000000
00000010
00000000
00000000
00000000
00000000
00000000
00000000
00000000
,
00000000
00000000
00000000
00000000
00000100
00000000
00000000
00000010
00000000
00000000
00000100
00000000
00000000
00000000
00000000
00000000
,
00001000
00000000
00000000
00000000
00000000
00000000
00000100
00000000
00000000
00000000
00000000
00000000
00010000
00000000
00000000
00001000
,
00000000
00000000
00000000
00000000
00010000
00000000
00000000
00000000
00000000
00000000
00000000
00000000
00000000
00000000
00000000
00000000
01000000
00000000
00000000
00000000
00000000
00000000
00000000
00000000
00000000
00000000
00000000
00000000
00000000
10000000
00000000
00000000
,
00000000
00000000
00000000
00000000
00000000
00000000
00000000
00000000
00000000
00000000
00000000
00000000
00000000
00000000
00000000
00000000
00000000
00000000
00000000
00000000
00100000
00000000
00000000
00000000
00000000
00000000
00000000
00000000
00000000
00000000
00000000
00000000
00000000
10000000
00000000
00000000
00000000
00000000
00000000
00000000
00000000
00000000
00000000
00000000
00000000
00000000
00100000
00000000
00000000
00000000
00000000
00000000
00000000
00000000
00000000
00000000
00000000
00000000
00000000
00000000
00000000
00000000
00000000
00000000
,
00000000
00000000
00000000
00000000
01000000
00000000
00000000
00000000
00000000
00000000
00000000
00000000
00000000
00000000
00000000
00000000
00000000
00001000
00000000
00000000
00000000
00000000
00000000
00000000
00000000
00000000
00000000
00000000
00000000
00000000
00010000
00000000
,
00000000
00000000
00000000
00000000
00000000
00000000
00000000
00000000
00000000
00001000
00000000
00000000
00000000
00000000
00000000
00000000
00000000
00000000
00000000
00000000
00000000
00000000
00010000
00000000
00000000
00000000
00000000
00000000
00000000
00000000
00000000
00000000
00000000
00000000
00000000
00001000
00000000
00000000
00000000
00000000
00000000
00000000
00000000
00000000
00000000
00000000
00000000
00000000
00000100
00000000
00000000
00000000
00000000
00000000
00000000
00000000
00000000
00000000
00000000
00000000
00000000
00000000
00000000
00000000
,
00000000
00000000
00000000
00000000
00000000
00000000
00000001
00000000
00000000
00000000
00000000
00000000
00000000
00000000
00000000
00000000
00000000
00000000
00000000
00000000
00000010
00000000
00000000
00000000
00000000
00000000
00000000
00000001
00000000
00000000
00000000
00000000
,
00000000
00000000
00000010
00000000
00000000
00000000
00000000
00000000
00000000
00000000
00000000
00000000
00000000
00000000
00000000
00000000
00000100
00000000
00000000
00000000
00000000
00000000
00000000
00000010
00000000
00000000
00000000
00000000
00000000
00000000
00000100
00000000
,
00000000
00000000
00000000
00000000
00000000
00000000
00000000
00000000
00000000
00000000
00000000
00000000
00001000
00000000
00000000
00000000
00000000
00000000
00000000
00000100
00000000
00000000
00000000
00000000
00000000
00000000
00010000
00000000
00000000
00000000
00000000
00000000
,
00000000
00001000
00000000
00000000
00000000
00000000
00000000
00000000
01000000
00000000
00000000
00000000
00000000
00000000
00000000
00000000
00000000
00000000
00000000
00000000
00000000
00000000
00000000
00000000
00100000
00000000
00000000
00000000
00000000
00000000
00000000
00000000
,
00000000
10000000
00100000
10000000
,
00000000
00010000
01000000
00001000
,
00010000
00000010
00001000
00000001
;

//---------------dance-double - Telperion----------------
#NOTES:
     dance-double:
     Telperion:
     Medium:
     5:
     0.361,0.373,0.211,0.369,0.061:
00000002
00000000
00002003
00000000
,
00023000
00000000
20030000
00000000
,
30010000
10010000
00000000
00000000
,
00000000
00000000
00000000
00000000
,
00000000
00000000
00000000
00000000
,
00000000
00000000
00000000
00000000
,
10000000
00010000
10000000
00000000
01000000
00000000
00010000
00000000
,
00001000
00000100
00000001
00000010
,
00001000
00010000
00100000
01000000
,
00020000
00000000
00000000
10030000
,
10010000
00000000
00000000
00000000
00000000
10000000
01000000
00000000
,
11000000
00000000
00000000
00000000
00000000
01000000
00010000
00000000
,
01010000
00000000
00000000
00000000
00000000
00010000
00001000
00000000
,
00011000
00000000
00001000
00000100
00000010
00000100
00000000
00000000
,
00000110
00000000
00000000
00000000
00000000
00000010
00001000
00000000
,
00001010
00000000
00000000
00000000
00000000
00001000
00000100
00000000
,
00001100
00000000
00000000
00000000
00000000
00000100
00000010
00000000
,
00000010
00000000
00000000
00000001
00000000
00000000
00000100
00000000
00000000
00000010
00000000
00000000
00001000
00000000
00000000
00000000
,
00000001
00000000
00000100
00000000
00001000
00000100
00000000
00001000
,
00010000
00000000
01000000
00000000
10000000
01000000
00000000
00000000
,
10000000
00000000
00100000
00000000
00010000
00100000
00000000
00010000
,
00001000
00000000
00010000
00000000
00001000
00000010
00000000
00000000
,
00000001
00000000
00000100
00000000
00000001
00000010
00000000
00000010
,
00001000
00000000
00010000
00000000
00001000
00010000
00000000
00001000
,
00200000
00000000
00000000
00000000
,
02000000
00000000
03300000
01010000
,
00012000
00000000
02003000
00000000
,
00200000
00000000
03300000
00000000
,
00200000
00000000
02300000
00000000
,
03000200
00000000
00000310
00000110
,
00001001
00000000
00000001
00001000
00000000
00001000
00000001
00000000
,
00000100
00000000
00000010
00001000
00000000
00000000
00000000
00000000
,
00001100
00000000
00000100
00010000
00000000
00010000
00001000
00000000
,
01000000
00000000
00010000
01000000
00100000
01000000
00000000
00000000
,
01100000
00000000
00100000
10000000
00000000
10000000
01000000
00000000
,
00100000
00010000
00100000
01000000
,
10100000
00100000
00010000
00001000
,
00000100
00000001
00000020
00000130
,
00000110
00001000
00000001
00001000
,
00000110
00001000
00010100
00000000
,
00011000
00100000
00001000
00010000
,
00011000
00000000
00010000
00001000
00000000
01000000
00000000
00000000
,
01100000
00100000
10000000
01000000
,
10010000
01000000
00110000
01000000
,
10000000
00000000
00000000
00010000
00000000
00000000
10000000
00000000
00000000
00010000
00000000
00000000
10000000
00000000
00010000
00000000
,
10000000
00001000
01000000
10000000
00000000
00000000
00000000
00000000
,
01000000
00000000
00010000
00000000
00100000
01000000
00000000
01000000
,
00010000
00001000
00000100
00000000
,
00000010
00000000
00000100
00000000
00000001
00000010
00000000
00000010
,
00001000
00000000
00010000
00000000
00000100
00000010
00000000
00000000
,
00000001
00000000
00000100
00000000
00000010
00001000
00000000
00001000
,
00000100
00000000
00010000
00000000
00001000
00100000
00000000
00100000
,
00020000
00000000
00000000
00000000
,
20000000
00000000
30030000
00000000
,
20010000
00000000
32000000
00000000
,
03100000
00010000
01000000
00000000
,
00200000
00000000
00000000
00000000
00000000
00000000
00000000
00000000
00300000
02000000
00000000
00000000
00000000
00000000
00000000
00000000
,
00000000
00000000
03000000
00000000
00010000
00000000
00000000
00000000
00000000
00000000
00000000
00000000
00000000
00100000
00000000
00000000
00000000
00000000
00000000
00000000
00000000
00000000
01000000
00000000
00000000
00000000
00000000
00000000
00000000
00000000
00000000
00100000
,
00000000
00000000
00002000
00000000
00000000
00000000
00003000
00020000
,
00000000
00000000
00000000
00000000
00000000
00000000
00030000
00000000
00001000
00000000
00000000
00000000
00000000
00000100
00000000
00000000
,
00000000
00000000
00000010
00000000
00000000
00000000
00000000
00001000
00000000
00000000
00000000
00000000
00000200
00000000
00000000
00000000
,
00000000
00000000
00000000
00000000
00000300
00000000
00000000
00002000
00000000
00000000
00000000
00000000
00000000
00000000
00000000
00003000
,
00000000
00000000
00000002
00000000
00000000
00000000
00000000
00000000
00000000
00000000
00000003
00000000
00000000
00002000
00000000
00000000
,
00000000
00000000
00000000
00000000
00000000
00003000
00000000
00000000
00000200
00000000
00000000
00000000
00000000
00000000
00000000
00000000
,
00000300
00000020
00000000
00000030
,
00000002
00000000
00000003
00000200
,
00000000
00000300
00002000
00000000
,
00003000
00000000
00000000
00000000
00000000
00020000
00000000
00000000
00000000
00000000
00000000
00000000
00000000
00030000
00000000
00000000
,
00000000
00000000
00200000
00000000
00000000
00000000
00000000
00000000
00000000
00000000
00300000
00000000
00000000
00000000
00000000
02000000
,
00000000
00000000
00000000
00000000
00000000
00000000
00000000
03000000
00000000
00000000
00000000
00000000
20000000
00000000
00000000
00000000
,
00000000
00000000
30000000
00000000
00000000
02000000
00000000
00000000
,
00000000
03000000
00000000
00000000
00020000
00000000
00000000
00000000
,
00030000
00000000
00000000
00200000
00000000
00000000
00000000
00300000
,
00000000
02000000
00000000
03000000
,
00000000
20000000
00000000
30000000
,
00000000
00020000
00000000
00030000
,
00000000
02000000
00000000
00000000
,
00000000
03000000
00000000
00000000
;

//---------------dance-double - Telperion----------------
#NOTES:
     dance-double:
     Telperion:
     Easy:
     3:
     0.186,0.201,0.053,0.097,0.013:
00000200
00000000
00000300
00000000
,
00020000
00000000
00030000
00000000
,
00001000
00000000
00000000
00000000
,
00000000
00000000
00000000
00000000
,
00000000
00000000
00000000
00000000
,
00000000
00000000
00000000
00000000
,
00010000
00001000
00010000
00000000
00000000
00000000
00001000
00000000
,
00000000
00100000
00000000
01000000
,
00000000
10000000
00010000
01000000
,
00200000
00000000
00000000
01300000
,
00010000
00000000
10000000
01000000
,
00100000
00000000
00010000
00000000
,
01000000
00000000
00100000
01000000
,
00100000
00000000
10000000
01000000
,
00010000
00000000
00001000
00000000
,
00010000
00000000
00000100
00001000
,
00000001
00000000
00000100
00000000
,
00000010
00000010
00001000
00000001
,
00000010
00000000
00000000
00000001
,
00000100
00000000
00000000
00000001
,
00001000
00000000
00000000
00000100
,
00010000
00000000
01000000
00000000
,
10000000
00000000
00000000
10000000
,
00100000
00000000
00010000
00000000
,
00002000
00000000
00000000
00000000
,
00020000
00000000
00033000
00000000
,
00010000
00000000
00000100
00000000
,
00000020
00000000
00000030
00000000
,
00001000
00000000
00000100
00000000
,
00000001
00000000
00000010
00000100
,
00000110
00000000
00000000
00000001
,
00001000
00000000
00000000
00001000
,
00000100
00000000
00000000
00000100
,
00010000
00000000
00001000
00100000
,
00010000
00000000
00000000
00010000
,
10000000
00000000
00000000
01000000
,
00100000
00000000
00010000
00000000
,
01000000
00000000
00100000
00000000
,
10000000
00000000
01000000
00000000
,
00100000
01000000
00100000
01000000
,
00100000
00000000
00001000
00000000
,
00010000
00001000
00010000
00000000
,
00000100
00000000
00001000
00000000
,
00000010
00001000
00000010
00000000
,
00000100
00000000
00000002
00000000
,
00002000
00000000
00003003
00000000
,
00001001
00000000
00000000
00000000
,
00000110
00000000
00000000
00000000
,
00001002
00000000
00001000
00000000
,
00000103
00000000
00000000
00000000
,
00000010
00000000
00001000
00000000
,
00000100
00000000
00010000
00000000
,
00002000
00000000
00000000
00000000
,
00003200
00000000
00000000
00000300
,
00000110
00000000
00000000
00000000
,
00000010
00000000
00001000
00000000
,
00000001
00000000
00000000
00000000
,
00000000
00000000
00000001
00000000
00000000
00000000
00000000
00000000
00000000
00000000
00000000
00001000
00000000
00000000
00000000
00000000
,
00000000
00000010
00000000
00000000
,
00000000
00000000
00010000
00000000
,
00000000
00001000
00000000
00000000
00000000
00000000
01000000
00000000
,
00000000
00000000
00000000
00000000
00000000
00000000
00000000
00010000
00000000
00000000
00000000
00000000
00000000
00000000
00000000
00000000
,
00000000
10000000
00000000
00000000
00000000
00000000
00000000
00000000
,
00000000
00000000
10010000
00000000
,
00000000
00000000
00000000
00000000
,
10000000
00000000
00000000
01000000
,
00000000
00000000
00100000
00000000
,
00000000
00000000
00000000
00000000
,
00000000
00000000
00010000
00000000
00000000
00000000
00000000
00000000
00000000
00000000
00000000
00000000
00000000
00000000
00000000
01000000
,
00000000
00000000
00000000
00100000
,
00000000
00000000
00000000
00000000
00000000
00010000
00000000
00000000
,
00000000
00000000
00001000
00000000
,
00000000
00000000
00000000
00000010
00000000
00000000
00000000
00000000
,
00000000
00000001
00000000
00000000
,
00000000
00000100
00000000
00000000
,
00000000
00001000
00000000
00000000
,
00000000
00010000
00000000
00000000
;
