#TITLE:DOMINION;
#SUBTITLE:;
#ARTIST:L.E.D.-G;
#TITLETRANSLIT:;
#SUBTITLETRANSLIT:;
#ARTISTTRANSLIT:;
#GENRE:;
#CREDIT:;
#BANNER:;
#BACKGROUND:;
#LYRICSPATH:;
#CDTITLE:;
#MUSIC:DOMINION.mp3;
#OFFSET:-1.320;
#SAMPLESTART:101.540;
#SAMPLELENGTH:12.000;
#SELECTABLE:YES;
#BPMS:0.000=49.000,8.000=196.000,40.000=98.000,48.000=196.000,188.000=392.000,250.000=784.000,254.000=196.000,286.000=98.000,294.000=196.000,310.000=50.000,312.000=392.000;
#STOPS:59.938=1.205
;
#BGCHANGES:;
#KEYSOUNDS:;

//---------------dance-single - Blank----------------
#NOTES:
     dance-single:
     Blank:
     Challenge:
     12:
     1.000,1.000,0.930,0.057,0.509,787.000,115.000,7.000,0.000,0.000,0.000,1.000,1.000,0.930,0.057,0.509,787.000,115.000,7.000,0.000,0.000,0.000: // measure 1
0000
0000
0000
0000
,  // measure 2
0000
0000
0000
0000
,  // measure 3
0001
0000
0010
0000
0100
0000
1000
0000
0001
0100
0010
0000
1000
0001
0010
0100
,  // measure 4
1000
0000
0001
1000
0100
0000
1000
0010
0100
0001
0010
0000
0100
0000
1000
0000
,  // measure 5
0001
0000
0100
0010
1000
0000
0001
0000
0010
0000
0100
0000
0010
0001
1000
0001
,  // measure 6
0100
0000
0100
0000
0100
0000
0010
1000
0100
0000
1000
0010
0100
0001
1000
0000
,  // measure 7
1100
0000
0001
0101
0000
1000
1100
0010
,  // measure 8
0110
0000
0110
0000
0000
1001
1001
0000
,  // measure 9
0100
0100
0100
0100
0010
0010
0010
0010
,  // measure 10
0100
0001
0010
0100
1000
0001
0100
0010
2000
0000
0000
0000
3002
0000
0000
0000
,  // measure 11
0103
0100
0010
1000
0010
1000
0001
0010
0000
0100
0010
0100
0000
1000
0001
1000
,  // measure 12
0100
0100
1000
0010
1000
0010
0100
0001
0000
1000
0100
1000
1000
0001
0100
0010
,  // measure 13
1100
0000
0001
0101
0000
1000
1100
0000
,  // measure 14
0110
0000
0110
0000
0000
0011
0000
1100
,  // measure 15
0101
0000
0000
0000
0000
0000
0000
0000
0010
0000
0000
0000
0000
0000
0000
0000
1000
0000
0000
0000
0000
0000
0000
0000
1010
0000
0000
0000
0000
0000
0000
0000
2000
0000
0000
0000
0000
0000
0000
0000
0100
0000
0000
0000
0000
0000
0000
0000
3001
0000
0000
0000
0010
0000
0000
0000
0100
0000
0000
0000
1000
0000
0000
0010
,  // measure 16
0101
0010
1000
0100
0010
0001
0100
0010
,  // measure 17
0000
1000
0001
0000
0100
0011
0100
1010
,  // measure 18
0100
0001
0010
0100
1000
0001
1000
0010
,  // measure 19
0000
0100
0011
0010
1100
0001
1100
0101
,  // measure 20
0100
0010
1000
0001
0010
0100
1000
0001
,  // measure 21
0000
0001
0100
0010
1000
0001
0010
0100
,  // measure 22
0000
1000
0010
0100
0001
1000
0100
0010
,  // measure 23
0101
0101
1100
1100
0000
0110
1001
0011
,  // measure 24
1100
0001
0010
0100
1000
0010
0100
0010
,  // measure 25
0000
1000
0001
0000
0010
1100
0010
0101
,  // measure 26
1000
0001
0010
0100
1000
0001
0100
0010
,  // measure 27
0000
0000
0010
0000
1100
0000
0001
0000
1000
0001
0100
0000
0010
1000
0001
1000
,  // measure 28
0100
1000
0001
0010
0100
1000
0001
0100
,  // measure 29
0000
0100
0010
1000
0001
1100
1000
0101
,  // measure 30
1001
0001
1000
0010
0100
0001
1000
0100
,  // measure 31
1001
0000
0000
0000
0000
0000
0000
0000
0000
0000
0001
0000
1000
0001
0010
0000
,  // measure 32
1001
0100
0010
1000
,  // measure 33
0001
0010
0100
0010
,  // measure 34
0011
0100
0010
1000
,  // measure 35
0001
1000
0010
0100
,  // measure 36
1010
0100
0010
0001
,  // measure 37
1000
0001
0100
0010
,  // measure 38
1010
0001
0010
0100
,  // measure 39
1010
1010
0101
0101
0000
1100
1001
0110
,  // measure 40
0001
1000
0001
1000
0001
1000
0010
1000
0001
1000
0001
1000
0001
1000
0010
1000
,  // measure 41
0100
0010
0100
0010
0100
0010
0001
0010
0100
0010
0100
0010
0100
0010
0001
0010
,  // measure 42
0100
1000
0100
1000
0100
1000
0010
1000
0100
1000
0100
1000
0100
1000
0010
1000
,  // measure 43
0001
0100
0001
0100
0001
0100
0010
0100
0001
0100
0001
0100
0001
0100
0010
0100
,  // measure 44
0001
0010
0001
0010
0001
0010
0100
0010
0001
0010
0001
0010
0001
0010
0100
0010
,  // measure 45
0001
1000
0001
1000
0001
1000
0100
1000
0001
1000
0001
1000
0001
1000
0100
1000
,  // measure 46
0010
0010
0010
0101
1100
1001
0110
0101
,  // measure 47
1000
0100
0001
0100
1000
0010
0001
0010
1000
0100
1000
0100
0010
0001
0010
0001
,  // measure 48
0010
0100
1000
0000
0010
0100
0001
0000
,  // measure 49
0010
0100
1000
0000
0010
0100
0001
0000
,  // measure 50
1000
0001
0100
0000
0001
1000
0100
0000
,  // measure 51
1000
0001
0100
0000
0001
1000
0100
0000
,  // measure 52
0011
1100
1100
0101
,  // measure 53
0101
1100
1100
1010
,  // measure 54
0100
0101
0101
0011
,  // measure 55
0011
1100
1100
1001
,  // measure 56
0100
0010
1000
0000
0001
0010
0100
0000
,  // measure 57
0010
0001
1000
0000
0010
1000
0001
0000
,  // measure 58
0100
0010
1000
0000
0001
0010
0100
0000
,  // measure 59
0010
0001
1000
0000
0010
1000
0001
0000
,  // measure 60
0010
0100
1000
0000
0010
0100
0001
0000
,  // measure 61
0010
0001
1000
0000
0010
1000
0001
0000
,  // measure 62
0100
0001
0010
0000
0100
1000
0010
0000
,  // measure 63
0100
0001
0010
0100
2000
0000
0000
0000
,  // measure 64
0000
0000
3000
0000
1001
0010
0100
1001
,  // measure 65
0010
0100
1001
0100
0010
1001
0100
0010
,  // measure 66
0001
0010
0100
1000
0110
0010
1000
0110
,  // measure 67
0010
1000
0110
1000
0010
0110
1000
0010
,  // measure 68
0100
0001
0010
0100
1100
0100
0001
1100
,  // measure 69
0100
0001
1100
0001
0100
1100
0001
0100
,  // measure 70
0001
0010
0100
1000
0001
0001
0001
0001
,  // measure 71
0100
0000
0100
0000
0100
0000
0100
0000
0010
0100
0010
0100
0001
0010
0001
0010
,  // measure 72
0100
1000
0001
0100
0010
1000
0001
1000
0100
0000
1000
0010
0100
0001
0010
0100
,  // measure 73
0000
1100
0000
0101
0000
0010
1000
0001
0011
0100
1000
1100
0000
0101
0000
1001
,  // measure 74
0001
0000
1000
0100
1000
0000
0001
0100
0001
0000
0010
0100
1000
0001
0100
0000
1010
0000
0000
0000
0000
0000
0000
0000
0100
0000
0000
0000
0011
0000
0000
0000
,  // measure 75
0000
0100
1001
0000
0110
0000
0110
0000
,  // measure 76
0000
0011
1100
0000
1001
0010
0010
0010
,  // measure 77
0100
0000
0100
0000
0100
0000
0100
0000
1000
0010
0100
0001
1000
0001
1000
0100
,  // measure 78
0020
0032
0103
0010
,  // measure 79
0100
0010
1100
0001
,  // measure 80
0101
0000
0001
0000
1000
0010
0100
0000
,  // measure 81
0000
0000
0001
1000
0100
0000
1000
0000
,  // measure 82
0010
0101
0010
1100
,  // measure 83
0001
1000
1010
0001
,  // measure 84
0101
0000
0100
0000
0001
0010
0100
0000
,  // measure 85
0000
0000
1000
0010
0100
0000
0001
0000
,  // measure 86
0101
1000
1100
0010
,  // measure 87
0100
0001
0100
0001
0010
0000
0100
1000
,  // measure 88
0100
1000
0010
0000
1000
0001
1000
0000
,  // measure 89
0001
0100
0001
0100
1000
0000
0100
0001
,  // measure 90
0100
0001
1000
0000
0100
1000
0001
0000
,  // measure 91
0100
0010
0100
0010
1000
0000
0001
0010
,  // measure 92
0001
0010
1000
0000
0010
0001
1000
0000
,  // measure 93
1010
0000
0001
0100
0001
0000
0110
0000
,  // measure 94
1000
0001
0100
0000
0010
1000
0010
0100
,  // measure 95
0001
0010
1100
0010
,  // measure 96
0101
0000
1000
0000
0001
0010
0100
0000
,  // measure 97
0000
0000
1000
0001
0100
0000
0010
0000
,  // measure 98
1000
1100
0010
0101
,  // measure 99
1000
0001
0011
1000
,  // measure 100
1100
0000
0010
0000
0001
1000
0010
0000
,  // measure 101
0000
0000
0100
0001
0010
0000
0100
0000
,  // measure 102
1000
0010
1000
0010
0100
0001
0100
0001
,  // measure 103
1000
0100
1000
0100
0010
0000
0001
0100
,  // measure 104
0001
0100
0010
0000
1000
0001
1000
0000
,  // measure 105
0100
1000
0100
1000
0010
0000
0100
0001
,  // measure 106
0100
0011
0100
1001
,  // measure 107
1100
0000
0010
0001
0010
0000
0200
0000
,  // measure 108
0001
0000
1300
0000
1000
0010
1000
0010
,  // measure 109
0100
0001
0100
0001
0100
0001
0100
0001
,  // measure 110
1000
0100
1000
0100
0010
0001
1000
0010
,  // measure 111
1001
0000
0000
0000
;

//---------------dance-single - Blank----------------
#NOTES:
     dance-single:
     Blank:
     Hard:
     10:
     0.855,1.000,0.332,0.291,0.275,663.000,41.000,36.000,0.000,0.000,0.000,0.855,1.000,0.332,0.291,0.275,663.000,41.000,36.000,0.000,0.000,0.000: // measure 1
0000
0000
0000
0000
,  // measure 2
0000
0000
0000
0000
,  // measure 3
0001
0010
0100
1000
0100
1000
0001
0010
,  // measure 4
0000
1100
0000
0101
0000
0010
1000
0100
,  // measure 5
1000
0001
0100
0001
0010
0100
1000
0010
,  // measure 6
0000
0101
0000
1100
0000
0001
0010
0100
,  // measure 7
1001
0000
0000
0110
0000
0000
0011
0000
,  // measure 8
1100
0000
2100
0000
0000
3010
0001
0000
,  // measure 9
0010
1000
0010
1000
0001
0010
0001
0010
,  // measure 10
0100
1000
0100
1000
0001
0100
0001
0100
0020
0000
0000
0000
2030
0000
0000
0000
,  // measure 11
3100
0010
0001
0100
0001
0100
0010
0010
0000
1000
0100
1000
0000
0001
1000
0010
,  // measure 12
1000
0100
0010
0100
1000
0001
0100
0100
0000
0010
1000
0010
0010
0100
0001
1000
,  // measure 13
1100
0000
0000
0011
0000
0000
1100
0000
,  // measure 14
0101
0000
0021
0000
0000
1030
0000
1000
,  // measure 15
0010
0000
0000
0000
0000
0000
0000
0000
0000
0000
0000
0000
0000
0000
0000
0000
0001
0000
0000
0000
0000
0000
0000
0000
0100
0000
0000
0000
0000
0000
0000
0000
0000
0000
0000
0000
0000
0000
0000
0000
0010
0000
0000
0000
0000
0000
0000
0000
1000
0000
0000
0000
0001
0000
0000
0000
1000
0000
0000
0000
0001
0000
0000
0200
,  // measure 16
0001
0300
0100
0000
1000
0000
0100
0000
0001
0000
0010
0000
0100
0000
2000
0000
,  // measure 17
0000
0001
0001
3200
0000
0010
0010
1300
,  // measure 18
0010
0100
0001
1000
0100
0010
0001
0200
,  // measure 19
0000
0001
0001
0320
0001
0001
1000
1030
,  // measure 20
0001
0010
0001
1000
0010
0100
0001
1000
,  // measure 21
0000
0100
0010
0100
1000
0001
0100
0010
,  // measure 22
1001
0100
0010
1000
0001
0010
0100
1000
,  // measure 23
0001
0001
1000
1000
0000
0010
0010
0010
,  // measure 24
1000
0001
0010
0100
1000
0001
0100
0020
,  // measure 25
0000
1000
1000
0230
0000
0001
0001
0310
,  // measure 26
0100
0001
1000
0100
0010
0001
1000
0010
,  // measure 27
0000
0000
0100
0000
0001
0000
1000
0000
0100
1000
0100
0000
0010
0001
1000
0001
,  // measure 28
0100
0010
1000
0100
1000
0001
0100
0010
,  // measure 29
0000
1000
0001
0010
0100
1001
0100
1001
,  // measure 30
0100
0010
1000
0100
1000
0001
0100
0010
,  // measure 31
1001
0000
0000
0000
0000
0001
0010
0100
,  // measure 32
2000
0001
3100
2000
0010
3100
2000
0001
,  // measure 33
3100
2000
0010
3001
0001
1000
0010
1000
,  // measure 34
0002
0010
0103
0002
0010
1003
0002
0010
,  // measure 35
0203
0010
0301
1000
0010
0100
0010
1000
,  // measure 36
0002
0010
1003
0002
0100
1003
0002
0010
,  // measure 37
1003
0002
0100
1003
0010
0100
0010
0100
,  // measure 38
0020
0001
1030
0020
0100
0031
0010
1000
,  // measure 39
1001
0010
0010
0100
0000
1000
1000
0001
,  // measure 40
0001
1000
0001
0000
0100
0000
0010
0000
1000
0100
1000
0000
0001
0000
0010
0000
,  // measure 41
0001
0100
0001
0000
1000
0000
0010
0000
1000
0100
1000
0000
0001
0000
0100
0000
,  // measure 42
0010
1000
0010
0000
0100
0000
0001
0000
1000
0100
1000
0000
0001
0000
0010
0000
,  // measure 43
0100
0010
0100
0000
0010
0000
0001
0000
1000
0010
1000
0000
0001
0000
0010
0000
,  // measure 44
0100
1000
0100
0000
0010
0000
0001
0000
1000
0010
1000
0000
0001
0000
0100
0000
,  // measure 45
0010
0001
0010
0000
1000
0000
0100
0000
0010
1000
0010
0000
0001
0000
1000
0000
,  // measure 46
0100
0010
0100
0010
0001
1000
0001
1000
,  // measure 47
0010
0100
0010
0100
0010
0100
0010
0100
0001
0010
0001
0010
0100
1000
0100
1000
,  // measure 48
0010
0100
0000
0000
0010
0100
0000
0000
,  // measure 49
0001
0010
0000
0000
0001
0010
0000
0000
,  // measure 50
0100
1000
0000
0000
0100
1000
0000
0000
,  // measure 51
0001
1000
0000
0000
0001
1000
0000
0000
,  // measure 52
0010
0100
0100
0001
,  // measure 53
0001
1000
0100
1000
,  // measure 54
0010
0010
0100
0100
,  // measure 55
0001
1000
0100
0010
,  // measure 56
0001
0100
0000
0000
0001
0100
0000
0000
,  // measure 57
0010
1000
0000
0000
0010
1000
0000
0000
,  // measure 58
0100
0010
0000
0000
0100
0010
0000
0000
,  // measure 59
0001
0010
0000
0000
0001
0010
0000
0000
,  // measure 60
0100
1000
0100
0000
1000
0001
1000
0000
,  // measure 61
0001
0100
0001
0000
0100
0010
0100
0000
,  // measure 62
0010
1000
0001
0000
0100
0001
0010
0000
,  // measure 63
0100
1000
0001
0000
2002
0000
0000
0000
,  // measure 64
0000
3003
0200
0001
,  // measure 65
1000
0010
1000
0001
,  // measure 66
0010
0001
2300
0100
,  // measure 67
0010
0001
0100
0010
,  // measure 68
3002
0010
0203
0001
,  // measure 69
1000
0010
0001
1000
,  // measure 70
0302
0000
0010
0000
0103
0010
0100
0001
,  // measure 71
1000
0000
0100
0000
0010
0000
0001
0000
1000
0001
1000
0001
0100
0010
0100
0010
,  // measure 72
1000
0100
1000
0100
0010
0001
0010
0000
1001
0000
1000
0000
0001
0100
0000
0010
,  // measure 73
0000
1000
0000
0100
0000
1000
0001
0100
1010
0000
0000
1100
0000
0101
0000
0011
,  // measure 74
0100
0000
1000
0000
0001
1000
0001
0100
1010
0000
0000
0000
0000
0000
0101
0000
,  // measure 75
0000
1100
0101
1002
,  // measure 76
0000
0103
1000
0000
0100
0001
0100
0001
,  // measure 77
1000
0000
0100
0000
1000
0000
0100
0000
0010
0001
0010
0001
1000
0010
1000
0010
,  // measure 78
0200
0302
1003
0000
,  // measure 79
0100
1000
0010
0000
,  // measure 80
0101
0000
1100
0010
,  // measure 81
0000
0100
0001
0000
,  // measure 82
1000
0010
1000
0010
,  // measure 83
0100
0001
0010
0000
,  // measure 84
1100
0000
0101
0010
,  // measure 85
0000
1000
0100
1000
,  // measure 86
0010
0001
0010
1000
,  // measure 87
0100
0000
0010
0001
0010
0000
0100
0000
,  // measure 88
1000
0010
1000
0000
0001
0100
0001
0000
,  // measure 89
0010
0000
0001
1000
0001
0000
0100
0000
,  // measure 90
0010
1000
0010
0000
0100
0001
0100
0000
,  // measure 91
0010
0000
1000
0100
1000
0000
0001
0000
,  // measure 92
0010
0100
0010
0000
0001
1000
0001
0000
,  // measure 93
0101
0000
0010
1000
0010
0000
1000
0000
,  // measure 94
0000
0000
0001
0100
0001
0000
0010
0000
,  // measure 95
0001
0100
0010
0000
,  // measure 96
1100
0000
0101
0010
,  // measure 97
0000
0001
0100
0000
,  // measure 98
0010
1000
0010
1000
,  // measure 99
0100
0010
0001
0000
,  // measure 100
1100
0000
0101
0010
,  // measure 101
0000
1000
0001
0100
,  // measure 102
0010
1000
0010
0000
0100
0001
0100
0000
,  // measure 103
0010
0000
1000
0100
1000
0000
0001
0000
,  // measure 104
0100
0010
0100
0000
0001
0010
0001
0000
,  // measure 105
1000
0000
0100
0010
0100
0000
1000
0000
,  // measure 106
0001
0101
0010
0101
,  // measure 107
0010
1000
1000
0200
,  // measure 108
0000
0000
0310
0000
0001
1000
0010
0000
,  // measure 109
0100
0010
0100
0010
0100
0001
0100
0001
,  // measure 110
1000
0100
0010
0001
0100
0010
1000
0001
,  // measure 111
0100
0000
0000
0000
;

//---------------dance-single - Blank----------------
#NOTES:
     dance-single:
     Blank:
     Medium:
     7:
     0.551,0.623,0.194,0.081,0.028,443.000,24.000,10.000,0.000,0.000,0.000,0.551,0.623,0.194,0.081,0.028,443.000,24.000,10.000,0.000,0.000,0.000: // measure 1
0000
0000
0000
0000
,  // measure 2
0000
0000
0000
0000
,  // measure 3
0010
1000
0010
0000
0100
0000
0001
0010
,  // measure 4
0000
0100
0000
1000
0000
0001
0100
0000
,  // measure 5
0010
1000
0010
0000
0100
0000
0001
1000
,  // measure 6
0000
0100
0000
1000
0000
0010
0100
0000
,  // measure 7
1001
0000
0000
1100
0000
0000
0011
0000
,  // measure 8
0101
0000
0110
0000
0000
0100
0100
0000
,  // measure 9
0001
0010
0100
1000
,  // measure 10
0001
0100
0001
0100
0020
0000
2030
0000
,  // measure 11
3100
0000
0000
0000
,  // measure 12
0010
0000
0100
0000
0001
0000
0100
0010
,  // measure 13
1010
0000
0000
1100
0000
0000
0011
0000
,  // measure 14
1001
0000
1001
0000
0000
0010
0000
0010
,  // measure 15
0100
0000
0000
0000
0000
0000
0000
0000
0000
0000
0000
0000
0000
0000
0000
0000
0001
0000
0000
0000
0000
0000
0000
0000
1000
0000
0000
0000
0000
0000
0000
0000
0000
0000
0000
0000
0000
0000
0000
0000
0100
0000
0000
0000
0000
0000
0000
0000
0010
0000
0000
0000
0000
0000
0000
0000
0000
0000
0000
0000
0000
0000
0000
1001
,  // measure 16
0010
0100
0001
0010
,  // measure 17
0100
0000
0010
0000
0001
1000
0010
0100
,  // measure 18
0001
1000
0100
1000
,  // measure 19
0010
0000
0100
0000
0001
0010
0001
0100
,  // measure 20
0010
0000
1000
0000
0001
0000
0010
0100
,  // measure 21
0010
0000
0001
0000
1000
0000
0001
0100
,  // measure 22
0001
0000
0010
0000
0100
0000
1000
0010
,  // measure 23
0100
0001
0100
0001
0000
1000
0100
1000
,  // measure 24
0100
0010
0001
1000
,  // measure 25
0010
0000
0100
0000
0001
0010
0001
1000
,  // measure 26
0010
0100
0001
1000
,  // measure 27
0100
0000
1000
0000
0001
0100
0010
1000
,  // measure 28
0100
0000
0010
0000
0001
0000
1000
0010
,  // measure 29
1000
0000
0001
0000
0010
0000
0100
1000
,  // measure 30
0100
0010
0001
1000
,  // measure 31
0110
0000
0000
0000
0100
0001
0010
0100
,  // measure 32
1000
0001
0100
0010
,  // measure 33
1000
0001
0010
0100
,  // measure 34
1001
0100
0010
1000
,  // measure 35
0001
0010
0011
0100
,  // measure 36
1100
0001
1000
0010
,  // measure 37
0101
1000
0100
0010
,  // measure 38
0101
0010
1000
0001
,  // measure 39
0010
0100
0010
0100
0000
1000
0001
1000
,  // measure 40
0010
0000
0010
0100
0001
0000
0001
1000
,  // measure 41
0100
0000
0100
1000
0010
0000
0010
0100
,  // measure 42
0001
0000
0001
0010
0100
0000
0100
1000
,  // measure 43
0001
0001
0100
0010
,  // measure 44
1000
0000
1000
0100
0010
0000
0010
0001
,  // measure 45
0100
0000
0100
0010
1000
0000
1000
0100
,  // measure 46
0001
0000
0001
0100
0010
0000
0010
0001
,  // measure 47
1000
0001
1000
0010
0100
0001
1000
0010
,  // measure 48
0100
0000
0100
0000
,  // measure 49
0010
0000
0010
0000
,  // measure 50
1000
0000
0001
0000
,  // measure 51
1000
0000
0001
0000
,  // measure 52
0010
0001
1000
0001
,  // measure 53
0100
0001
1000
0010
,  // measure 54
0010
0100
0001
0100
,  // measure 55
1000
0100
0010
0100
,  // measure 56
0001
0000
0001
0000
,  // measure 57
1000
0000
1000
0000
,  // measure 58
0010
0000
0100
0000
,  // measure 59
0010
0000
0100
0000
,  // measure 60
0001
0010
0001
0010
,  // measure 61
0100
1000
0100
1000
,  // measure 62
0001
0100
0010
1000
,  // measure 63
0001
0010
2002
0000
,  // measure 64
0000
3003
0020
1000
,  // measure 65
0001
0100
0001
1000
,  // measure 66
0100
0001
2030
0100
,  // measure 67
0001
0010
0100
0001
,  // measure 68
0100
0010
3200
0001
,  // measure 69
1000
0010
1000
0001
,  // measure 70
0010
1000
1300
0001
,  // measure 71
0100
0000
0010
0000
1000
0001
1000
0001
,  // measure 72
0010
0000
0100
0000
1000
0000
0001
0000
0100
0000
0000
0000
0001
0000
0000
0010
,  // measure 73
0000
0001
0000
1000
0000
0000
0010
0000
0100
0000
0000
0001
0000
0001
0000
0001
,  // measure 74
0000
1000
0100
0010
1100
0000
0000
0011
,  // measure 75
0000
0101
1001
1001
,  // measure 76
0000
0010
0010
0000
1000
0000
0010
0000
,  // measure 77
0100
0000
0001
0000
1000
0100
1000
0100
,  // measure 78
0020
0032
0103
0000
,  // measure 79
0001
0010
0100
0000
,  // measure 80
1000
0000
0001
0100
,  // measure 81
0000
0010
0100
0000
,  // measure 82
0001
0010
0100
1000
,  // measure 83
0001
0100
0010
0000
,  // measure 84
1000
0000
0100
1000
,  // measure 85
0000
0010
0100
0000
,  // measure 86
0001
0010
0100
1000
,  // measure 87
0001
0100
0001
1000
,  // measure 88
0100
1000
0010
0100
,  // measure 89
0001
1000
0001
0100
,  // measure 90
1000
0100
0010
1000
,  // measure 91
0001
0010
0001
1000
,  // measure 92
0010
1000
0001
0100
,  // measure 93
0010
1000
0010
1000
,  // measure 94
0000
0001
0010
0100
,  // measure 95
1000
0010
0100
0000
,  // measure 96
0001
0000
0010
0100
,  // measure 97
0000
1000
0001
0000
,  // measure 98
0100
0010
0100
0010
,  // measure 99
1000
0100
1000
0000
,  // measure 100
0001
0000
0010
0100
,  // measure 101
0000
1000
0001
0000
,  // measure 102
0100
0010
1000
0001
,  // measure 103
0010
0100
0010
0001
,  // measure 104
1000
0001
0100
0010
,  // measure 105
1000
0100
1000
0001
,  // measure 106
0100
0100
0001
1000
,  // measure 107
0010
0100
0010
1000
,  // measure 108
0100
1000
0001
0100
,  // measure 109
0010
1000
0001
0010
,  // measure 110
0200
0000
0000
0300
,  // measure 111
1001
0000
0000
0000
;

//---------------dance-single - Blank----------------
#NOTES:
     dance-single:
     Blank:
     Easy:
     5:
     0.360,0.534,0.154,0.105,0.004,280.000,19.000,13.000,0.000,0.000,0.000,0.360,0.534,0.154,0.105,0.004,280.000,19.000,13.000,0.000,0.000,0.000: // measure 1
0000
0000
0000
0000
,  // measure 2
0000
0000
0000
0000
,  // measure 3
0001
0000
1000
0000
0010
0000
0000
0100
,  // measure 4
0000
0001
0000
1000
0000
0000
0100
0000
,  // measure 5
1000
0000
0001
0000
0100
0000
0000
0010
,  // measure 6
0000
1000
0000
0001
0000
0000
0010
0000
,  // measure 7
1001
0000
0000
0110
0000
0000
1001
0000
,  // measure 8
1100
0101
0000
1001
,  // measure 9
0100
0100
0010
0010
,  // measure 10
1000
0001
0020
0230
,  // measure 11
1300
0000
0001
0000
,  // measure 12
0100
0000
0010
0000
,  // measure 13
0110
0000
0000
1001
0000
0000
0110
0000
,  // measure 14
0011
1010
0000
0100
,  // measure 15
0001
0000
0000
0000
0000
0000
0000
0000
0000
0000
0000
0000
0000
0000
0000
0000
1000
0000
0000
0000
0000
0000
0000
0000
0000
0000
0000
0000
0000
0000
0000
0000
0020
0000
0000
0000
0000
0000
0000
0000
0000
0000
0000
0000
0000
0000
0000
0000
0230
0000
0000
0000
0000
0000
0000
0000
0000
0000
0000
0000
0000
0000
0000
0301
,  // measure 16
0000
1000
1000
1000
,  // measure 17
0010
0100
0001
1000
,  // measure 18
0000
0100
0100
0100
,  // measure 19
0010
0001
1000
0010
,  // measure 20
0000
0100
0100
0100
,  // measure 21
0000
0010
0010
0010
,  // measure 22
0000
1000
1000
1000
,  // measure 23
0001
0010
0100
1000
,  // measure 24
0000
0001
0001
0001
,  // measure 25
0100
0010
1000
0001
,  // measure 26
0000
1000
1000
1000
,  // measure 27
0001
0010
0100
1000
,  // measure 28
0000
0001
0001
0001
,  // measure 29
0000
1000
1000
1000
,  // measure 30
0000
0010
0010
0010
,  // measure 31
0100
0000
0000
1001
,  // measure 32
0100
0000
0100
0000
,  // measure 33
0100
0000
0010
0001
,  // measure 34
1000
0000
1000
0000
,  // measure 35
1000
0000
0010
0100
,  // measure 36
0001
0000
0001
0000
,  // measure 37
0001
0000
0001
1000
,  // measure 38
0010
0000
0010
0000
,  // measure 39
0010
0000
1001
0010
,  // measure 40
0100
0000
0000
0010
0100
0000
0000
0010
,  // measure 41
0100
0000
0000
0010
0100
0000
0000
0000
,  // measure 42
1000
0000
0000
0001
1000
0000
0000
0001
,  // measure 43
1000
0000
0000
0001
1000
0000
0000
0000
,  // measure 44
0010
0000
0000
0100
0001
0000
0000
0100
,  // measure 45
0001
0000
0000
0100
0001
0000
0000
0000
,  // measure 46
0010
0000
0000
0100
1000
0000
0000
0100
,  // measure 47
1000
0000
0001
0100
,  // measure 48
0010
0000
0010
0000
,  // measure 49
0010
0000
0010
0000
,  // measure 50
0100
0001
0100
0000
,  // measure 51
0010
1000
0010
0000
,  // measure 52
1000
0000
1000
0000
,  // measure 53
1000
0000
1000
0000
,  // measure 54
0100
0010
0001
0000
,  // measure 55
1000
0010
0100
0000
,  // measure 56
0001
0000
0001
0000
,  // measure 57
0001
0000
0001
0000
,  // measure 58
1000
0010
1000
0000
,  // measure 59
0001
0100
0001
0000
,  // measure 60
1000
0000
1000
0000
,  // measure 61
1000
0000
1000
0000
,  // measure 62
0100
0010
0001
0000
,  // measure 63
1000
0000
0020
0000
,  // measure 64
0000
0030
0200
0000
,  // measure 65
0000
0000
0000
0000
,  // measure 66
0000
0000
0302
0000
,  // measure 67
0000
0000
0000
0000
,  // measure 68
2003
0000
3020
0000
,  // measure 69
0000
0000
2030
0000
,  // measure 70
0000
0000
3002
0000
,  // measure 71
0000
0000
1003
0100
,  // measure 72
0010
0001
1000
0000
,  // measure 73
0010
0000
0100
0000
0001
0000
1000
1000
,  // measure 74
1000
0000
0100
0000
0011
0000
0000
1100
,  // measure 75
0000
0011
1001
0110
,  // measure 76
0000
0100
0001
0010
,  // measure 77
0100
1000
0001
1000
,  // measure 78
0020
0230
0301
0000
,  // measure 79
0010
0000
0100
0000
,  // measure 80
1000
0000
0000
0000
,  // measure 81
0001
0000
0010
0000
,  // measure 82
0100
0000
1000
0000
,  // measure 83
0001
0000
0100
0000
,  // measure 84
0010
0000
0000
0000
,  // measure 85
1000
0000
0010
0000
,  // measure 86
0100
0000
0001
0000
,  // measure 87
0010
0000
0010
0000
,  // measure 88
0100
0000
0010
0000
,  // measure 89
0001
0000
0001
0000
,  // measure 90
1000
0000
0001
0000
,  // measure 91
0100
0000
0100
0000
,  // measure 92
0010
0000
0100
0000
,  // measure 93
0001
1000
0001
0000
,  // measure 94
0100
0010
0100
0000
,  // measure 95
0001
0000
0010
0000
,  // measure 96
0001
0000
0000
0000
,  // measure 97
1000
0000
0001
0000
,  // measure 98
0100
0000
0010
0000
,  // measure 99
1000
0000
0001
0000
,  // measure 100
1000
0000
0000
0000
,  // measure 101
0010
0000
0100
0000
,  // measure 102
0001
0000
0010
0000
,  // measure 103
0100
0000
0100
0000
,  // measure 104
0010
0000
0100
0000
,  // measure 105
1000
0000
1000
0000
,  // measure 106
0010
0000
1000
0000
,  // measure 107
0001
0000
0001
0000
,  // measure 108
0010
0000
0001
0000
,  // measure 109
1000
0000
0010
0000
,  // measure 110
1000
0001
0100
0010
,  // measure 111
1001
0000
0000
0000
;
