#TITLE:DESIRE;
#SUBTITLE:;
#ARTIST:M-Project fw. GUHROOVY;
#TITLETRANSLIT:;
#SUBTITLETRANSLIT:;
#ARTISTTRANSLIT:;
#CREDIT:;
#BANNER:DESIRE-bn.png;
#BACKGROUND:DESIRE-bg.png;
#LYRICSPATH:;
#CDTITLE:;
#MUSIC:DESIRE.mp3;
#OFFSET:-0.680;
#SAMPLESTART:66.500;
#SAMPLELENGTH:12.000;
#SELECTABLE:YES;
#DISPLAYBPM:175.000;
#BPMS:0.000=175.000,24.000=87.500,27.000=175.000,58.000=350.001,60.000=175.000,61.000=350.001,63.000=175.000,78.000=87.500,78.500=175.000,85.000=350.001,87.000=175.000,153.000=350.001,159.000=175.000,220.000=350.001,228.000=175.000,256.000=87.500,259.000=175.000,289.000=87.500,290.000=175.000;
#STOPS:91.500=0.171
,91.750=0.171
,92.000=0.086
,92.250=0.166
,92.500=0.166
,92.750=0.085
;
#BGCHANGES:;

//---------------dance-single - ----------------
#NOTES:
     dance-single:
     :
     Hard:
     9:
     0.689,0.817,0.294,0.185,0.517: // measure 1
0000
0000
0000
0000
,  // measure 2
0000
0000
0000
0000
,  // measure 3
0000
0000
0000
0000
,  // measure 4
0000
0000
0000
0000
,  // measure 5
1000
0000
0010
0100
0000
0000
0001
0000
1000
0000
0010
0000
0100
0000
0000
0000
,  // measure 6
0001
0110
1000
0101
,  // measure 7
1000
0000
0000
0010
0000
0000
2000
0000
3002
0000
2003
0000
3200
0000
0000
0000
,  // measure 8
1300
0001
0000
0100
0000
0010
0000
1000
,  // measure 9
0001
0000
1000
0010
0000
0100
0010
0000
,  // measure 10
0001
0000
0010
0100
0000
0001
0000
1000
,  // measure 11
0010
0000
0100
0000
1000
0001
0100
0000
,  // measure 12
0001
1000
0010
0100
0000
0001
0000
0100
,  // measure 13
0010
0000
0100
1000
0000
0010
0100
0000
,  // measure 14
0001
0000
0100
0010
0000
1000
0000
0010
,  // measure 15
0100
0000
0000
0000
0100
0010
0100
0010
2000
0000
0000
0000
0000
0000
0000
0000
,  // measure 16
3100
0020
0000
1030
,  // measure 17
0100
0001
0000
0010
0100
0000
0001
0000
,  // measure 18
1000
0010
0100
0000
0001
0000
0100
0000
,  // measure 19
1000
0001
0000
0010
0100
0000
0001
0000
,  // measure 20
0100
0000
0001
0000
1000
0000
0000
0000
1000
0001
0010
0000
0000
0000
0001
0000
,  // measure 21
0100
0000
0001
1000
0010
0100
0000
0001
,  // measure 22
1000
0100
0020
0000
0000
0000
0031
0100
,  // measure 23
0000
0000
0010
0000
0001
0000
0000
0000
0100
0000
0010
0000
0000
0000
1100
0110
,  // measure 24
1001
1010
1001
1100
0001
0000
1000
0000
0001
1000
0000
0001
1000
0000
0001
1000
,  // measure 25
0000
0001
1000
0000
0100
0000
0010
0000
0100
0010
0000
0100
0010
0000
0100
0010
,  // measure 26
0000
0100
0010
0000
0001
0000
0010
0000
0001
0010
0000
0001
0010
0000
0001
0010
,  // measure 27
0000
0001
0010
0000
0100
0000
1000
0000
0100
1000
0000
0100
1000
0000
0100
1000
,  // measure 28
0000
0100
1000
0000
0001
0000
0100
0000
0001
0100
0000
0010
1000
0000
0001
0100
,  // measure 29
0000
0010
1000
0000
0001
0000
0010
0000
0001
0010
0000
0100
1000
0000
0001
0010
,  // measure 30
0000
0100
1000
0000
0010
0000
0100
0000
0010
0100
0000
0001
1000
0000
0010
0100
,  // measure 31
0000
0001
1000
0000
0010
0000
0001
0000
0010
0001
0000
1000
0100
0000
0010
0001
,  // measure 32
0000
1000
0100
0000
0010
0000
0000
0000
0001
0000
0010
0000
0000
0000
1000
0000
,  // measure 33
0100
0000
0000
0000
1000
0000
0010
0000
0100
0001
0000
0010
1000
0000
0100
0010
,  // measure 34
0000
1000
0001
0000
0010
0000
0000
0000
0100
0000
1000
0000
0000
0000
0001
0000
,  // measure 35
0100
0000
0000
0000
0001
0000
0010
0000
0100
0010
0000
0001
0100
0000
0010
1000
,  // measure 36
0000
0100
0001
0000
0010
0000
0000
0000
1000
0000
0100
0000
0000
0000
0010
0000
,  // measure 37
0100
0000
0000
0000
1000
0000
0100
0000
1000
0010
0000
0100
0010
0000
1000
0100
,  // measure 38
0000
0010
0100
0000
0001
0000
0000
0000
0100
0000
0010
0000
0000
0000
0001
0000
,  // measure 39
0100
0002
0000
0000
,  // measure 40
0000
0000
0000
1003
,  // measure 41
2000
0000
0001
0000
0001
0000
0000
0001
0000
0000
0001
0000
0000
0001
0000
0000
,  // measure 42
3020
0000
0100
0000
0100
0000
0000
0100
0000
0000
0100
0000
0000
0100
0000
0000
,  // measure 43
2030
0000
0100
0000
0100
0000
0000
0100
0000
0000
0100
0000
0000
0100
0000
0000
,  // measure 44
3002
0010
0010
0000
2003
0000
3200
0000
,  // measure 45
0320
0000
0100
0000
0100
0000
0000
0100
0000
0000
0100
0000
0000
0100
0000
0000
,  // measure 46
0032
0000
1000
0000
1000
0000
0000
1000
0000
0000
1000
0000
0000
1000
0000
0000
,  // measure 47
0203
0000
0010
0000
0010
0000
0000
0010
0000
0000
0010
0000
0000
0010
0000
0000
,  // measure 48
0302
0000
0010
0000
0010
0000
0000
0010
0000
0000
0010
0000
0000
0010
0003
0000
,  // measure 49
1001
0010
0101
1000
,  // measure 50
1100
0000
0000
0000
0011
0000
0000
0000
1100
0000
0000
0010
0100
0000
0001
0000
,  // measure 51
1000
0000
0000
0000
0010
0000
0100
0000
1000
0000
0000
1000
0010
0000
0100
0000
,  // measure 52
0001
0000
0100
0010
1000
0100
0010
0001
,  // measure 53
0101
0010
1001
0100
,  // measure 54
0011
0000
0000
0000
1100
0000
0000
0000
0110
0000
0000
0100
0010
0000
1000
0000
,  // measure 55
0001
0000
0100
0010
1000
0000
0010
0100
,  // measure 56
0002
0000
0000
0000
,  // measure 57
0000
0000
0000
0000
,  // measure 58
1003
0000
0000
0000
0010
0100
0010
0000
1000
0000
0000
0100
0010
0000
0000
0000
,  // measure 59
1100
0000
0000
0000
0010
1000
0010
0000
0100
0000
0000
0010
1000
0000
0000
0000
,  // measure 60
0101
0000
0000
0000
0010
0100
0010
0000
0001
0000
0000
1000
0100
0000
0000
0000
,  // measure 61
0110
0000
0000
0000
1000
0010
1000
0000
0100
0000
0000
0010
0001
0000
0000
0000
,  // measure 62
1010
0000
0000
0000
0100
1000
0100
0000
1001
0000
0000
0000
0010
0100
0010
0000
,  // measure 63
1100
0000
0000
0000
0001
0010
0001
0000
1010
0000
0000
0000
0100
0001
0100
0000
,  // measure 64
0010
0100
0010
0000
0001
0100
0001
0000
1000
0100
1000
0000
0010
0100
0010
0000
,  // measure 65
0002
0000
0000
0000
0000
0000
0000
0000
0103
0001
0000
1000
0001
0100
0001
0000
,  // measure 66
0100
0010
0100
0000
0001
0000
0000
0000
1000
0100
1000
0000
0010
0000
0000
0100
,  // measure 67
0001
0000
0000
1000
0010
0000
0000
0000
0100
0001
0100
0001
0010
0000
0000
1000
,  // measure 68
0001
0000
1000
0000
0010
0000
0000
0000
1000
0100
1000
0000
0010
0000
0000
0100
,  // measure 69
0001
0000
0000
1000
0010
0000
0100
0000
0001
1000
0001
0000
0010
0100
0010
0000
,  // measure 70
0001
0100
0001
0000
0010
0000
0000
0000
0010
0100
0010
0000
1000
0000
0000
0100
,  // measure 71
0001
0000
0000
1000
0010
0000
0000
0000
1000
0100
1000
0100
0010
0000
0000
1000
,  // measure 72
0001
0000
0100
0000
0010
0000
0000
0000
0100
0001
0100
0000
0010
0000
0000
1000
,  // measure 73
0010
0000
0100
0000
0001
1000
0100
0010
0002
0000
0000
0000
2003
0000
0000
0000
,  // measure 74
3010
0100
1001
0010
,  // measure 75
0101
0000
0000
0000
1100
0000
0000
0000
1001
0000
0000
0010
0100
0000
0001
0000
,  // measure 76
1000
0000
0000
0000
0010
0100
0010
0000
1000
0000
0000
0001
0100
0000
0010
0000
,  // measure 77
1000
0000
0001
0000
0100
0010
0100
0000
1000
0001
1000
0000
0010
0001
0010
0000
,  // measure 78
1100
0010
0101
1000
,  // measure 79
0011
0000
0000
0000
1001
0000
0000
0000
0101
0000
0000
0010
0100
0000
0001
0000
,  // measure 80
1000
0000
0000
0000
0010
0100
0010
0000
1000
0000
0000
0000
0100
0001
0100
0000
,  // measure 81
0010
0000
0100
0000
0001
1000
0001
0000
1000
0100
1000
0000
0100
0010
0100
0000
,  // measure 82
1001
0000
0000
0000
;

//---------------dance-single - ----------------
#NOTES:
     dance-single:
     :
     Medium:
     7:
     0.505,0.579,0.227,0.185,0.176: // measure 1
0000
0000
0000
0000
,  // measure 2
0000
0000
0000
0000
,  // measure 3
0000
0000
0000
0000
,  // measure 4
0000
0000
0000
0000
,  // measure 5
0100
0000
0010
0000
1000
0001
0010
0000
,  // measure 6
0001
0100
0010
1000
,  // measure 7
0010
0000
0000
1000
0000
0000
0002
0000
0203
0000
0320
0000
2030
0000
0000
0000
,  // measure 8
3000
0001
0000
0100
0000
0010
0000
1000
,  // measure 9
0100
0000
0000
0001
0000
0100
0010
0000
,  // measure 10
1000
0000
0000
0100
0000
0001
0000
1000
,  // measure 11
0010
0000
1000
0000
0000
0100
0001
0000
,  // measure 12
0000
0000
0000
0100
0000
0001
0000
1000
,  // measure 13
0010
0000
0000
1000
0000
0010
0100
0000
,  // measure 14
0001
0000
0000
0010
0000
1000
0000
0001
,  // measure 15
0100
0000
0010
0100
0002
0000
0000
0000
,  // measure 16
1003
0020
0000
0130
,  // measure 17
0000
0001
0000
1000
0010
0000
0100
0000
,  // measure 18
0000
0001
1000
0000
0100
0000
0001
0000
,  // measure 19
0000
0100
0000
0010
0100
0000
0001
0000
,  // measure 20
0000
0000
1000
0000
0010
0000
0000
0000
0100
0010
0100
0000
0000
0000
0000
0000
,  // measure 21
0001
0000
1000
0010
1000
0100
0000
0000
,  // measure 22
0001
1000
0020
0000
0000
0000
0030
0100
,  // measure 23
0000
0000
0000
0000
0001
0000
0000
0000
0100
0000
0010
0000
0000
0000
1000
0001
,  // measure 24
1000
0010
0100
0010
1000
0000
0001
0000
1000
0000
0000
0001
0000
0000
1000
0000
,  // measure 25
0000
0001
0000
0000
0100
0000
0010
0000
0100
0000
0000
0010
0000
0000
0100
0000
,  // measure 26
0000
0010
0000
0000
1000
0000
0100
0000
1000
0000
0000
0100
0000
0000
1000
0000
,  // measure 27
0000
0100
0000
0000
0010
0000
0001
0000
0010
0000
0000
0001
0000
0000
0010
0000
,  // measure 28
0000
0001
0000
0000
1000
0000
0100
0000
1000
0000
0000
0100
0000
0000
0010
0000
,  // measure 29
0000
0001
0000
0000
0010
0000
0100
0000
0010
0000
0000
0100
0000
0000
1000
0000
,  // measure 30
0000
0001
0000
0000
0010
0000
0001
0000
0010
0000
0000
0001
0000
0000
1000
0000
,  // measure 31
0100
0000
0000
0000
1000
0000
0100
0000
1000
0000
0000
0100
0000
0000
0010
0000
,  // measure 32
0000
0001
0000
0000
0010
0000
0000
0000
0100
0000
0010
0000
0000
0000
1000
0000
,  // measure 33
0100
0000
0000
0000
0001
0000
0100
0000
0010
0000
0000
1000
0000
0000
0100
0000
,  // measure 34
0000
0010
0000
0000
1000
0000
0000
0000
0010
0000
0100
0000
0000
0000
0001
0000
,  // measure 35
0010
0000
0000
0000
0100
0000
0010
0000
1000
0000
0000
0100
0000
0000
0010
0000
,  // measure 36
0000
0100
0000
0000
1000
0000
0000
0000
0010
0000
0100
0000
0000
0000
0001
0000
,  // measure 37
0010
0000
0000
0000
0001
0000
0100
0000
0010
0000
0000
1000
0000
0000
0100
0000
,  // measure 38
0000
0010
0000
0000
1000
0000
0000
0000
0010
0000
0100
0000
0000
0000
0001
0000
,  // measure 39
1000
0200
0000
0000
,  // measure 40
0000
0000
0000
0000
0000
0000
0000
0000
0000
0000
0000
0000
0000
0000
0000
0000
0000
0000
0000
0000
0000
0000
0000
0000
0000
0000
0000
0000
0000
0000
0000
0000
0000
0000
0000
0000
0000
0000
0000
0000
0000
0000
0000
0000
0000
0000
0000
0000
0000
0000
0000
0000
0000
0000
0000
0000
0000
0000
0000
0000
0000
0000
0000
0000
0000
0000
0000
0000
0000
0000
0000
0000
0000
0000
0000
0000
0000
0000
0000
0000
0000
0000
0000
0000
0000
0000
0000
0000
0000
0000
0000
0000
0000
0000
0000
0000
0000
0000
0000
0000
0000
0000
0000
0000
0000
0000
0000
0000
0000
0000
0000
0000
0000
0000
0000
0000
0000
0000
0000
0000
0000
0000
0000
0000
0000
0000
0000
0000
0000
0000
0000
0000
0000
0000
0000
0000
0000
0000
0000
0000
0000
0000
0000
0000
0010
0300
0000
0000
0000
0000
0000
0000
0000
0000
0000
0000
0000
0000
0000
0000
0000
0000
0000
0000
0000
0000
0000
0000
0000
0000
0000
0000
0000
0000
0000
0000
0000
0000
0000
0000
0000
0000
0000
0000
0000
0000
0000
0000
0000
0000
0000
0000
,  // measure 41
0002
0000
0000
0000
0100
0000
0000
0100
0000
0000
0100
0000
0000
0100
0000
0000
,  // measure 42
2003
0000
0000
0000
0001
0000
0000
0001
0000
0000
0001
0000
0000
0001
0000
0000
,  // measure 43
3020
0000
0000
0000
1000
0000
0000
1000
0000
0000
1000
0000
0000
1000
0000
0000
,  // measure 44
0230
0010
0302
2003
,  // measure 45
3200
0000
0000
0000
1000
0000
0000
1000
0000
0000
1000
0000
0000
1000
0000
0000
,  // measure 46
0320
0000
0000
0000
0100
0000
0000
0100
0000
0000
0100
0000
0000
0100
0000
0000
,  // measure 47
0032
0000
0000
0000
0100
0000
0000
0100
0000
0000
0100
0000
0000
0100
0000
0000
,  // measure 48
2003
0000
0000
0000
0010
0000
0000
0010
0000
0000
0010
0000
0000
3010
0000
0000
,  // measure 49
1010
0100
0101
1000
,  // measure 50
0110
1001
1100
0001
,  // measure 51
1000
0000
0010
0100
0001
0000
1000
0000
,  // measure 52
0010
0000
0001
0100
0010
1000
0100
0000
,  // measure 53
1001
0100
1010
0001
,  // measure 54
0011
0110
1010
0001
,  // measure 55
1000
0000
0010
0100
0001
0000
1000
0000
,  // measure 56
0020
0000
0000
0000
,  // measure 57
0000
0000
0000
0000
,  // measure 58
1030
0000
0001
0100
0010
0000
1000
0000
,  // measure 59
0101
0000
1000
0100
0010
0000
0001
0000
,  // measure 60
1100
0000
0001
1000
0010
0000
0100
0000
,  // measure 61
1001
0000
0100
1000
0100
0000
0001
0000
,  // measure 62
0110
0000
0001
1000
1001
0000
0100
0001
,  // measure 63
0101
0000
0100
1000
1100
0000
0001
0100
,  // measure 64
0010
1000
0100
0010
0001
0100
0010
1000
,  // measure 65
0002
0000
0000
0000
0000
0000
0000
0000
0103
0010
0000
0100
0001
0000
1000
0000
,  // measure 66
0001
0010
0100
0000
0001
1000
0010
0000
,  // measure 67
0100
0000
0001
0000
1000
0100
0010
0000
,  // measure 68
0001
0100
0010
0000
1000
0001
0010
0000
,  // measure 69
0001
0000
1000
0000
0001
0100
0010
1000
,  // measure 70
0100
0000
1000
0000
0001
0100
0010
0000
,  // measure 71
1000
0000
0001
0000
0010
0100
1000
0000
,  // measure 72
0001
0000
0100
0000
0001
1000
0010
0000
,  // measure 73
0100
0000
0001
1000
0020
0000
0230
0000
,  // measure 74
0301
1000
0110
1000
,  // measure 75
0011
1100
0110
1000
,  // measure 76
0001
0000
0100
0010
1000
0000
0001
0000
,  // measure 77
0010
0000
0001
0100
0010
1000
0100
0000
,  // measure 78
1001
0100
0011
1000
,  // measure 79
0110
1100
0011
0100
,  // measure 80
0001
0000
1000
0010
0100
0000
0001
0000
,  // measure 81
1000
0000
0001
0100
0010
1000
0100
0000
,  // measure 82
1001
0000
0000
0000
;

//---------------dance-single - ----------------
#NOTES:
     dance-single:
     :
     Easy:
     5:
     0.395,0.511,0.202,0.462,0.004: // measure 1
0000
0000
0000
0000
,  // measure 2
0000
0000
0000
0000
,  // measure 3
0000
0000
0000
0000
,  // measure 4
0000
0000
0000
0000
,  // measure 5
0001
0100
0001
1000
,  // measure 6
0000
0010
0000
0100
,  // measure 7
0001
0000
0000
0200
0320
2030
3002
0000
,  // measure 8
0003
1000
0000
0010
0000
0100
0000
0001
,  // measure 9
0000
0000
0000
1000
0000
0001
0000
0000
,  // measure 10
0100
0000
0000
0010
0000
1000
0000
0010
,  // measure 11
0000
0000
0100
0000
0000
0001
0000
0000
,  // measure 12
0000
0000
0000
0100
0000
0001
0000
1000
,  // measure 13
0000
0000
0000
0010
0000
0100
0000
0000
,  // measure 14
0010
0000
0000
0100
0000
0001
0000
1000
,  // measure 15
0000
0010
2000
0000
,  // measure 16
3001
0200
0000
0310
,  // measure 17
0000
0001
0000
0100
0000
0000
0001
0000
,  // measure 18
0000
1000
0000
0000
0010
0000
1000
0000
,  // measure 19
0000
0100
0000
0010
0000
0000
1000
0000
,  // measure 20
0000
0010
0000
0000
0100
0010
0000
0000
,  // measure 21
0001
0000
1000
0000
0000
0010
0000
0000
,  // measure 22
1000
0000
0020
0000
0000
0000
0030
0100
,  // measure 23
0000
0000
0001
0000
1000
0000
0000
0010
,  // measure 24
0000
0100
0000
0000
0001
0000
0000
0000
1000
0000
0000
0000
0001
0000
0000
0000
,  // measure 25
0000
0100
0010
0100
,  // measure 26
0000
0100
1000
0100
,  // measure 27
0000
0010
0001
0010
,  // measure 28
0000
0001
0100
0010
,  // measure 29
0000
1000
0001
0010
,  // measure 30
0000
0001
0100
0010
,  // measure 31
0000
1000
0100
0010
,  // measure 32
0000
0000
0001
0000
1000
0000
0000
0010
,  // measure 33
0000
0001
1000
0010
,  // measure 34
0100
0000
0001
0000
1000
0000
0000
0010
,  // measure 35
0000
1000
0001
0100
,  // measure 36
0010
0000
1000
0000
0001
0000
0000
0100
,  // measure 37
0000
0001
1000
0100
,  // measure 38
0010
0000
0001
0000
0100
0000
0000
0010
,  // measure 39
0000
2000
0000
0000
,  // measure 40
0000
0000
0000
3010
,  // measure 41
0002
1000
0000
1000
,  // measure 42
0203
0010
0000
0010
,  // measure 43
0302
1000
0000
1000
,  // measure 44
0023
0100
0032
2003
,  // measure 45
3020
0100
0000
0100
,  // measure 46
2030
0001
0000
0001
,  // measure 47
3020
1000
0000
1000
,  // measure 48
0230
0000
0010
0300
,  // measure 49
1010
0000
0101
0000
,  // measure 50
0110
1100
0110
0001
,  // measure 51
1000
0002
0103
0010
,  // measure 52
1000
0002
0023
0130
,  // measure 53
1010
0000
0110
0000
,  // measure 54
1100
0110
1100
0001
,  // measure 55
1000
0020
1030
0001
,  // measure 56
0200
0000
0000
0000
,  // measure 57
0000
0000
0000
0000
,  // measure 58
0310
2000
3001
0100
,  // measure 59
1001
0002
0103
1000
,  // measure 60
0110
2000
3001
0100
,  // measure 61
0101
2000
3100
0010
,  // measure 62
1100
0002
0103
2000
,  // measure 63
3100
0020
0031
0200
,  // measure 64
0320
2030
3002
0203
,  // measure 65
0320
0000
0130
0002
,  // measure 66
2003
3010
0200
0301
,  // measure 67
1000
0100
0020
0031
,  // measure 68
0100
0010
2000
3001
,  // measure 69
0010
0001
0200
0320
,  // measure 70
2030
3001
0200
0301
,  // measure 71
1000
0010
0200
0301
,  // measure 72
1000
0001
0020
0130
,  // measure 73
1000
0001
0200
0320
,  // measure 74
1030
0000
0101
0000
,  // measure 75
0011
0110
0011
1000
,  // measure 76
0001
0200
0310
1000
,  // measure 77
0100
0020
0230
1300
,  // measure 78
0101
0000
0110
0000
,  // measure 79
1010
1001
1010
0100
,  // measure 80
0001
2000
3010
0100
,  // measure 81
0001
2000
3200
0310
,  // measure 82
1001
0000
0000
0000
;
