#TITLE:Blueberry Stream;
#SUBTITLE:;
#ARTIST:dj TAKA;
#TITLETRANSLIT:;
#SUBTITLETRANSLIT:;
#ARTISTTRANSLIT:;
#CREDIT:348;
#BANNER:Blueberry Stream Banner.png;
#BACKGROUND:Blueberry Stream Background.png;
#LYRICSPATH:;
#CDTITLE:;
#MUSIC:Blueberry Stream.mp3;
#OFFSET:-0.418;
#SAMPLESTART:14.330;
#SAMPLELENGTH:15.000;
#SELECTABLE:YES;
#BPMS:0.000=138.000;
#STOPS:;
#BGCHANGES:;

//---------------dance-single - ----------------
#NOTES:
     dance-single:
     :
     Beginner:
     1:
     0.102,0.134,0.000,0.000,0.000: // measure 1
0000
0000
0000
0000
,  // measure 2
0000
0000
0000
0000
,  // measure 3
0000
0000
0000
0000
,  // measure 4
0000
0000
0000
0000
,  // measure 5
1000
0000
0000
0000
,  // measure 6
1000
0000
0000
0000
,  // measure 7
0001
0000
0000
0000
,  // measure 8
0001
0000
0000
0000
,  // measure 9
1000
0000
0000
0000
,  // measure 10
0100
0000
1000
0000
,  // measure 11
0001
0000
0000
0000
,  // measure 12
0010
0000
0001
0000
,  // measure 13
0100
0000
0000
0010
,  // measure 14
0010
0000
0000
0100
,  // measure 15
0100
0000
0000
0000
,  // measure 16
0010
0000
0100
0000
,  // measure 17
0010
0000
0000
0000
,  // measure 18
1000
1000
0000
0000
,  // measure 19
0001
0000
0000
0000
,  // measure 20
0100
0100
0000
0000
,  // measure 21
0001
0000
0001
0000
,  // measure 22
1000
0000
1000
0000
,  // measure 23
0010
0000
0100
0000
,  // measure 24
0010
0000
0000
0000
,  // measure 25
0100
0000
0000
0000
,  // measure 26
0000
0000
0000
0000
,  // measure 27
0001
0000
0000
0000
,  // measure 28
0000
0000
0000
0000
,  // measure 29
1000
0000
0001
0000
,  // measure 30
1000
0000
0000
0000
,  // measure 31
0010
0000
0100
0000
,  // measure 32
0010
0000
0000
0000
,  // measure 33
1000
0000
0000
0000
,  // measure 34
1000
0000
1000
0000
,  // measure 35
0001
0000
0000
0000
,  // measure 36
0001
0000
0001
0000
,  // measure 37
0100
0100
0000
0000
,  // measure 38
0010
0010
0000
0000
,  // measure 39
1000
0000
0001
0000
,  // measure 40
1000
0000
0000
0000
,  // measure 41
1000
0000
0000
0000
,  // measure 42
0100
0000
0010
0000
,  // measure 43
0001
0000
0000
0000
,  // measure 44
0100
0000
0010
0000
,  // measure 45
1000
0000
0000
0000
,  // measure 46
0001
0000
1000
0000
,  // measure 47
0001
0000
0000
0000
,  // measure 48
0100
0100
0000
0010
,  // measure 49
0010
0000
0000
0000
,  // measure 50
1000
0000
0000
0000
,  // measure 51
0001
0000
0000
0000
,  // measure 52
0100
0100
0000
0000
,  // measure 53
0010
0000
0000
0000
,  // measure 54
0100
0000
0000
0000
,  // measure 55
0001
0001
0000
0000
,  // measure 56
0100
0000
0010
0000
,  // measure 57
0100
0000
0000
0000
,  // measure 58
0010
0000
0000
0000
,  // measure 59
1000
0000
0000
0000
,  // measure 60
0001
0000
0000
0000
;

//---------------dance-single - ----------------
#NOTES:
     dance-single:
     :
     Easy:
     2:
     0.177,0.242,0.063,0.172,0.000: // measure 1
0000
0000
0000
0000
,  // measure 2
0000
0000
0000
0000
,  // measure 3
0000
0000
0000
0000
,  // measure 4
0000
0000
0000
0000
,  // measure 5
1000
0000
0001
0000
,  // measure 6
1000
0000
0001
0000
,  // measure 7
0100
0000
0000
0000
,  // measure 8
0020
0000
0000
0030
,  // measure 9
1000
0000
0001
0000
,  // measure 10
0100
0000
0010
0010
,  // measure 11
0100
0000
0001
0000
,  // measure 12
1000
0000
0001
0001
,  // measure 13
1000
0000
0000
0010
,  // measure 14
0100
0000
0000
0001
,  // measure 15
0010
0000
0000
0000
,  // measure 16
1001
0000
0110
0000
,  // measure 17
2000
0000
0000
3000
,  // measure 18
0002
0000
0013
0000
,  // measure 19
0200
0000
0000
0300
,  // measure 20
0020
0000
1030
0000
,  // measure 21
2000
0000
3010
0000
,  // measure 22
0002
0000
0103
0000
,  // measure 23
1001
0000
0000
0000
,  // measure 24
0011
0000
1100
0000
,  // measure 25
0002
0000
0000
0003
,  // measure 26
1000
0100
1000
0000
,  // measure 27
2000
0000
0000
3000
,  // measure 28
0001
0010
0001
0000
,  // measure 29
0200
0000
0310
0010
,  // measure 30
0020
0000
0130
0100
,  // measure 31
0001
0000
1000
0000
,  // measure 32
0001
0010
0000
0100
,  // measure 33
1000
0000
0010
0000
,  // measure 34
1000
1000
0000
0000
,  // measure 35
0001
0000
0100
0000
,  // measure 36
0001
0001
0000
0000
,  // measure 37
0020
0000
0031
0000
,  // measure 38
0200
0000
1300
0000
,  // measure 39
0001
0000
0001
0000
,  // measure 40
1000
1000
1000
1000
,  // measure 41
0010
0000
0000
0000
,  // measure 42
0100
0000
0001
0001
,  // measure 43
0001
0000
0000
0000
,  // measure 44
1000
1000
0000
0000
,  // measure 45
0101
0000
1000
0000
,  // measure 46
1010
0000
0001
0000
,  // measure 47
0200
0000
0000
0300
,  // measure 48
0010
0000
0100
0000
,  // measure 49
0001
0001
0000
1000
,  // measure 50
1000
1000
0000
0000
,  // measure 51
0010
0010
0000
0100
,  // measure 52
0100
0100
0000
0000
,  // measure 53
0002
0000
0000
0003
,  // measure 54
2000
0000
0000
3000
,  // measure 55
0002
0003
2000
3000
,  // measure 56
0010
0010
0000
0100
,  // measure 57
0100
0001
0000
0000
,  // measure 58
1000
0010
0000
0000
,  // measure 59
1000
0001
0000
0000
,  // measure 60
0200
0000
0300
0000
;

//---------------dance-single - ----------------
#NOTES:
     dance-single:
     :
     Medium:
     5:
     0.359,0.431,0.272,0.235,0.000: // measure 1
0000
0000
0000
0000
,  // measure 2
0000
0000
0000
0000
,  // measure 3
0000
0000
0000
0000
,  // measure 4
0000
0000
0000
0000
,  // measure 5
1000
0010
0000
0010
,  // measure 6
0100
0001
0000
0001
,  // measure 7
0100
0010
0000
1000
,  // measure 8
2002
0000
0000
3003
,  // measure 9
0010
0000
0100
0000
0001
1000
0001
0000
,  // measure 10
1000
0100
0010
0101
,  // measure 11
1000
0000
0001
0100
0001
0000
1010
0000
,  // measure 12
0001
0000
0100
0000
0000
0001
0010
0001
,  // measure 13
0010
0001
1000
0110
,  // measure 14
1000
0000
0001
0000
1001
0000
0100
0010
,  // measure 15
0100
0000
0011
0000
0000
1100
0000
0001
,  // measure 16
0100
0000
0001
0000
1000
0100
1000
0000
,  // measure 17
0002
0010
0100
1003
,  // measure 18
2000
0000
3001
0000
0001
0010
0001
0010
,  // measure 19
0002
0000
1003
0100
0000
0100
0000
0000
,  // measure 20
1000
0100
0001
0100
,  // measure 21
1001
0110
0000
0001
,  // measure 22
0110
1001
0000
0010
,  // measure 23
1000
0100
0001
0010
,  // measure 24
1000
0100
1000
0000
0010
0100
0010
0000
,  // measure 25
2000
0020
0000
3030
,  // measure 26
0002
0200
0000
0303
,  // measure 27
0020
0002
0000
0033
,  // measure 28
0200
2000
0000
3300
,  // measure 29
0011
1000
0001
1100
,  // measure 30
1010
0100
0010
0101
,  // measure 31
1000
0100
1000
0100
1000
0000
0110
0000
,  // measure 32
1001
0000
1001
0000
0010
0100
0010
0100
,  // measure 33
0010
1000
0100
0001
,  // measure 34
0010
0000
0001
0000
0100
0000
1000
0001
,  // measure 35
1000
0100
0001
0010
,  // measure 36
0001
0000
0100
0000
1000
0000
0001
1000
,  // measure 37
0002
2000
3003
0110
,  // measure 38
0200
0020
0330
1001
,  // measure 39
0011
0000
1010
0000
,  // measure 40
1100
0101
1001
1001
,  // measure 41
0100
0000
0001
0000
1000
0010
1000
0000
,  // measure 42
0001
0100
0001
0000
1000
0000
0010
0000
,  // measure 43
1000
0000
0001
0000
1000
0100
1000
0100
,  // measure 44
1000
0000
0010
0000
0000
0100
0100
0000
,  // measure 45
0001
0100
1000
0010
,  // measure 46
0001
0100
1000
0010
,  // measure 47
0001
0010
0001
0000
0010
0100
0010
0000
,  // measure 48
0100
1000
0001
0010
,  // measure 49
0002
0103
0200
0310
,  // measure 50
0020
0000
1030
0000
1000
0001
1000
0000
,  // measure 51
0020
1030
0200
0301
,  // measure 52
2000
0000
3001
0000
0000
1000
0010
1000
,  // measure 53
0010
1000
0101
0000
,  // measure 54
0001
0100
1010
0000
,  // measure 55
2000
0000
3002
0000
,  // measure 56
1003
0001
1000
0001
,  // measure 57
0100
0000
0010
0000
1000
0100
1000
0000
,  // measure 58
0010
0000
0100
0000
0001
0010
0001
0000
,  // measure 59
1000
0110
0001
0110
,  // measure 60
2000
0000
3000
0000
;

//---------------dance-single - ----------------
#NOTES:
     dance-single:
     :
     Hard:
     7:
     0.467,0.458,0.398,0.172,0.109: // measure 1
0000
0000
0000
0000
,  // measure 2
0000
0000
0000
0000
,  // measure 3
0000
0000
0000
0000
,  // measure 4
0000
0000
0000
0000
,  // measure 5
1000
0000
0000
1000
0000
0000
1000
0000
0000
0000
0001
0000
0100
0000
0000
0000
,  // measure 6
0100
0000
0000
0100
0000
0000
0100
0000
0000
0000
0001
0000
0010
0000
0000
0000
,  // measure 7
0010
0000
0000
0010
0000
0000
0010
0000
0000
0000
0001
0000
1000
0000
0000
0000
,  // measure 8
0002
0100
0010
1003
,  // measure 9
1000
0000
0011
0000
0001
0010
1000
0010
,  // measure 10
0001
0000
1100
0000
1000
0100
0001
0100
,  // measure 11
1000
0000
0110
0000
0010
1000
0001
1000
,  // measure 12
0010
0000
1001
0000
0100
0001
0100
0000
,  // measure 13
0001
0000
0000
0110
0000
0000
1000
0000
0000
0110
0000
0000
0001
0000
0000
0000
,  // measure 14
0100
0000
0000
1001
0000
0000
0010
0000
0000
1001
0000
0000
0100
0000
0000
0000
,  // measure 15
0001
0000
1000
0100
1000
0000
0100
0010
,  // measure 16
0100
0000
0010
0000
0001
1000
0001
0000
,  // measure 17
1100
0000
0001
0010
1000
0001
0100
1000
,  // measure 18
0001
0010
0001
0010
0001
0000
1010
0000
,  // measure 19
0101
0000
1000
0100
0010
0100
1000
0100
,  // measure 20
0001
0010
1000
0001
1000
0000
0011
0000
,  // measure 21
1000
0000
0000
0011
0000
0000
0001
0000
0000
1100
0000
0000
1000
0000
0000
0000
,  // measure 22
0010
0000
0000
1010
0000
0000
1000
0000
0000
0101
0000
0000
0100
0000
0000
0000
,  // measure 23
0001
1000
0010
0000
0010
1000
0100
0000
,  // measure 24
0100
1000
0100
0010
0001
0010
0100
0000
,  // measure 25
2000
0000
0002
3000
0200
0003
0000
0000
,  // measure 26
0002
0300
2000
0003
0020
3000
0000
0000
,  // measure 27
2000
0030
0200
3000
0020
0300
0000
0000
,  // measure 28
0002
0030
0200
0003
0020
0300
0000
0000
,  // measure 29
1030
0100
0010
0000
0010
0100
1000
0000
,  // measure 30
0001
0010
0100
0000
0100
0010
0001
0000
,  // measure 31
1000
0100
1000
0001
0010
0100
1000
0000
,  // measure 32
0110
0000
0000
0000
1001
0000
0000
0000
0100
0010
0000
0000
1000
0000
0000
0000
,  // measure 33
0001
0010
0001
0100
0001
0000
1010
0000
,  // measure 34
1000
0010
1000
0001
1000
0000
0101
0000
,  // measure 35
1000
0100
0010
0100
0001
0100
1000
0000
,  // measure 36
0001
0010
0100
0010
1000
0010
0001
0000
,  // measure 37
1000
0100
1000
0000
0100
0010
0100
0000
,  // measure 38
0010
0001
0010
0000
0001
1000
0001
0000
,  // measure 39
2010
3100
0012
0103
,  // measure 40
0201
0310
0120
1030
,  // measure 41
0001
0000
0000
0100
0000
0000
1000
0000
0000
0000
0100
0000
0001
0000
1000
0000
,  // measure 42
0100
0000
0000
1000
0000
0000
0001
0000
0000
0000
0010
0000
0001
0000
1000
0000
,  // measure 43
0010
0000
0000
1000
0000
0000
0001
0000
0000
0000
1000
0000
0100
0000
1000
0000
,  // measure 44
0001
0000
0000
0010
0000
0000
1000
0000
0000
0000
0010
0000
0001
0000
0000
0000
,  // measure 45
1010
0000
0000
1000
0000
0000
1001
0000
0000
1000
0000
0000
1100
0000
0000
0000
,  // measure 46
0011
0000
0000
0001
0000
0000
0110
0000
0000
0001
0000
0000
0101
0000
0000
0000
,  // measure 47
1000
0100
0010
0000
1000
0100
0010
0000
,  // measure 48
1000
1010
0001
0101
,  // measure 49
1000
0100
0010
0100
0000
0010
1000
0000
,  // measure 50
0010
0001
0100
0010
0000
0100
0001
0000
,  // measure 51
1000
0000
0010
0100
0010
1000
0000
0001
,  // measure 52
0100
0000
0001
1000
0001
0000
1000
0000
,  // measure 53
1010
0000
0000
0010
0000
0000
0110
0000
0000
0100
0000
0000
0101
0000
0000
0000
,  // measure 54
0011
0000
0000
0010
0000
0000
0110
0000
0000
0100
0000
0000
1100
0000
0000
0000
,  // measure 55
0001
0010
0100
0000
0001
0010
0100
0000
,  // measure 56
0010
1010
0100
0101
,  // measure 57
1000
0100
0001
0100
0000
1001
0000
0010
,  // measure 58
0001
0010
1000
0010
0000
1001
0000
0010
,  // measure 59
0100
0000
1001
0000
0100
0010
0001
0000
,  // measure 60
0220
0000
0330
0000
;

//---------------dance-single - ----------------
#NOTES:
     dance-single:
     :
     Challenge:
     9:
     0.622,0.592,0.308,0.253,0.552: // measure 1
0000
0000
0000
0000
,  // measure 2
0000
0000
0000
0000
,  // measure 3
0000
0000
0000
0000
,  // measure 4
0000
0000
0000
0000
,  // measure 5
1001
0000
0000
0010
0001
0000
1000
0000
0000
0010
1000
0000
0100
0000
1000
0000
,  // measure 6
0001
0000
0000
0100
0001
0000
1000
0000
0000
0100
1000
0000
0001
0000
0100
0000
,  // measure 7
0010
0000
0000
0100
0010
0000
1000
0000
0000
0001
1000
0000
0010
0000
0100
0000
,  // measure 8
0001
0000
1000
0010
2000
0000
0001
0000
3001
0100
0002
0000
1000
0000
1003
0000
,  // measure 9
1001
0000
0000
0010
0001
0000
0010
0000
1000
0000
0010
0000
0001
1000
0000
1000
,  // measure 10
0001
0000
0000
1000
0100
0000
0001
0000
0100
0000
1000
0000
0010
0100
0000
0100
,  // measure 11
0010
0000
0000
1000
0100
0000
1000
0000
0010
0000
0001
0000
0100
0001
0000
0001
,  // measure 12
1000
0000
0000
0001
0010
0000
1000
0000
0100
0000
0001
0000
0010
0100
0000
0100
,  // measure 13
1000
0000
0000
0000
0001
1000
0000
0011
0000
1100
0000
0110
0000
0000
0000
0000
,  // measure 14
0100
0000
0000
0000
0010
0100
0000
1010
0000
0101
0000
1001
0000
0000
0000
0000
,  // measure 15
1000
0000
1000
0000
1000
0001
0000
0000
0001
0000
0001
0000
0001
1000
0000
0000
,  // measure 16
0001
0010
0100
0010
0100
1000
0100
0010
,  // measure 17
0100
1000
0000
0000
0001
0000
0010
0000
1000
0000
0010
0000
0001
0010
0000
0010
,  // measure 18
0100
0000
0000
0000
1000
0000
0100
0000
0001
0000
0100
0000
1000
0010
0000
0010
,  // measure 19
0100
0000
0000
0001
1000
0000
0010
0000
0100
0002
0000
0010
0000
0100
0000
1003
,  // measure 20
0000
0000
0000
0100
0001
0000
1000
0000
0100
2000
0000
0100
0000
0010
0000
3001
,  // measure 21
0000
0000
0000
0000
0100
0010
0000
1100
0000
1010
0000
1001
0000
0000
0000
0000
,  // measure 22
0110
0000
0000
0000
0001
1000
0000
0011
0000
0101
0000
0110
0000
0000
0000
0000
,  // measure 23
1000
0000
0010
1000
0010
0000
0000
0000
0100
0000
0001
0100
0001
0000
0000
0000
,  // measure 24
1000
0100
0010
0100
0010
0001
1000
0001
,  // measure 25
2200
0300
0020
0030
0002
0003
3010
0200
,  // measure 26
0002
0300
2000
3000
0020
0030
1003
0020
,  // measure 27
0200
0030
2000
3000
0002
0003
0310
0200
,  // measure 28
0020
0300
0002
0003
2000
3000
0130
0001
,  // measure 29
1000
0000
0010
0000
1000
0100
1000
0000
0001
0000
0010
0000
0100
0000
1000
0000
,  // measure 30
0001
0000
0100
0000
0001
0010
0001
0000
1000
0000
0100
0000
0010
0000
0001
0000
,  // measure 31
1000
0100
0000
0100
1000
0000
0000
0000
1000
0000
0010
0000
1000
0000
0000
0000
,  // measure 32
0001
0010
0000
0010
0001
0000
0000
0000
0001
0000
0100
0000
0001
0000
0000
0000
,  // measure 33
1000
0000
0010
0000
0100
0010
0000
0010
0100
0000
0010
0000
1000
0000
0000
0000
,  // measure 34
0001
0000
0100
0000
0010
0100
0000
0100
0010
0000
0100
0000
0001
0000
0000
0000
,  // measure 35
1000
0000
0010
0000
1000
0001
0000
1000
0000
0010
0000
0010
0000
0000
0000
0000
,  // measure 36
0100
0000
0001
0000
0100
0010
0000
1000
0000
0001
0000
0001
0000
0000
0000
0000
,  // measure 37
0110
0000
0000
1000
0100
0000
0000
0100
0010
0000
0000
0010
0001
0000
0000
0000
,  // measure 38
1001
0000
0000
0001
0010
0000
0000
0010
0100
0000
0000
0100
1000
0000
0000
0000
,  // measure 39
0110
0000
0000
1000
0001
0000
0000
0000
1001
0000
0000
0010
0100
0000
0000
0000
,  // measure 40
0001
0000
0010
0000
0100
0000
1000
0000
0001
0010
0001
0000
1000
0000
0010
0000
,  // measure 41
0100
0000
0010
0000
1000
0100
1000
0000
0001
0000
0100
0010
0100
0000
0000
0000
,  // measure 42
0010
0000
0100
0000
0001
0010
0001
0000
0100
0000
0010
0100
0010
0000
0000
0000
,  // measure 43
1000
0000
0100
0000
0001
0100
0000
1000
0100
0000
1000
0000
1000
0000
0000
0000
,  // measure 44
0001
0000
0010
0000
1000
0010
0000
0001
0010
0000
0001
0000
0001
0000
0000
0000
,  // measure 45
1000
0000
1000
0000
0001
0100
0000
0011
0000
0110
0000
1100
0000
0000
0000
0000
,  // measure 46
0001
0000
0001
0000
1000
0100
0000
1010
0000
0110
0000
0101
0000
0000
0000
0000
,  // measure 47
1000
0100
0001
0010
1000
0100
0010
0001
,  // measure 48
1000
0001
0010
0001
1000
0000
0110
0000
,  // measure 49
0002
0000
0000
1003
0100
0000
0100
0000
1000
0000
0001
0000
0010
0001
0000
0000
,  // measure 50
2000
0000
0000
3001
0010
0000
0010
0000
0001
0000
1000
0000
0100
1000
0000
0000
,  // measure 51
0001
0000
0100
0000
0001
0000
0010
0000
0001
0000
0000
1000
0001
0000
0100
0000
,  // measure 52
0010
0000
1000
0000
0010
0000
0100
0000
0010
0000
0000
0100
0001
0000
1000
0000
,  // measure 53
0001
0000
0000
0000
1000
0010
0000
1100
0000
1001
0000
0011
0000
0000
0000
0000
,  // measure 54
0001
0000
0000
0000
1000
0100
0000
0011
0000
1001
0000
1100
0000
0000
0000
0000
,  // measure 55
0001
0000
0010
0001
0010
0000
0000
0000
0100
0000
1000
0100
1000
0000
0000
0000
,  // measure 56
0001
0100
0010
0000
1000
0000
0100
0000
1000
0010
0100
0000
0001
0000
0010
0000
,  // measure 57
0002
0000
0000
0000
2000
0000
0003
0000
3001
0010
0000
1000
0010
0000
0001
0000
,  // measure 58
0200
0000
0000
0000
0020
0000
0300
0000
1030
0100
0000
0001
0100
0000
1000
0000
,  // measure 59
0001
0000
0010
0001
0010
0000
0001
0000
1000
0000
0100
1000
0100
0000
1000
0000
,  // measure 60
2002
0000
3003
0000
;
