#TITLE:Almagest;
#SUBTITLE:;
#ARTIST:Galdeira;
#TITLETRANSLIT:;
#SUBTITLETRANSLIT:;
#ARTISTTRANSLIT:;
#CREDIT:;
#BANNER:bn.png;
#BACKGROUND:bg.png;
#LYRICSPATH:;
#CDTITLE:;
#MUSIC:36 - Almagest.mp3;
#OFFSET:-2.380;
#SAMPLESTART:63.780;
#SAMPLELENGTH:12.000;
#SELECTABLE:YES;
#BPMS:0.000=355.921,68.000=712.002,82.000=356.007,210.000=712.013,211.000=356.007,342.000=712.013,346.000=356.007,348.000=178.003,352.000=356.007,480.000=178.003,512.000=356.007;
#DISPLAYBPM:*;
#STOPS:68.000=0.042
,68.500=0.040
,69.000=0.040
,69.500=0.040
,70.000=0.040
,70.500=0.040
,71.000=0.040
,71.500=0.040
,72.000=0.040
,72.500=0.040
,73.000=0.040
,73.500=0.040
,74.000=0.040
,74.500=0.040
,75.000=0.040
,75.500=0.040
,76.000=0.040
,76.500=0.040
,77.000=0.040
,77.500=0.040
,78.000=0.040
,78.500=0.040
,79.000=0.040
,79.500=0.040
,80.000=0.082
,80.500=0.126
,81.000=0.120
,81.500=0.240
,210.000=0.463
,210.500=0.463
,211.000=0.169
,340.000=0.084
,340.500=0.084
,341.000=0.084
,341.500=0.084
;
#BGCHANGES:;

//---------------dance-single - Pandemonium X----------------
#NOTES:
     dance-single:
     Pandemonium X:
     Challenge:
     13:
     1.000,1.000,0.368,0.547,0.358:
0000
0000
0000
0000
,
0000
0000
0000
0000
,
0000
0000
0000
0000
,
0000
0000
0000
0000
,
0000
0000
0000
0000
,
0000
0000
0000
0000
,
0000
0000
0000
0000
,
0000
0000
0000
0000
,
0000
0000
0000
0000
,
1000
0001
0010
0001
,
0100
0001
0010
1000
,
0100
1000
0001
0100
,
0001
0010
0001
0100
,
0010
0100
1000
0001
0010
0001
0010
0100
,
1000
0001
0100
0001
0010
0001
0100
0010
,
1000
0100
0010
0001
0010
0100
1000
0001
,
0100
0010
1000
0100
1000
0001
0100
0010
,
0200
0320
2030
3002
0023
0032
0203
0320
,
2030
3002
0023
0032
2003
3200
2300
3002
,
0203
0320
2030
3200
2300
3002
0203
0320
,
0030
0100
0110
0101
1000
0000
0001
0000
,
0010
0001
0100
0010
,
1000
0100
1000
0010
,
0100
0001
0010
0001
,
0100
0000
0010
1000
0001
0000
1000
0000
,
0001
0010
0001
1000
,
0100
0000
1000
0010
1000
0000
0010
0000
,
0100
0000
0010
1000
0001
0000
0010
0000
,
0001
0010
0100
1000
0001
0000
0100
0000
,
0010
1000
0100
1000
,
1000
0100
0010
0001
0100
0000
0010
0000
,
1000
0001
0010
0001
,
0001
1000
0100
1000
0010
0000
0100
0000
,
0010
1000
0001
1000
,
1000
0001
0100
0001
0011
0000
1100
0000
,
0000
0000
1100
0000
1000
0001
0100
0000
,
0010
1000
0001
0000
1000
0100
0001
0010
,
1000
0100
0001
0010
0100
1000
0001
0100
,
0010
0000
0100
0000
0010
0100
0010
1000
,
0010
0100
1000
0100
0010
0001
0010
0100
,
1000
0000
0001
0000
1000
0001
0100
0001
,
0010
0001
0100
0010
1000
0100
1000
0001
,
1000
0011
0000
1100
,
0000
0000
1001
0000
2000
3002
0023
0032
,
0023
0230
0000
0000
1300
0100
0001
0010
,
0001
0100
0010
1000
0001
0010
1000
0100
,
1000
0000
0000
0000
1000
0001
0010
0001
,
0100
0010
1000
0100
0010
0001
0010
0100
,
1000
0000
0000
0000
1000
0001
0100
0001
,
0010
0001
0010
0100
1000
0001
0100
0010
,
1000
0000
0000
0000
1000
0001
0010
0001
,
0100
0010
1000
0100
0010
0001
0010
0100
,
1000
0100
0001
0010
2000
3002
0013
0000
,
1001
0101
0001
0100
,
0010
1000
0001
0010
,
0011
0000
1100
0000
0001
1000
0100
0000
,
1000
0000
1000
0001
0100
0000
0010
0000
,
1010
1010
1000
0001
,
0010
0001
0100
0010
,
2000
0000
3200
0000
,
2300
3001
0200
0301
0020
0000
0031
0000
,
0011
1100
1000
0001
,
0010
0001
0100
0010
,
1000
0001
0010
0001
1000
0100
0010
0001
,
0200
0000
0310
1000
0001
0000
1001
0000
,
2000
0000
3100
0000
1000
0001
0100
0000
,
1000
0001
1000
0001
0100
0001
0010
0000
,
2002
0000
3000
0000
,
0003
0000
0110
0000
,
0002
2003
3001
0010
,
0001
0100
0010
1000
,
1000
0100
0001
0010
0001
0100
0010
1000
,
0001
0010
0100
1000
0001
0100
0010
1000
,
0200
2300
3100
1000
,
0001
0100
0010
1000
,
0001
1000
0001
0100
0001
0010
0100
1000
,
0100
1000
0001
0100
0010
1000
0100
1000
,
0002
0023
0031
0010
,
1000
0100
1000
0001
,
0100
0001
0010
0100
1000
0100
1000
0001
,
0100
0010
1000
0001
0010
0001
0100
0010
,
1000
0100
1000
0001
0010
0001
0100
0010
,
1000
0001
0010
0001
0100
0010
1000
0100
,
1000
0100
1000
0100
0000
0000
0001
0100
0001
0100
0000
0000
,
1000
0001
1000
0001
0000
0000
0100
0010
0100
0010
0000
0000
,
1100
0011
0110
0101
0020
0000
0000
0000
,
0000
0000
0000
0000
0130
0001
1000
0100
,
0010
0001
0010
0100
0010
0001
0100
0010
1000
0001
0010
0001
0100
0010
1000
0100
,
1000
0100
1000
0001
,
0100
0000
0010
0000
0001
0000
1000
0001
,
0100
0010
1000
0001
,
0010
0000
0001
0000
1000
0000
0001
0100
,
0010
1000
0001
0010
,
0001
0000
0100
0000
0010
0000
0100
0010
,
1000
0000
0010
0000
1000
0000
0010
0100
,
0001
0000
1000
0000
0100
0000
1000
0010
,
1000
0010
0011
1000
,
0010
0000
0100
0000
1010
0000
0001
1000
,
0010
0100
1001
1000
,
0100
0000
1000
0000
1010
0000
1000
0010
,
0100
0001
1100
0100
,
1000
0000
1010
0000
0001
0000
0100
0001
,
0101
0101
0000
0011
,
0100
0000
0001
0000
0100
0000
0001
0000
0000
0200
0000
0000
0310
0000
0000
0000
0000
0000
1000
0000
0000
0001
0000
0000
,
0010
0001
0010
0000
1000
0100
1000
0000
,
0001
1000
0001
0000
0100
0001
0100
0000
,
0010
0100
0010
0000
1000
0001
1000
0000
,
0100
1000
0100
0000
0001
0010
0001
0000
,
0100
0001
0100
0000
0010
0100
0010
0000
,
1000
0001
1000
0000
0100
0000
1100
0000
,
0000
1010
0000
1001
,
1000
0001
0010
0001
0020
0000
0000
0000
,
0031
0010
0001
0000
0100
1000
0010
0000
,
1000
0001
1000
0000
0001
1000
0001
0000
,
0100
0010
1000
0000
0001
0010
0001
0000
,
0001
0100
0010
0000
0010
1000
0100
0000
,
1000
0001
0100
0000
0100
0001
0010
0000
,
0001
0010
0100
0000
0100
1000
0010
0000
,
1000
0100
0010
0001
1000
0100
0010
0001
,
1000
0100
0010
0001
0010
0100
1000
0001
,
0100
0010
1000
0000
0001
0010
0001
0000
0001
0100
0010
1000
0100
0010
0001
0100
,
0010
0100
0000
0000
0110
0000
1000
0001
1000
0001
0010
0001
0020
0000
0030
0000
,
2200
0000
3300
0000
0002
1003
0001
0010
0001
0100
0010
1000
0100
1000
0010
0100
,
0001
0010
0000
0001
0010
0001
0010
0100
1000
0001
0100
0010
1000
0001
0010
0001
,
0100
0010
1000
0000
0001
0010
0001
0000
0001
0100
0010
1000
0100
0010
0001
0100
,
0010
0100
0010
0100
0010
1000
0001
0010
0001
0100
0010
1000
0001
0010
0001
1000
,
0001
0100
0001
0010
0001
0100
0010
1000
0100
0010
0001
0100
0010
1000
0001
0010
,
0001
1000
0001
0010
0001
0100
0010
1000
0100
0010
0001
0010
0100
1000
0001
0100
,
0020
0000
0000
0000
,
0030
0000
0000
0000
;

//---------------dance-single - Pandemonium X----------------
#NOTES:
     dance-single:
     Pandemonium X:
     Medium:
     9:
     0.681,1.000,0.239,0.050,0.000:
0000
0000
0000
0000
,
0000
0000
0000
0000
,
0000
0000
0000
0000
,
0000
0000
0000
0000
,
0000
0000
0000
0000
,
0000
0000
0000
0000
,
0000
0000
0000
0000
,
0000
0000
0000
0000
,
0000
0000
0000
0000
,
0001
1000
0001
1000
,
0001
0100
0001
0100
,
0001
0010
0001
0010
,
0100
1000
0100
1000
,
0100
1000
0001
1000
,
0001
0100
0001
0010
,
0100
1000
0001
0100
,
0001
0010
1000
0100
,
1000
0001
1000
0100
,
0010
1000
0001
0010
,
0001
0100
0010
1000
,
0001
1000
1001
0110
0100
0000
0010
0000
,
1000
0001
0010
0001
,
0100
0000
0010
1000
,
0001
0010
0001
0100
,
0010
0000
0001
1000
,
0001
0100
0001
0010
,
0001
0000
0001
0010
,
0100
1000
0100
0001
,
0010
0000
0010
1000
,
0001
0100
0010
0100
,
0010
0000
0010
1000
,
0010
0100
0010
1000
,
0010
0000
0001
1000
,
0001
0100
0001
0100
,
0010
1000
0011
0011
,
0000
0001
0100
0010
,
1000
0000
0010
0100
,
0001
1000
0010
1000
,
0010
0000
0010
1000
,
0001
0100
0010
1000
,
0100
0000
1000
0100
,
0010
0001
0010
0100
,
1000
0101
0000
0101
,
0000
0001
0100
0010
,
2000
0000
3010
0100
,
0010
1000
0001
0001
,
0001
0000
0001
1000
,
0001
0100
0010
1000
,
0010
0000
1000
0100
,
1000
0000
0010
0001
,
0010
0000
0001
0100
,
0010
1000
0001
0100
,
0010
0000
1000
0000
0001
0010
1100
0000
,
1100
1100
0001
0000
,
0100
0000
0010
0000
,
0010
1000
0001
0100
,
0001
0100
0001
0010
,
0011
0011
0000
0000
,
0000
0000
0000
0000
,
0001
0100
0010
1000
,
0001
1000
0001
0100
,
0101
0101
0000
0000
,
0000
0000
0000
0000
,
0001
0100
0010
1000
,
1010
0000
0010
1000
,
0010
0000
0110
0000
,
0010
1000
0001
0100
,
0002
0000
0000
0000
,
0003
0000
0000
0000
,
0001
1000
0001
0100
,
0010
1000
0010
0100
,
0010
1000
0010
1000
,
0001
0100
0010
0001
,
0010
0001
1000
0001
,
0100
0001
0100
0010
,
0100
0010
1000
0100
,
0001
0010
0001
0100
,
0010
1000
0001
1000
,
0010
1000
0010
1000
,
0010
0100
0010
0100
,
0010
0100
0010
1000
,
0001
1000
0001
0100
,
0001
0010
0001
0100
,
0010
0000
0000
1000
0100
0000
0000
0001
,
0010
0000
0000
0001
0100
0000
0000
0010
,
1000
0001
0010
0001
0200
0000
0000
0000
,
0000
0000
0310
0100
,
0020
0000
0000
0030
,
1100
1000
0100
0010
,
0001
0100
0001
0100
,
0010
0100
0001
1000
,
0010
1000
0010
0100
,
0010
1000
0010
1000
,
0001
1000
0001
0100
,
0001
0100
0010
0001
,
0010
0001
0100
0000
,
0001
0100
0001
0100
,
0010
1000
0010
1000
,
0100
0010
0100
0010
,
0100
0010
1000
0100
,
0010
0001
0010
0100
,
0001
0100
0001
0100
,
0101
1010
0000
1010
,
0001
0000
1000
0001
1000
0000
0001
0000
,
0100
0000
0000
0100
0010
0000
0000
1000
,
0001
0000
0000
0100
1000
0000
0000
0010
,
0001
0000
0000
0001
0100
0000
0000
0010
,
0100
0000
0000
0100
1000
0000
0000
0001
,
0010
0000
0000
0100
0001
0000
0000
0010
,
0100
0000
0000
1000
0001
0000
1001
0000
,
0000
0110
0000
0010
,
0100
0010
0100
0000
0010
0000
1000
0000
,
0001
1000
0001
0100
,
0001
0100
0010
0001
,
0010
0100
0001
0100
,
0010
1000
0010
0100
,
0001
1000
0010
0100
,
0001
0100
0001
0010
,
0001
0010
0100
1000
,
0100
0010
0001
1000
,
0010
1000
0010
0000
0100
0010
0100
0000
,
0010
1001
0010
0110
,
0110
0000
0010
1000
0001
0000
0010
1000
,
0001
0000
1000
0000
0001
0100
0001
0000
,
1000
0100
1000
0000
0001
0100
0001
0000
,
0001
0100
0010
0100
0001
1000
0001
0000
,
1000
0100
0001
0100
0010
1000
0001
0100
,
0010
0001
0010
0100
0001
1000
0010
0100
,
0002
0000
0000
0000
,
0003
0000
0000
0000
;

//---------------dance-single - Pandemonium X----------------
#NOTES:
     dance-single:
     Pandemonium X:
     Easy:
     6:
     0.516,0.834,0.468,0.090,0.000:
0000
0000
0000
0000
,
0000
0000
0000
0000
,
0000
0000
0000
0000
,
0000
0000
0000
0000
,
0000
0000
0000
0000
,
0000
0000
0000
0000
,
0000
0000
0000
0000
,
0000
0000
0000
0000
,
0000
0000
0000
0000
,
1000
0001
1000
0001
,
1000
0001
1000
0001
,
1000
0001
1000
0001
,
1000
0001
1000
0001
,
1000
0001
1000
0001
,
1000
0001
1000
0001
,
1000
0001
1000
0001
,
1000
0001
1000
0002
,
2000
0000
0000
0000
,
0000
0000
0000
0000
,
0000
0000
0000
0000
,
0000
3003
0001
1000
,
0001
0100
0001
0000
,
0101
0000
0001
0100
,
0001
0100
0010
0000
,
0110
0000
0010
0100
,
0010
1000
0010
0000
,
1010
0000
0010
0000
,
1010
0000
0010
0000
,
0110
0000
0010
0000
,
0010
0000
0010
1000
,
0001
0000
1000
0000
,
1001
0000
0001
0100
,
0010
0000
0100
0000
,
0110
0000
0010
1000
,
0001
1000
0001
0001
,
0000
0001
2000
0000
,
3100
0000
1000
0000
,
0100
0000
0010
0001
,
0010
0000
0101
0000
,
0001
0000
0001
0100
,
0001
0000
0110
0000
,
1001
0000
0001
1000
,
0010
0100
0000
0100
,
0000
0100
0010
1000
,
0002
0000
1003
0000
,
0001
0000
0001
0100
,
0010
0000
0100
0000
,
0010
0000
0010
1000
,
0001
0000
1001
0000
,
0010
0000
1001
0000
,
0010
0000
0010
0100
,
0010
1000
0001
0100
,
0010
0001
0020
0030
,
0001
0100
0000
0000
,
0000
0000
0000
0000
,
0010
0100
0001
1000
,
0010
0100
0001
1000
,
0010
0010
0000
0000
,
0000
0000
0000
0000
,
1000
0001
0100
0001
,
0100
0001
0010
0001
,
1000
1000
0000
0000
,
0000
0000
0000
0000
,
0001
0000
1000
0000
,
1001
0000
0001
0100
,
0010
0000
0110
0000
,
0010
1000
0001
0100
,
0020
0000
0000
0030
,
0000
0000
0000
0000
,
0010
0100
0010
1000
,
0001
1000
0010
0100
,
0010
0000
0010
0000
,
0100
0000
0100
0000
,
0010
1000
0010
1000
,
0010
1000
0010
1000
,
0010
0000
0010
0000
,
1000
0000
1000
0000
,
0001
0100
0001
0100
,
0001
0010
0001
0010
,
0001
0000
0001
0000
,
0100
0000
0100
0000
,
0110
0000
0010
0000
,
1001
0000
0010
0000
,
1100
0000
0101
0000
,
0110
0000
1001
0000
,
2002
0000
0000
0000
,
0000
0000
0000
0000
,
3003
0000
0000
0000
,
1001
0000
0001
0000
,
0100
0000
0010
0000
,
0110
0000
0010
0000
,
1000
0000
0001
0000
,
0101
0000
1000
0000
,
0100
0000
1000
0000
,
1100
0000
0010
0000
,
0011
0000
0001
0000
,
1001
0000
0001
0000
,
0100
0000
0010
0000
,
0110
0000
0010
0000
,
1000
0000
0001
0000
,
0101
0000
0001
0000
,
0100
0000
0010
0000
,
0110
0110
0000
0010
,
0110
0000
0001
0000
,
1001
0000
1000
0000
,
0100
0000
0010
0000
,
0011
0000
0001
0000
,
0100
0000
0010
0000
,
1001
0000
0010
0000
,
0100
0000
1000
0000
,
1100
0000
0010
0000
,
0011
0000
0001
0000
,
0101
0000
0010
0000
,
0100
0000
1000
0000
,
1001
0000
0010
0000
,
0100
0000
0010
0000
,
0110
0000
0001
0000
,
1001
0000
0001
0000
,
0101
0000
1100
0000
,
0011
0000
1010
0000
,
0001
1000
0001
0100
,
0001
0100
0010
0000
0010
0100
0010
0000
,
1010
0010
0100
0010
,
0010
1000
0001
0000
0001
0100
0001
0000
,
1001
0001
0100
0010
,
0100
0010
0100
0000
0001
1000
0001
0000
,
1000
0100
0010
0001
,
0010
0100
0001
1000
0010
0100
0001
1000
,
0020
0000
0000
0000
,
0030
0000
0000
0000
;

//---------------dance-single - Pandemonium X----------------
#NOTES:
     dance-single:
     Pandemonium X:
     Beginner:
     3:
     0.172,0.382,0.219,0.000,0.000:
0000
0000
0000
0000
,
0000
0000
0000
0000
,
0000
0000
0000
0000
,
0000
0000
0000
0000
,
0000
0000
0000
0000
,
0000
0000
0000
0000
,
0000
0000
0000
0000
,
0000
0000
0000
0000
,
0000
0000
0000
0000
,
0010
0000
0000
0000
,
0000
0000
0000
0000
,
1000
0000
0000
0000
,
0000
0000
0000
0000
,
0001
0000
0000
0000
,
1000
0000
0000
0000
,
0001
0000
0001
0000
,
1000
0000
1000
0000
,
1001
0000
0000
0000
,
0000
0000
0000
0000
,
0000
0000
0000
0000
,
0000
0000
0010
0000
,
0000
0000
0000
0000
,
0000
0000
0100
0000
,
0000
0000
0000
0000
,
0000
0000
0010
0000
,
0000
0000
0000
0000
,
0000
0000
1000
0000
,
0000
0000
0001
0000
,
0000
0000
1001
0000
,
0000
0000
0000
0000
,
0000
0000
0010
0000
,
0000
0000
0000
0000
,
0000
0000
0100
0000
,
0000
0000
0000
0000
,
0000
0000
0010
0010
,
0000
0010
0010
0000
,
0000
0000
1001
0000
,
0000
0000
0000
0000
,
0000
0000
0100
0000
,
0000
0000
0000
0000
,
0000
0000
0010
0000
,
0000
0000
0000
0000
,
0000
1000
0000
0001
,
0000
1000
0001
1000
,
0001
0000
1001
0000
,
0000
0000
0000
0000
,
0000
0000
0110
0000
,
0000
0000
0000
0000
,
0000
0000
0110
0000
,
0000
0000
0110
0000
,
0000
0000
1001
0000
,
0001
0000
1000
0000
,
0001
0000
1001
0000
,
0001
0001
0000
0000
,
0000
0000
0000
0000
,
0000
0000
0000
0000
,
0000
0000
0000
0000
,
0010
0010
0000
0000
,
0000
0000
0000
0000
,
0000
0000
0000
0000
,
0000
0000
0000
0000
,
1000
1000
0000
0000
,
0000
0000
0000
0000
,
0000
0000
0000
0000
,
1001
0000
0000
0000
,
0000
0000
0100
0000
,
0000
0000
0000
0000
,
0010
0000
0000
0000
,
0000
0000
0000
0000
,
0100
0100
0000
0000
,
0000
0000
0000
0000
,
0010
0000
0000
0000
,
0100
0000
0000
0000
,
0001
1000
0000
0000
,
0000
0000
0000
0000
,
1000
0000
0000
0000
,
0001
0000
0000
0000
,
0100
0001
0000
0000
,
0000
0000
0000
0000
,
0001
0000
0000
0000
,
1000
0000
0000
0000
,
0010
0000
0000
0000
,
0100
0000
0000
0000
,
0010
0000
0010
0000
,
0010
0000
0010
0000
,
1001
0000
0000
0000
,
0000
0000
0000
0000
,
0000
0000
0000
0000
,
1001
0000
0000
0000
,
0000
0000
0000
0000
,
0010
0000
0000
0000
,
0000
0000
0000
0000
,
0001
0000
0000
0000
,
0000
0000
0000
0000
,
1000
0000
0000
0000
,
0001
0000
0000
0000
,
0100
0000
0000
0000
,
0000
0000
0000
0000
,
0010
0000
0000
0000
,
0000
0000
0000
0000
,
0001
0000
0000
0000
,
0000
0000
0000
0000
,
1000
0000
0000
0000
,
0001
0000
0000
0000
,
1001
0000
0000
0000
,
0000
0000
0000
0000
,
1000
0000
0000
0000
,
0000
0000
0000
0000
,
0001
0000
0000
0000
,
0000
0000
0000
0000
,
0110
0000
0000
0000
,
0110
0000
0000
0000
,
0110
0000
0000
0000
,
0000
0000
0000
0000
,
0010
0000
0000
0000
,
0000
0000
0000
0000
,
1000
0000
0000
0000
,
0000
0000
0000
0000
,
1001
0000
0000
0000
,
0001
0000
0000
0000
,
1000
0000
0000
0000
,
0001
0000
0000
1001
,
1001
1001
0000
0000
,
0000
0000
0000
0000
,
0110
0000
0000
0000
,
0010
0000
0010
0000
,
0010
0000
0000
0000
,
1000
0000
0001
0000
,
1001
0000
0000
0000
;

//---------------dance-single - Pandemonium X----------------
#NOTES:
     dance-single:
     Pandemonium X:
     Hard:
     11:
     0.986,1.000,0.338,0.189,0.095: // measure 1
0000
0000
0000
0000
,  // measure 2
0000
0000
0000
0000
,  // measure 3
0000
0000
0000
0000
,  // measure 4
0000
0000
0000
0000
,  // measure 5
0000
0000
0000
0000
,  // measure 6
0000
0000
0000
0000
,  // measure 7
0000
0000
0000
0000
,  // measure 8
0000
0000
0000
0000
,  // measure 9
0000
0000
0000
0000
,  // measure 10
1000
0001
0100
0001
,  // measure 11
0010
0001
0100
0010
,  // measure 12
1000
0100
1000
0010
,  // measure 13
0100
0010
1000
0001
,  // measure 14
0010
0001
0100
0010
,  // measure 15
1000
0001
0010
0001
,  // measure 16
0001
0010
0001
0010
0100
1000
0100
1000
,  // measure 17
0001
0100
0010
1000
0100
0010
0001
0100
,  // measure 18
0010
1000
0001
0010
0001
0100
0010
1000
,  // measure 19
0100
0010
0100
1000
0001
0100
0010
1000
,  // measure 20
0100
0001
0010
0001
0100
0010
1000
0001
,  // measure 21
0010
0001
0100
0010
1000
0000
0001
0000
,  // measure 22
0010
0001
0100
0010
,  // measure 23
1000
0000
0001
0100
0001
0000
1000
0000
,  // measure 24
0001
0010
0001
1000
,  // measure 25
0100
0000
1000
0001
0100
0000
0010
0000
,  // measure 26
1000
0001
0010
0001
,  // measure 27
1000
0000
0001
0000
0001
0100
0010
0000
,  // measure 28
0010
1000
0001
0000
1000
0001
0100
0000
,  // measure 29
0001
0010
0001
0000
1000
0000
0001
0000
,  // measure 30
0010
0000
0001
0000
0100
0000
0010
1000
,  // measure 31
0001
1000
0001
0010
,  // measure 32
0001
0000
0100
0000
0010
0000
0010
1000
,  // measure 33
0001
1000
0001
0010
,  // measure 34
1000
0000
0100
0000
1000
0000
0001
0100
,  // measure 35
0001
0010
0011
1100
,  // measure 36
0000
0000
1100
0000
0001
0100
0010
0000
,  // measure 37
0010
1000
0001
0000
1000
0000
0001
0100
,  // measure 38
0001
0000
0001
0010
0001
0000
0001
0000
,  // measure 39
0101
0000
0000
0000
0110
0000
0010
1000
,  // measure 40
0001
0000
0001
0100
0001
0000
0100
0000
,  // measure 41
0110
0000
0000
0000
0110
0000
0010
1000
,  // measure 42
0001
0000
1000
0100
1000
0000
0001
0000
,  // measure 43
0101
0101
0000
0110
,  // measure 44
0000
0000
0110
0000
1000
0001
0010
0001
,  // measure 45
0100
0010
1000
0100
1000
0000
0100
0000
,  // measure 46
0001
0000
0010
0000
0001
0100
0010
1000
,  // measure 47
0001
1000
0001
0100
,  // measure 48
0010
0000
1000
0000
0100
1000
0001
0010
,  // measure 49
0001
1000
0001
0100
,  // measure 50
0010
0000
1000
0000
0001
1000
0001
0100
,  // measure 51
0001
0000
0010
0000
0001
0010
0100
0010
,  // measure 52
0001
0100
0010
1000
0001
0010
0001
0100
,  // measure 53
0010
1000
0001
0010
0002
0103
1010
0000
,  // measure 54
0101
0110
0010
1000
,  // measure 55
0001
0010
0001
0100
,  // measure 56
0110
0000
0110
0000
0000
0100
0010
0000
,  // measure 57
1000
0001
0022
0033
,  // measure 58
0011
0101
0100
0010
,  // measure 59
1000
0001
0010
0001
,  // measure 60
2002
3003
2002
3003
,  // measure 61
0010
0100
1000
0001
0010
0001
0100
0010
,  // measure 62
1000
1010
1000
0001
,  // measure 63
0010
0001
0100
0010
,  // measure 64
1000
0100
0001
0010
0001
0100
0010
1000
,  // measure 65
0200
0000
1300
0100
1000
0000
0001
0000
,  // measure 66
0101
0000
2002
3003
,  // measure 67
1000
0001
0100
0001
0010
0001
0100
0010
,  // measure 68
2000
0000
0000
0000
,  // measure 69
3000
0000
0000
0000
,  // measure 70
1000
0001
0010
0001
,  // measure 71
0100
0010
1000
0100
,  // measure 72
1000
0100
1000
0000
0001
0100
0001
0000
,  // measure 73
0010
0100
0010
0000
1000
0001
1000
0000
,  // measure 74
1000
0001
0010
0001
,  // measure 75
0100
0010
1000
0001
,  // measure 76
0010
0001
0010
0000
1000
0100
1000
0000
,  // measure 77
0001
0100
0001
0000
0010
0100
0010
0000
,  // measure 78
1000
0001
0010
0001
,  // measure 79
0100
0010
1000
0001
,  // measure 80
0010
0001
0100
0000
0010
1000
0001
0000
,  // measure 81
0010
0001
0100
0000
0010
1000
0001
0000
,  // measure 82
1000
0000
0001
0000
0100
0001
0100
0010
,  // measure 83
0100
0000
0110
0000
0010
1000
0001
0010
,  // measure 84
0001
0010
0100
1000
0100
0010
0001
0100
,  // measure 85
0010
1000
0001
0010
0001
0100
0010
1000
,  // measure 86
0200
1300
2000
3100
2200
0000
0000
0000
,  // measure 87
0000
0000
0000
3300
1000
0001
0010
0001
,  // measure 88
0000
0000
0000
0000
0000
0000
0000
0000
0000
0000
0000
0000
1000
0000
0000
0001
0000
0000
0000
0000
0000
0000
0000
0000
0001
0000
0100
0000
0001
0000
0000
0000
0000
0100
0000
0000
0010
0000
0000
0000
0000
0000
0000
0000
0000
0000
0000
0000
,  // measure 89
1001
1000
0001
0100
,  // measure 90
0010
0000
1000
0000
0001
0000
0001
0100
,  // measure 91
0010
0100
0010
1000
,  // measure 92
0001
0000
0010
0000
0001
0000
0100
0010
,  // measure 93
1000
0001
0010
0001
,  // measure 94
1000
0000
0100
0000
0010
0000
0100
0010
,  // measure 95
0100
0000
0010
0000
0001
0000
0001
0010
,  // measure 96
0001
0000
1000
0000
0001
0000
0010
1000
,  // measure 97
0001
0100
0001
0010
,  // measure 98
0001
0000
0100
0000
0010
0000
0010
1000
,  // measure 99
0001
0010
1000
0001
,  // measure 100
1000
0000
0100
0000
0010
0000
0010
1000
,  // measure 101
0001
0100
0001
0010
,  // measure 102
0001
0100
0010
1000
,  // measure 103
1001
1001
0000
1001
,  // measure 104
0001
0100
0010
1000
0200
0000
0000
0000
,  // measure 105
1300
0100
1000
0000
0100
1000
0100
0000
,  // measure 106
1000
0100
1000
0000
0100
1000
0100
0000
,  // measure 107
0001
0010
0001
0000
0010
0001
0010
0000
,  // measure 108
0001
0010
0001
0000
0010
0001
0010
0000
,  // measure 109
0001
1000
0001
0000
1000
0001
1000
0000
,  // measure 110
0001
1000
0001
0000
1000
0001
1001
0000
,  // measure 111
0000
1010
0000
0101
,  // measure 112
0001
0100
0010
1000
0200
0000
0000
0000
,  // measure 113
1300
0100
1000
0000
0001
0100
0001
0000
,  // measure 114
1000
0001
1000
0000
0001
0100
0001
0000
,  // measure 115
0010
1000
0010
0000
1000
0100
1000
0000
,  // measure 116
0001
0010
0001
0000
1000
0001
1000
0000
,  // measure 117
0001
0100
0001
0000
0010
1000
0010
0000
,  // measure 118
1000
0100
1000
0000
0001
0010
0001
0000
,  // measure 119
0001
0100
0010
1000
0100
0010
0100
1000
,  // measure 120
0001
0100
0010
1000
0001
0010
0001
0100
,  // measure 121
0010
0100
1000
0001
0010
0001
0100
0001
,  // measure 122
0001
0010
0000
0100
0010
0000
1000
0001
0100
0000
0010
1000
0001
0000
0010
0000
,  // measure 123
0001
0010
1000
0100
0001
0100
0010
1000
,  // measure 124
1000
0001
0000
0010
0001
0000
0001
0010
0001
0000
0001
0000
0100
0000
0010
0000
,  // measure 125
1000
0100
1000
0000
0001
0100
0001
0000
1000
0000
0001
0000
0100
0000
0001
0000
,  // measure 126
0010
0001
0010
0000
1000
0001
0100
0000
0010
0000
1000
0000
0100
0000
1000
0000
,  // measure 127
0010
1000
0001
0000
0001
0010
0001
0000
1000
0001
0000
0001
0010
0000
0001
0000
,  // measure 128
0100
0001
0010
0001
0100
0010
1000
0001
,  // measure 129
0022
0000
0000
0000
,  // measure 130
0033
0000
0000
0000
;
