#TITLE:Bleach the Limitation;
#SUBTITLE:;
#ARTIST:Toushiro;
#TITLETRANSLIT:;
#SUBTITLETRANSLIT:;
#ARTISTTRANSLIT:;
#CREDIT:;
#BANNER:;
#BACKGROUND:;
#LYRICSPATH:;
#CDTITLE:;
#MUSIC:bleach the limitation.mp3;
#OFFSET:-0.140;
#SAMPLESTART:68.213;
#SAMPLELENGTH:12.000;
#SELECTABLE:YES;
#BPMS:0.000=71.975;
#STOPS:;
#BGCHANGES:;

//---------------dance-single - Copied from----------------
#NOTES:
     dance-single:
     Copied from:
     Hard:
     8:
     0.469,0.421,0.164,0.093,0.485:
1000
0000
1000
0100
0000
0100
0010
0000
0010
0001
0000
0001
0020
0000
0000
0230
0000
0000
0000
0000
0000
2300
0000
0000
,
3020
0000
0000
0130
0000
0000
0001
0000
0001
0010
0000
0010
0100
0000
0000
1000
0000
0000
0010
0000
0010
1000
0000
1000
,
0001
0000
0000
0010
0000
0000
0011
0000
0000
0110
0000
0010
0100
0000
0000
1000
0000
0000
0020
0000
0000
0230
0000
0000
,
0301
0000
0000
0010
0000
0000
0011
0000
0000
0100
0000
0100
1000
0000
0000
0010
0000
0000
1010
0000
0000
0100
0000
0000
,
0001
0000
0000
0010
0000
0000
0100
0000
0000
1000
0000
0000
0100
0000
0000
0010
0000
0010
0001
0000
0001
1000
0000
0000
,
0001
0000
0001
0010
0000
0010
0100
0000
0100
1000
0000
0000
0100
0000
0000
0010
0000
0000
0001
0000
0000
0000
0000
0100
,
0010
0000
0010
1000
0000
1000
0010
0000
0000
0100
0000
0100
0001
0000
0010
0000
0000
0000
0011
0000
0000
0000
0000
0000
,
0100
0000
0100
1000
0000
1000
0010
0000
0100
0000
0000
0001
0100
0000
0100
0010
0000
0000
1000
0000
0000
0100
0000
0100
,
0010
0000
0000
0000
0010
0000
0001
0000
0000
0000
0001
0000
0010
0000
0000
0000
0000
0000
0000
0000
0000
0100
0000
0000
1000
0000
0000
0000
0000
0000
0100
0000
0000
0000
0010
0000
0000
0000
0000
0000
0000
0000
0001
0000
0000
0000
0000
0000
,
0011
0000
0100
1000
0000
1000
0100
0000
0100
0010
0000
0010
0001
0000
0000
0100
0000
0000
0101
0000
0000
0000
0000
0000
,
1010
0000
0010
1000
0000
0000
0100
0000
0000
0010
0000
0010
0001
0000
0010
0000
0000
0000
1100
0000
0000
0000
0000
0000
,
0010
0000
0001
0100
0000
0010
0000
0000
1000
0100
0000
0100
0010
0000
0010
0001
0000
0000
0011
0000
0000
0110
0000
0010
,
0100
0000
0100
1000
0000
1000
0010
0000
0000
0000
0000
0100
0001
0000
0000
0010
0000
0010
0100
0000
0000
0000
0000
0000
,
1000
0000
1000
0010
0000
0010
0100
0000
0001
0000
0000
0000
0100
0000
0000
0010
0000
0010
1000
0000
0000
0000
0000
0000
,
0100
0000
0000
0010
0000
0000
0001
0000
0001
0010
0000
0000
0100
0000
0000
1000
0000
1000
0010
0000
0000
0000
0000
0000
,
0001
0000
0010
0000
0000
1000
0100
0000
0000
0001
0000
0001
0100
0000
0000
1000
0000
0010
0100
0000
0000
0000
0000
0001
,
0100
0000
0100
0010
0000
0010
1000
0000
0000
0000
0000
0000
0100
0000
0000
0010
0000
0001
0010
0000
0100
0000
0000
0000
,
1000
0000
0000
0000
0000
0001
1000
0000
1000
0100
0000
0000
0010
0000
0000
0001
0000
0000
0010
0000
0000
0100
0000
0000
,
1000
0000
0000
0010
0000
0000
0100
0000
0000
0001
0000
0001
0100
0000
0000
0010
0000
1000
0100
0000
0000
0010
0000
0001
,
0000
0000
0000
0010
0000
0000
0100
0000
0000
1000
0000
1000
0010
0000
0000
0000
0000
0000
0100
0000
0001
0000
0000
0010
,
0100
0000
0000
1000
0000
0000
0100
0000
0000
0010
0000
0000
0001
0000
0000
1000
0000
1000
0001
0000
0001
0010
0000
0000
,
0100
0000
0000
0000
0000
1000
0100
0000
0100
0010
0000
0000
0001
0000
0000
0100
0000
0000
0010
0000
0000
1000
0000
0000
,
0010
0000
0000
0100
0000
0000
0001
0000
0000
0100
0000
0100
0010
0000
0000
1000
0000
0000
0100
0000
0000
0010
0000
0010
,
0001
0000
0001
0010
0000
0100
0000
0000
0000
1000
0000
0000
0010
0000
0000
0100
0000
0000
0001
0000
0000
0100
0000
0100
,
0010
0000
0010
1000
0000
1000
0100
0000
0000
0010
0000
0010
0001
0000
0000
0010
0000
0000
0100
0000
1000
0000
0000
0000
,
1100
0011
2002
3003
;

//---------------dance-single - ----------------
#NOTES:
     dance-single:
     :
     Medium:
     5:
     0.245,0.209,0.012,0.000,0.000:
0000
0000
0000
0000
1000
0100
0000
0010
,
0001
0000
0100
0000
0010
1000
0010
0000
,
0100
0000
0001
0000
0010
0100
1000
0100
,
0010
0000
0001
0000
0100
0010
1000
0000
,
0001
0000
0100
0000
0010
1000
0010
0100
,
0001
0010
0100
1000
0100
0000
0000
0000
,
0010
0001
0100
0010
1000
0000
0000
0000
,
0001
0001
0100
0010
1000
0100
0000
0100
,
0010
0001
0100
0000
0010
1000
0100
0000
,
0100
1000
0100
0010
0001
0000
0000
0000
,
0001
0010
0100
1000
0001
0000
0000
0000
,
0100
0010
0000
0010
1000
0100
0000
0100
,
1000
0001
0100
0000
0010
1000
0010
0000
,
0100
0001
0010
0000
0001
0010
0001
0000
,
0010
0100
1000
0100
0010
0001
0010
0000
,
0100
0000
1000
0001
0100
0010
1000
0000
,
1000
0001
0010
0000
,
0001
0000
1000
0100
0010
0001
1000
0010
,
0100
0001
1000
0010
0100
0000
0001
0000
,
0010
0000
0100
1000
0001
0000
0010
0000
,
0100
0000
1000
0000
0010
0100
0001
0010
,
0100
0000
1000
0010
0100
0001
1000
0100
,
0010
0001
1000
0010
0100
0000
0000
0001
,
0010
0000
0001
0010
0100
1000
0001
0010
,
0100
1000
0001
0100
0010
1000
0010
0000
,
0100
0001
1001
0000
;

//---------------dance-single - ----------------
#NOTES:
     dance-single:
     :
     Easy:
     2:
     0.145,0.134,0.012,0.000,0.000: // measure 1
0000
0000
1000
0000
,  // measure 2
0100
0010
0000
0001
,  // measure 3
0000
0100
0000
0010
,  // measure 4
0000
1000
0000
0010
,  // measure 5
0000
0100
0001
0010
,  // measure 6
0100
1000
0100
0000
,  // measure 7
0010
0001
0010
0000
,  // measure 8
0100
0010
1000
0000
,  // measure 9
0001
0001
0100
0010
,  // measure 10
1000
0100
1000
0000
,  // measure 11
0100
0010
0001
0000
,  // measure 12
0100
0010
1000
0000
,  // measure 13
0100
0010
0001
0010
,  // measure 14
0100
1000
0010
0100
,  // measure 15
0001
0100
0010
1000
,  // measure 16
0100
0010
0001
0100
,  // measure 17
0010
1000
0001
0000
,  // measure 18
0010
0100
1000
0010
,  // measure 19
0100
0001
0100
0010
,  // measure 20
1000
0000
0100
0010
,  // measure 21
0001
0100
0010
1000
,  // measure 22
0010
0100
0001
0010
,  // measure 23
0100
1000
0001
0100
,  // measure 24
0010
1000
0010
0100
,  // measure 25
0001
0010
0100
1000
,  // measure 26
0001
1000
1001
0000
;
