#TITLE:TANK!;
#SUBTITLE:(Ua-EMP2 remix);
#ARTIST:菅野よう子 and the Seatbelts;
#TITLETRANSLIT:;
#SUBTITLETRANSLIT:;
#ARTISTTRANSLIT:Yoko Kanno and the Seatbelts;
#CREDIT:Hwoarang137;
#BANNER:bn.JPG;
#BACKGROUND:TANK!-bg.jpg;
#LYRICSPATH:;
#CDTITLE:Copy of ITG.png;
#MUSIC:TANK!.mp3;
#OFFSET:-0.180;
#SAMPLESTART:46.041;
#SAMPLELENGTH:12.580;
#SELECTABLE:YES;
#BPMS:0.000=68.960,8.000=154.000,54.000=77.800,55.000=308.000,146.000=154.000,148.000=308.000,239.000=154.000,241.000=308.000,395.000=154.000,397.000=308.000,489.000=154.000;
#STOPS:55.000=1.380
,370.000=0.195
;
#BGCHANGES:;

//---------------dance-single - Pandemonium X----------------
#NOTES:
     dance-single:
     Pandemonium X:
     Hard:
     10:
     0.673,0.845,0.197,0.300,0.026: // measure 1
0000
0000
0000
0000
,  // measure 2
0000
0000
0000
0000
,  // measure 3
1000
0001
0010
0001
0100
0010
1000
0200
,  // measure 4
1000
0000
1000
0000
0000
0310
0000
0000
,  // measure 5
0010
0001
1000
0001
1000
0010
1000
0100
,  // measure 6
2000
0000
0100
0100
0000
0010
3000
0000
,  // measure 7
0001
0100
0001
1000
0100
1000
0010
2000
,  // measure 8
0100
0000
0010
0000
0000
3001
0000
0000
,  // measure 9
0001
1000
0001
1000
0001
0100
0001
0010
,  // measure 10
0002
0000
0010
0010
0000
0100
0103
0000
,  // measure 11
0001
1000
0100
0010
0002
0000
0000
0000
,  // measure 12
1003
0000
1000
0000
0010
1000
0000
0001
0000
0010
0000
0001
0010
0000
0001
0000
,  // measure 13
1000
0001
0100
0000
0001
0010
0001
0000
,  // measure 14
0001
0000
1000
0000
1000
0100
0000
0001
0020
0000
0000
0000
0030
0000
0000
0000
,  // measure 15
0001
0010
0000
1000
0100
0000
0001
0100
,  // measure 16
0000
0010
0100
0000
0010
0000
2000
0000
,  // measure 17
0000
0000
0000
0000
,  // measure 18
0000
0000
3000
0000
,  // measure 19
0010
1000
0000
0010
0100
0000
0001
0100
,  // measure 20
0000
0001
0100
0000
0001
0000
0020
0000
,  // measure 21
0000
0000
0000
0000
,  // measure 22
0000
0000
0000
0000
0001
0000
0001
0030
,  // measure 23
0001
0010
0000
0100
1000
0000
0010
1000
,  // measure 24
0000
0001
0100
0000
0010
0000
2000
0000
,  // measure 25
0000
0000
0000
0000
,  // measure 26
0000
0000
0001
3001
,  // measure 27
1000
0010
0000
0010
0100
0000
0010
1000
,  // measure 28
0000
1000
0001
0000
0010
0000
0200
0000
,  // measure 29
0000
0000
0000
0000
,  // measure 30
0000
0000
0010
0310
,  // measure 31
1001
0000
0001
1000
0001
0100
0010
0100
,  // measure 32
0002
0000
0000
0000
,  // measure 33
0000
0000
0013
0000
0000
0001
0000
1000
,  // measure 34
0000
0010
1000
0010
,  // measure 35
0010
0100
0000
0010
1000
0000
0001
0100
,  // measure 36
0000
0001
0100
0000
0010
0000
1010
0000
,  // measure 37
0001
0100
0012
0000
,  // measure 38
1000
0000
1003
0000
0001
1000
0000
1000
,  // measure 39
0100
0000
0001
0010
0000
0001
0100
0000
,  // measure 40
0010
1000
0001
1000
,  // measure 41
0001
0100
0010
1000
0100
0000
0100
0000
,  // measure 42
0010
0000
0000
0000
0001
0100
0000
0010
,  // measure 43
1000
0000
0010
0100
0000
0001
0100
0000
,  // measure 44
0001
0000
0010
0000
0010
0000
0010
0001
,  // measure 45
0100
0010
1000
0100
1000
0000
0010
0000
,  // measure 46
0100
0000
1001
0000
0010
1000
0000
0001
,  // measure 47
0100
0000
0001
0010
0000
0100
1000
0000
,  // measure 48
1000
0020
0000
0000
,  // measure 49
0000
0000
0000
1030
0010
0100
0001
1000
,  // measure 50
0100
0000
0000
0000
0010
1000
0000
0100
,  // measure 51
1000
0000
0010
0001
0000
0001
0100
0000
,  // measure 52
0010
0100
1001
0000
,  // measure 53
0201
0000
0000
0000
,  // measure 54
0001
0000
0301
0000
0101
0000
1000
0010
,  // measure 55
0100
0001
0010
0001
0100
0000
0010
0000
,  // measure 56
1000
0000
0000
0000
1000
0000
0010
1000
,  // measure 57
0010
1000
0100
0010
0001
0000
1000
0000
,  // measure 58
0100
0000
0000
0000
1000
0100
0000
0010
,  // measure 59
0001
0000
0001
0100
0000
0010
1000
0000
,  // measure 60
1000
0000
0100
0000
0000
0000
0000
1001
,  // measure 61
1001
0000
0001
0100
,  // measure 62
0110
0010
1000
0001
,  // measure 63
0010
0001
0100
0010
,  // measure 64
2000
0000
0000
3001
0000
0000
1000
0000
,  // measure 65
0200
0000
0000
1300
0000
0000
1000
0000
,  // measure 66
0020
0000
0000
0130
0000
0000
0001
0000
,  // measure 67
0020
0000
0000
0031
0000
0000
1000
0000
,  // measure 68
0002
0000
0010
0000
,  // measure 69
0020
0030
0013
0001
,  // measure 70
1000
0000
1000
0001
,  // measure 71
0100
0100
0001
0010
,  // measure 72
0000
0000
0001
0000
1000
0001
0000
0100
,  // measure 73
0010
0000
1000
0001
0000
0010
0001
0000
,  // measure 74
2002
0000
0000
3003
,  // measure 75
2200
0000
0000
3300
,  // measure 76
2020
0000
0000
3030
,  // measure 77
0022
0000
0000
0033
,  // measure 78
0001
0010
0000
0100
1000
0000
1000
0010
,  // measure 79
0000
1000
0010
0000
1000
0000
0001
0000
,  // measure 80
1000
0000
0010
0000
0010
1000
0001
0100
,  // measure 81
0010
1000
0100
1000
0010
0001
0100
0000
,  // measure 82
0001
0100
0000
0100
0010
0000
0010
1000
,  // measure 83
0000
1000
0100
0000
0010
0000
0001
0000
,  // measure 84
0001
0010
0000
0010
0100
0000
0100
1000
,  // measure 85
0000
1000
0010
0000
1000
0000
0001
0000
,  // measure 86
0001
0100
0000
0010
1000
0000
1000
0001
,  // measure 87
0000
0001
1000
0000
0001
0000
0200
0000
,  // measure 88
0000
0000
0000
0000
,  // measure 89
0000
0000
0001
0301
,  // measure 90
1000
0000
0001
0000
1000
0001
1000
0000
,  // measure 91
1000
0000
0001
0000
0001
0010
0001
0000
,  // measure 92
0010
0000
0001
0000
1000
0001
1000
0000
,  // measure 93
1000
0001
1010
1000
,  // measure 94
0010
1000
0001
0010
0100
1000
0002
0000
,  // measure 95
0000
0000
0000
0000
,  // measure 96
1000
0000
0000
0010
0000
0010
0000
0000
,  // measure 97
0013
0000
0001
0000
0010
0000
0010
0001
,  // measure 98
0000
0100
1000
0000
0001
0010
0000
0001
,  // measure 99
1000
0000
0001
0000
0010
0000
0001
1000
,  // measure 100
2002
3003
0000
1000
,  // measure 101
1000
0001
0100
0000
0001
0000
0010
0000
,  // measure 102
0001
0100
0010
1000
,  // measure 103
0010
0100
0001
0010
,  // measure 104
0100
1000
0010
1000
,  // measure 105
1000
0001
0100
0001
0000
0001
0100
0000
,  // measure 106
0010
1000
0000
1000
0100
0000
1000
0000
,  // measure 107
0001
0100
0010
1000
,  // measure 108
0100
0000
1000
0100
0000
1000
0000
0000
,  // measure 109
0000
1000
0100
0010
,  // measure 110
0001
0100
0010
1000
,  // measure 111
0001
1001
0000
1100
,  // measure 112
0000
0010
0000
0001
,  // measure 113
0100
0110
0000
1010
,  // measure 114
0000
0101
0000
0011
,  // measure 115
0010
0001
0100
0010
,  // measure 116
1000
0001
1000
0010
,  // measure 117
1000
0000
1010
0000
0010
1000
0001
0100
,  // measure 118
0001
0010
0200
0000
0000
0000
0000
0000
,  // measure 119
0000
0000
0000
0000
1000
0000
0000
1000
,  // measure 120
0000
1000
0300
0000
1000
0000
0010
0000
,  // measure 121
1000
0000
0001
1000
0010
1000
0100
0010
,  // measure 122
0001
0010
0100
1000
0010
0100
0001
0100
,  // measure 123
0010
2000
0002
0000
0000
0000
0000
0000
,  // measure 124
3003
0000
0000
0000
;

//---------------dance-single - Pandemonium X----------------
#NOTES:
     dance-single:
     Pandemonium X:
     Medium:
     7:
     0.477,0.686,0.309,0.180,0.000: // measure 1
0000
0000
0000
0000
,  // measure 2
0000
0000
0000
0000
,  // measure 3
1000
0001
0100
0010
,  // measure 4
1010
0000
0101
0000
0000
0001
0000
0000
,  // measure 5
0100
0010
1000
0100
,  // measure 6
1100
0000
1000
1000
0000
0100
0000
0000
,  // measure 7
1000
0100
0010
0001
,  // measure 8
0101
0000
1001
0000
0000
1100
0000
0000
,  // measure 9
1000
0100
0010
0001
,  // measure 10
1000
0000
1000
0001
0000
1001
0000
0000
,  // measure 11
0001
0100
0010
1000
0100
0000
0000
0000
,  // measure 12
1000
0000
0100
1000
0000
0000
0000
0000
,  // measure 13
1100
0100
0010
0001
,  // measure 14
1001
0101
1020
0030
,  // measure 15
0010
0000
0000
0000
1000
0000
0000
0001
,  // measure 16
0000
0100
0001
0020
,  // measure 17
0000
0000
0000
0000
,  // measure 18
0000
0000
0030
0000
,  // measure 19
0001
0000
0000
0000
1000
0000
0000
0001
,  // measure 20
0000
0001
0100
0020
,  // measure 21
0000
0000
0000
0000
,  // measure 22
0000
0000
0100
0130
,  // measure 23
0010
0000
0000
0000
1000
0000
0000
0001
,  // measure 24
0000
1000
0001
0200
,  // measure 25
0000
0000
0000
0000
,  // measure 26
0000
0000
0001
0301
,  // measure 27
0100
0000
0000
0000
0001
0000
0000
0010
,  // measure 28
0000
0001
0100
0020
,  // measure 29
0000
0000
0000
0000
,  // measure 30
0000
0000
0030
0000
,  // measure 31
0010
1000
0100
1000
,  // measure 32
0020
0000
0000
0030
,  // measure 33
1000
0000
1001
0000
,  // measure 34
0001
0000
0011
0000
,  // measure 35
0001
0000
0000
0000
0100
0000
0000
0010
,  // measure 36
0000
1000
0001
1000
,  // measure 37
1000
0001
2002
3003
,  // measure 38
0001
1000
0001
0000
,  // measure 39
0100
0000
0000
0001
0000
0000
0010
0000
,  // measure 40
0001
0100
0010
1000
,  // measure 41
0100
0010
0011
1100
,  // measure 42
1001
0000
0001
0000
,  // measure 43
1000
0000
0000
0001
0000
0000
0100
0000
,  // measure 44
0010
1000
0010
0100
,  // measure 45
0001
0010
0011
1100
,  // measure 46
1010
0000
1000
0000
,  // measure 47
0001
0000
0000
0100
0000
0000
0010
0000
,  // measure 48
1000
0200
0000
0000
,  // measure 49
0300
0000
1000
0001
,  // measure 50
0100
0000
0001
0000
,  // measure 51
1000
0000
0000
0010
0000
0000
1000
0000
,  // measure 52
0100
1000
1100
0000
,  // measure 53
0011
0000
0000
0000
,  // measure 54
0001
1000
0001
0100
,  // measure 55
0010
1000
1010
1100
,  // measure 56
1001
0000
0001
0100
,  // measure 57
0001
0010
0011
1100
,  // measure 58
1001
0000
0001
0000
,  // measure 59
1000
0000
0000
0001
0000
0000
0100
0000
,  // measure 60
0010
0000
1000
0000
0000
0000
0000
0010
,  // measure 61
0010
0000
1000
0001
,  // measure 62
1000
0000
0001
0000
,  // measure 63
1000
0000
0100
0000
,  // measure 64
1000
0000
0000
0100
0000
0000
1000
0000
,  // measure 65
0100
0000
0000
0010
0000
0000
0001
0000
,  // measure 66
0100
0000
0000
0010
0000
0000
1000
0000
,  // measure 67
0001
0000
0000
0100
0000
0000
0010
0000
,  // measure 68
2010
0000
0000
0000
,  // measure 69
0020
0000
0000
0000
,  // measure 70
3030
0000
0000
0010
,  // measure 71
0100
0001
1000
0010
,  // measure 72
0000
0000
1000
0000
0000
0010
0000
0000
,  // measure 73
0100
0000
0000
0001
0000
0000
0010
0000
,  // measure 74
0002
0000
0000
0000
,  // measure 75
2000
0000
0000
0003
,  // measure 76
0200
0000
0000
0300
,  // measure 77
0020
0000
0000
3030
,  // measure 78
0010
0000
0000
0000
0100
0000
0000
0001
,  // measure 79
0000
1000
0001
1000
,  // measure 80
0100
0100
0010
0100
,  // measure 81
0010
0001
1000
0001
,  // measure 82
1000
0000
0000
0000
1000
0000
0000
0001
,  // measure 83
0000
0100
0010
1000
,  // measure 84
0001
0000
0000
0000
0001
0000
0000
1000
,  // measure 85
0000
0001
1001
1001
,  // measure 86
0001
0000
0000
0000
0100
0000
0000
0010
,  // measure 87
0000
1000
0100
2000
,  // measure 88
0000
0000
0000
0000
,  // measure 89
0000
0000
3000
0000
,  // measure 90
1000
0000
0100
0000
1000
0100
1000
0000
,  // measure 91
0010
0000
0001
0000
0010
0001
0010
0000
,  // measure 92
0001
0000
0100
0000
0001
0100
0001
0000
,  // measure 93
0100
0010
0110
0010
,  // measure 94
1000
0100
1000
0020
,  // measure 95
0000
0000
0000
1030
,  // measure 96
0000
0100
0000
1000
,  // measure 97
0010
0100
0000
0001
,  // measure 98
0000
0000
0100
0000
0000
0010
0000
0000
,  // measure 99
1000
0010
1000
0000
,  // measure 100
2020
3030
0000
0010
,  // measure 101
1000
0010
0000
1000
,  // measure 102
0000
0001
0000
1000
,  // measure 103
0001
0100
0000
0001
,  // measure 104
0000
0100
0000
0010
,  // measure 105
1000
0100
0000
1000
,  // measure 106
0000
0010
0000
0100
,  // measure 107
0001
0010
0001
0100
,  // measure 108
0010
0000
1000
0010
0000
1000
0000
0000
,  // measure 109
0000
0010
1000
0010
,  // measure 110
0000
0100
0001
0010
,  // measure 111
0000
0010
0001
0100
,  // measure 112
0000
0100
0010
1000
,  // measure 113
0000
1010
0000
0101
,  // measure 114
0000
1001
0000
0010
,  // measure 115
1000
0010
0100
0001
,  // measure 116
0010
0001
0100
0010
,  // measure 117
1000
0100
1000
0010
,  // measure 118
0100
0002
0000
0000
,  // measure 119
0000
0000
0003
0000
0001
0000
0000
1000
,  // measure 120
0000
1000
0000
0000
0001
0000
1000
0000
,  // measure 121
0001
0100
0010
1000
,  // measure 122
0100
0000
0010
0000
0001
0000
0100
0001
,  // measure 123
0100
0001
0020
0000
0000
0000
0000
0000
,  // measure 124
0030
0000
0000
0000
;

//---------------dance-single - Pandemonium X----------------
#NOTES:
     dance-single:
     Pandemonium X:
     Easy:
     6:
     0.378,0.581,0.206,0.223,0.000: // measure 1
0000
0000
0000
0000
,  // measure 2
0000
0000
0000
0000
,  // measure 3
1000
0001
0100
0002
,  // measure 4
0000
0000
0000
0003
,  // measure 5
0001
0100
0010
0200
,  // measure 6
0000
0000
0000
0300
,  // measure 7
0010
1000
0100
2000
,  // measure 8
0000
0000
0000
3000
,  // measure 9
1000
0100
1000
0020
,  // measure 10
0000
0000
0000
0030
,  // measure 11
0010
0100
0202
0303
,  // measure 12
0001
0001
0100
0010
,  // measure 13
1000
0001
0100
0001
,  // measure 14
0011
1100
1001
0000
,  // measure 15
0001
0000
1000
0000
,  // measure 16
0001
0000
0200
0002
,  // measure 17
0000
0000
0000
0000
,  // measure 18
0000
0000
0303
0000
,  // measure 19
0001
0000
0100
0000
,  // measure 20
0010
0000
0020
0200
,  // measure 21
0000
0000
0000
0000
,  // measure 22
0330
0000
0010
1000
,  // measure 23
0010
0000
1000
0000
,  // measure 24
0010
0000
2000
0200
,  // measure 25
0000
0000
0000
0000
,  // measure 26
3300
0000
1000
0100
,  // measure 27
1000
0000
0100
0000
,  // measure 28
0010
0000
0002
0020
,  // measure 29
0000
0000
0000
0000
,  // measure 30
0033
0000
0000
0000
,  // measure 31
0011
0000
0101
0000
,  // measure 32
2002
0000
3003
0000
,  // measure 33
0001
0000
1000
0000
,  // measure 34
0001
1000
0100
0000
,  // measure 35
1000
0000
0100
0000
,  // measure 36
1000
0000
0010
0100
,  // measure 37
0001
0010
0002
0000
,  // measure 38
0013
0001
0011
0000
,  // measure 39
0001
0000
0100
0000
,  // measure 40
0010
0000
1000
0010
,  // measure 41
0100
0001
0010
0001
,  // measure 42
0100
0000
0001
0000
,  // measure 43
0001
0000
1000
0000
,  // measure 44
1000
0000
1000
0010
,  // measure 45
0100
0001
0010
0001
,  // measure 46
0100
0000
0010
0000
,  // measure 47
1000
0000
0010
0000
,  // measure 48
0200
0000
0000
0000
,  // measure 49
0300
0000
0010
0100
,  // measure 50
0010
0000
0010
0000
,  // measure 51
1000
0000
0100
0000
,  // measure 52
1000
0000
1100
0000
,  // measure 53
0011
0000
0000
0000
,  // measure 54
0000
0000
1000
0001
,  // measure 55
1000
0001
1000
0001
,  // measure 56
1000
0000
0010
0100
,  // measure 57
0010
0100
0010
0100
,  // measure 58
0010
0000
0100
0000
,  // measure 59
0001
0000
0100
0000
,  // measure 60
0010
0100
0000
0000
,  // measure 61
0000
0000
0000
0000
,  // measure 62
0110
0000
0010
0000
,  // measure 63
0100
0000
0010
0000
,  // measure 64
1000
0000
0100
0000
,  // measure 65
1000
0000
0010
0000
,  // measure 66
0001
0000
0010
0000
,  // measure 67
1000
0000
0010
0000
,  // measure 68
0001
0000
0010
0000
,  // measure 69
1000
0000
1000
0010
,  // measure 70
1010
0000
0000
0010
,  // measure 71
1000
0100
1000
0010
,  // measure 72
0100
0000
0101
0000
,  // measure 73
0100
0000
1010
0000
,  // measure 74
0002
0000
0003
0000
,  // measure 75
2000
0000
3000
0000
,  // measure 76
0200
0000
0300
0000
,  // measure 77
2000
0000
3000
0000
,  // measure 78
1000
0000
0100
0000
,  // measure 79
0001
0000
0100
0000
,  // measure 80
1000
0100
0010
0001
,  // measure 81
0100
0010
1000
0001
,  // measure 82
0100
0000
0100
0000
,  // measure 83
0001
0000
0001
0000
,  // measure 84
0101
0000
0011
0000
,  // measure 85
1100
0000
1010
0000
,  // measure 86
1000
0000
0010
0000
,  // measure 87
0100
0000
0001
0020
,  // measure 88
0000
0000
0000
0000
,  // measure 89
0000
0000
0030
0000
,  // measure 90
0010
0001
0100
0000
,  // measure 91
0100
0010
1000
0000
,  // measure 92
0010
1000
0100
1000
,  // measure 93
0010
0100
0101
0001
,  // measure 94
0000
0100
0000
0010
,  // measure 95
0000
0000
0000
0010
,  // measure 96
0000
1000
0000
0100
,  // measure 97
0000
1000
0000
0010
,  // measure 98
0000
0100
0000
0001
,  // measure 99
0000
0010
0000
0000
,  // measure 100
1100
0000
0000
0000
,  // measure 101
0000
1000
0000
0001
,  // measure 102
0000
0100
0000
0001
,  // measure 103
0000
0010
0000
0001
,  // measure 104
0000
0100
0000
1000
,  // measure 105
0000
0100
0000
0001
,  // measure 106
0000
0010
0000
1000
,  // measure 107
0000
0010
0000
0001
,  // measure 108
0000
0101
0000
0101
,  // measure 109
0000
0001
0000
0100
,  // measure 110
0000
0010
0000
1000
,  // measure 111
0000
0100
0000
0010
,  // measure 112
0000
0100
0000
1000
,  // measure 113
0000
0010
0000
0100
,  // measure 114
0000
0001
0000
0010
,  // measure 115
0000
0100
0000
1000
,  // measure 116
0000
0010
0000
0100
,  // measure 117
0000
0001
0010
0001
,  // measure 118
0100
0020
0000
0000
,  // measure 119
0000
0130
0000
0010
,  // measure 120
1000
0001
0000
1001
,  // measure 121
0000
1000
0001
0100
,  // measure 122
0010
1000
0100
0010
,  // measure 123
0100
2200
0000
0000
,  // measure 124
3300
0000
0000
0000
;

//---------------dance-single - Pandemonium X----------------
#NOTES:
     dance-single:
     Pandemonium X:
     Beginner:
     3:
     0.178,0.420,0.137,0.000,0.000: // measure 1
0000
0000
0000
0000
,  // measure 2
0000
0000
0000
0000
,  // measure 3
0000
0000
0000
0000
,  // measure 4
1000
1000
0000
0000
,  // measure 5
0000
0000
0000
0000
,  // measure 6
0001
0001
0001
0001
,  // measure 7
0000
0000
0000
0000
,  // measure 8
0010
0010
0000
0110
,  // measure 9
0000
0000
0000
0000
,  // measure 10
0100
0000
0000
0000
,  // measure 11
1001
0000
0000
0000
,  // measure 12
0000
0000
0000
0000
,  // measure 13
1000
0000
0000
0000
,  // measure 14
0001
0001
0001
0000
,  // measure 15
0100
0000
0000
0000
,  // measure 16
0000
0000
0000
0000
,  // measure 17
0000
0000
0000
0000
,  // measure 18
0000
0000
0000
0000
,  // measure 19
1000
0000
0000
0000
,  // measure 20
0000
0000
1000
0000
,  // measure 21
0000
0000
0000
0000
,  // measure 22
0000
0000
0000
0000
,  // measure 23
1001
0000
0000
0000
,  // measure 24
0000
0000
0010
0000
,  // measure 25
0000
0000
0000
0000
,  // measure 26
0000
0000
0000
0000
,  // measure 27
0110
0000
0000
0000
,  // measure 28
0000
0000
0100
0000
,  // measure 29
0000
0000
0000
0000
,  // measure 30
0000
0000
0000
0000
,  // measure 31
1000
0000
1000
0000
,  // measure 32
1000
0000
0000
0000
,  // measure 33
0000
0000
0001
0000
,  // measure 34
0000
0000
0000
0000
,  // measure 35
0100
0000
0010
0000
,  // measure 36
0100
0000
0000
1001
,  // measure 37
0000
0000
0000
0000
,  // measure 38
1000
1000
1000
0000
,  // measure 39
0000
0000
0000
0000
,  // measure 40
0000
0000
0001
0000
,  // measure 41
0001
0000
1000
0000
,  // measure 42
0100
0000
0010
0000
,  // measure 43
0010
0000
0000
0000
,  // measure 44
0000
0000
0100
0000
,  // measure 45
0100
0000
0100
0000
,  // measure 46
0100
0000
1001
0000
,  // measure 47
0000
0000
0000
0000
,  // measure 48
0000
0000
0000
0000
,  // measure 49
0000
0000
0001
1000
,  // measure 50
0001
0000
1000
0000
,  // measure 51
0000
0000
0000
0000
,  // measure 52
0000
0000
0100
0000
,  // measure 53
0100
0000
0000
0000
,  // measure 54
0000
0000
0010
0000
,  // measure 55
0010
0000
0010
0000
,  // measure 56
0010
0000
1001
0000
,  // measure 57
1001
0000
1001
0000
,  // measure 58
1001
0000
0100
0000
,  // measure 59
1000
0000
0001
0000
,  // measure 60
0010
0000
0000
0000
,  // measure 61
0000
0000
0000
0000
,  // measure 62
1000
0000
0000
0000
,  // measure 63
0000
0000
0000
0000
,  // measure 64
0001
0000
0000
0000
,  // measure 65
0001
0000
0000
0000
,  // measure 66
1000
0000
0000
0000
,  // measure 67
0100
0000
0000
0000
,  // measure 68
0010
0000
0000
0000
,  // measure 69
0001
0000
0000
0000
,  // measure 70
0000
0000
0000
0000
,  // measure 71
1000
0000
1000
0000
,  // measure 72
0000
0100
0000
0000
,  // measure 73
0010
0000
0000
0000
,  // measure 74
0001
0000
0000
0000
,  // measure 75
1000
0000
0000
0000
,  // measure 76
0100
0000
0000
0000
,  // measure 77
0010
0000
0000
0000
,  // measure 78
1001
0000
0000
0000
,  // measure 79
0000
0000
0000
0000
,  // measure 80
0100
0000
0100
0000
,  // measure 81
0010
0000
1000
0000
,  // measure 82
0001
0000
0000
0000
,  // measure 83
0000
0000
0000
0000
,  // measure 84
0001
0000
0000
0000
,  // measure 85
0000
0000
0000
0000
,  // measure 86
1000
0000
0000
0000
,  // measure 87
0100
0000
0000
0010
,  // measure 88
0000
0000
0000
0000
,  // measure 89
0000
0000
0000
0000
,  // measure 90
0001
0000
0001
0000
,  // measure 91
1000
0000
1000
0000
,  // measure 92
0100
0000
0010
0000
,  // measure 93
0001
0000
1001
0000
,  // measure 94
0000
0000
0000
1000
,  // measure 95
0000
0000
0000
0000
,  // measure 96
0000
0000
0000
0000
,  // measure 97
0000
0000
0000
0001
,  // measure 98
0000
0000
0000
1000
,  // measure 99
0000
0000
0000
0100
,  // measure 100
0100
0000
0000
0000
,  // measure 101
0000
0010
0000
0000
,  // measure 102
0000
0000
0000
0000
,  // measure 103
0000
0000
0000
0000
,  // measure 104
0000
0000
0000
1000
,  // measure 105
0000
1000
0000
0000
,  // measure 106
0000
0000
0000
0000
,  // measure 107
0000
0001
0000
0000
,  // measure 108
0000
1000
0000
0000
,  // measure 109
0000
0100
0000
0010
,  // measure 110
0000
0001
0000
1000
,  // measure 111
0000
0100
0000
0000
,  // measure 112
0000
0010
0000
0000
,  // measure 113
0000
0001
0000
0001
,  // measure 114
0000
1000
0000
1000
,  // measure 115
0000
0100
0000
0010
,  // measure 116
0000
0001
0000
1000
,  // measure 117
0000
1001
0000
1001
,  // measure 118
0000
0110
0000
0000
,  // measure 119
0000
0000
0000
0000
,  // measure 120
1000
0000
0000
0000
,  // measure 121
0000
0001
0000
1000
,  // measure 122
0000
0001
0000
1000
,  // measure 123
0001
1001
0000
0000
;

//---------------dance-single - Pandemonium X----------------
#NOTES:
     dance-single:
     Pandemonium X:
     Challenge:
     11:
     0.888,1.000,0.618,0.361,0.155: // measure 1
0000
0000
0000
0000
,  // measure 2
0000
0000
0000
0000
,  // measure 3
1000
0001
0000
1000
0001
0000
0001
0100
0000
0100
0010
0000
1000
0000
0010
0000
,  // measure 4
1010
0000
0101
0000
0000
1001
0000
0000
,  // measure 5
0001
0010
0000
0001
0010
0000
0100
1000
0000
0100
1000
0000
0100
0000
1000
0000
,  // measure 6
1020
0000
1000
1000
0000
0130
0000
0000
,  // measure 7
0010
1000
0000
0010
0100
0000
0100
0001
0000
0001
0010
0000
0001
0000
0100
0000
,  // measure 8
0101
0000
1010
0000
0000
1100
0000
0000
,  // measure 9
1000
0100
0000
0100
0010
0000
0001
0010
0000
0100
1000
0000
1000
0000
0010
0000
,  // measure 10
1020
0000
1000
1000
0000
1000
0030
0000
,  // measure 11
1000
0010
0100
0001
0010
0001
0100
0010
2000
0000
0000
0000
3000
0000
0000
0000
,  // measure 12
0002
0000
0010
0010
0000
0000
0003
0000
,  // measure 13
0010
1000
0000
0010
0100
0000
0100
0001
0000
0001
0010
0000
0001
0000
0010
0000
,  // measure 14
0011
0000
0000
0000
0000
0000
0000
0000
1100
0000
0000
0000
0000
0000
0000
0000
1000
0000
0000
0000
0100
0000
0000
0000
0000
0000
0000
0000
1000
0000
0000
0000
0100
0000
0001
0000
0100
0000
1000
0000
0010
0000
0100
0000
0010
0000
2000
0000
0000
3000
0000
0000
0000
0000
0000
0000
0000
0000
0000
0000
0000
0000
0000
0000
,  // measure 15
0010
1000
0000
1000
0100
0000
0100
0010
,  // measure 16
0000
0010
0001
0000
0010
0000
0002
0000
,  // measure 17
0010
0000
0010
0000
,  // measure 18
0010
0000
0013
0000
,  // measure 19
0001
0010
0000
0100
1000
0000
1000
0010
,  // measure 20
0000
0100
0001
0000
0100
0000
0020
0000
,  // measure 21
1000
0000
0001
0000
,  // measure 22
1030
0000
1010
1010
,  // measure 23
0010
1000
0000
1000
0100
0000
0100
0010
,  // measure 24
0000
0010
0001
0000
0100
0000
0020
0000
,  // measure 25
1000
0000
0001
0000
,  // measure 26
1030
0000
1010
1100
,  // measure 27
1000
0010
0000
1000
0100
0000
0010
0001
,  // measure 28
0000
0010
0001
0000
0001
0000
0100
0000
,  // measure 29
0001
0000
1100
0000
,  // measure 30
0001
0000
1000
1000
,  // measure 31
0101
0000
0100
0001
0100
0010
1000
0100
,  // measure 32
2000
0000
0000
3000
,  // measure 33
1010
0000
1000
0000
0010
1000
0000
0100
,  // measure 34
0000
1000
0100
0000
0010
0000
0100
0000
,  // measure 35
1000
0100
0000
0100
0001
0000
0001
0100
,  // measure 36
0000
1000
0010
0000
1000
0000
0110
0000
,  // measure 37
1010
0101
0022
0033
,  // measure 38
1001
0000
1001
0000
1000
0001
0000
1000
,  // measure 39
0100
0000
1000
0100
0000
0100
1000
0000
,  // measure 40
1000
0000
0010
0000
1010
0000
0010
1000
,  // measure 41
0100
1000
0010
0100
0001
0000
0011
0000
,  // measure 42
1100
0000
2002
3003
0001
0100
0000
0010
,  // measure 43
1000
0000
1000
0100
0000
0010
0001
0000
,  // measure 44
0001
0000
0100
0000
0101
0000
0001
0100
,  // measure 45
1000
0100
0010
0100
1000
0000
0101
0000
,  // measure 46
0011
0000
2002
3003
0001
0100
0000
0100
,  // measure 47
1000
0000
0100
0001
0000
0001
0010
0000
,  // measure 48
0011
1100
1001
0000
,  // measure 49
1001
0000
0000
0000
0000
0000
0000
0000
0000
0000
0000
0000
0001
0000
0100
0000
0001
0000
0100
0000
0000
0001
0000
0000
,  // measure 50
0010
0000
0000
0000
0001
0010
0000
0010
,  // measure 51
0001
0000
0100
1000
0000
1000
0010
0000
,  // measure 52
1000
0010
1010
1000
,  // measure 53
1001
0001
0101
0001
,  // measure 54
0101
0000
1010
0000
1001
0000
1000
0010
,  // measure 55
1000
0001
0100
0001
0011
0000
1100
0000
,  // measure 56
1001
0000
2020
3030
1001
0000
0001
0100
,  // measure 57
0010
1000
0100
0001
0100
0000
1000
0000
,  // measure 58
1010
0000
0202
0303
0010
1000
0000
0100
,  // measure 59
0001
0000
0001
0010
0000
0100
0001
0000
,  // measure 60
0100
0000
0010
0000
0000
0000
0000
1010
,  // measure 61
0102
0000
0010
0013
,  // measure 62
0011
0000
0001
0010
0001
0000
0010
0001
,  // measure 63
0100
0000
0100
0010
1000
0000
0010
1000
,  // measure 64
0100
0000
0100
1000
0010
0000
0010
0100
,  // measure 65
0001
0000
1000
0001
0100
0000
0100
0010
,  // measure 66
1000
0000
1000
0100
1000
0000
0100
0010
,  // measure 67
0001
0000
0010
0001
0100
0000
0100
0001
,  // measure 68
0100
0000
0001
0010
0001
0000
0001
0100
,  // measure 69
0010
0000
0010
1000
0100
0000
0110
0000
,  // measure 70
0011
0000
0001
0010
0001
0000
0100
0000
,  // measure 71
0001
0100
0010
1000
,  // measure 72
0010
0100
0001
0010
,  // measure 73
0001
0100
0010
1000
,  // measure 74
0100
1000
0100
1000
0100
1000
0100
0000
,  // measure 75
0010
0001
0010
0001
0010
0001
0010
0000
,  // measure 76
0001
0100
0001
0100
0001
0100
0001
0000
,  // measure 77
0010
1000
0010
1000
0010
1000
0010
0000
,  // measure 78
0010
1000
0000
0010
0001
0000
0001
0010
,  // measure 79
0000
0010
0100
0000
0001
0000
0010
0000
,  // measure 80
0011
0000
1100
0000
1000
0100
0010
0001
,  // measure 81
0100
0001
0010
0001
0100
0010
1000
0100
,  // measure 82
0010
0001
0000
0100
1000
0000
0100
1000
,  // measure 83
0000
1000
0010
0000
0100
0000
0001
0000
,  // measure 84
0002
0010
0003
0020
0001
0030
0002
0100
,  // measure 85
0003
0100
0020
0000
0130
0000
1001
0000
,  // measure 86
0001
1000
0000
1000
0100
0000
1000
0010
,  // measure 87
0000
0010
0100
0000
0101
0000
2010
0000
,  // measure 88
0000
0000
0000
0000
,  // measure 89
0000
0000
0001
3001
,  // measure 90
1001
0000
0101
0000
0100
0001
0010
0000
,  // measure 91
0011
0000
1100
0000
0100
1000
0010
0000
,  // measure 92
1010
0000
0101
0000
0001
0100
0010
0000
,  // measure 93
0110
0000
0000
0000
0000
0000
0000
0000
0000
0000
0000
0000
0000
0000
0000
0000
1010
0000
0000
0000
0000
0000
0000
0000
0000
0000
0000
0000
0000
0000
0000
0000
2200
3300
0000
0000
0000
0000
0000
0000
0000
0000
0000
0000
0000
0000
0000
0000
1100
0000
0000
0000
0000
0000
0000
0000
0000
0000
0000
0000
0000
0000
0000
0000
,  // measure 94
1000
0100
0010
0001
0100
0010
2000
0000
,  // measure 95
0000
0000
3000
0010
,  // measure 96
1000
0000
0010
1000
0000
0100
0000
1000
,  // measure 97
0100
0000
0010
0000
0100
0000
1000
0100
,  // measure 98
0000
0001
0010
0000
0100
0001
0000
0100
,  // measure 99
0010
0000
0000
0000
1000
0000
0000
0000
0010
0000
0000
0000
2000
3002
0023
0032
,  // measure 100
0200
0000
0303
1000
,  // measure 101
0001
1000
0100
0000
1000
0001
0100
0000
,  // measure 102
0001
0010
0001
0000
0010
0001
0100
0000
,  // measure 103
0020
0100
0000
0100
,  // measure 104
0000
0100
0000
0100
,  // measure 105
0100
0000
0130
0010
1000
0000
0001
0010
,  // measure 106
0001
0000
0001
0100
0010
0000
1100
0000
,  // measure 107
1001
1000
0001
0100
,  // measure 108
0010
0000
1000
0200
0000
1300
0000
0000
,  // measure 109
0000
0000
1000
0000
0001
0010
0001
0000
,  // measure 110
1000
0100
1000
0000
0001
0100
0001
0000
,  // measure 111
0010
1000
0010
0000
0001
1000
0001
0000
,  // measure 112
1000
0001
1000
0000
1000
0001
0100
0000
,  // measure 113
0010
1000
2000
0100
,  // measure 114
3200
0010
0320
0001
,  // measure 115
0032
0000
1003
0001
0010
0001
0100
0010
,  // measure 116
1000
0001
0010
0001
0100
0010
1000
0001
,  // measure 117
0010
0100
1000
0000
0001
0010
0001
0100
,  // measure 118
0010
1000
0200
0000
0000
0000
0000
0000
,  // measure 119
0000
0000
1300
0000
0001
0000
0010
0001
,  // measure 120
0000
0011
0000
0001
0100
0000
0010
0000
,  // measure 121
1000
0000
0001
1000
0001
0100
0001
0010
,  // measure 122
0100
1000
0010
0100
0001
0100
0010
1000
,  // measure 123
0100
0010
2002
0000
0000
0000
0000
0000
,  // measure 124
3003
0000
0000
0000
;
