#TITLE:Super Driver;
#SUBTITLE:;
#ARTIST:Aya Hirano;
#TITLETRANSLIT:;
#SUBTITLETRANSLIT:;
#ARTISTTRANSLIT:;
#GENRE:;
#CREDIT:;
#BANNER:;
#BACKGROUND:;
#LYRICSPATH:;
#CDTITLE:;
#MUSIC:Super Driver.mp3;
#OFFSET:0.600;
#SAMPLESTART:43.700;
#SAMPLELENGTH:12.000;
#SELECTABLE:YES;
#BPMS:0.000=200.000;
#STOPS:;
#BGCHANGES:2.000=Super Driver.avi=1.000=0=0=0=StretchNoLoop====,
99999=-nosongbg-=1.000=0=0=0 // don't automatically add -songbackground-
;
#KEYSOUNDS:;

//---------------dance-single - Blank----------------
#NOTES:
     dance-single:
     Blank:
     Hard:
     9:
     0.938,0.968,0.832,0.215,0.057,385.000,58.000,15.000,0.000,0.000,0.000,0.938,0.968,0.832,0.215,0.057,385.000,58.000,15.000,0.000,0.000,0.000:
0000
0000
0000
0000
,
0000
0000
0000
0000
,
0000
0000
0000
0000
0100
0001
0001
0000
,
0000
0000
0000
0000
,
0000
0000
0100
1001
,
0010
0001
0010
0100
0000
1000
0010
0000
,
0010
0100
0001
0100
0010
1000
0010
1000
,
0001
0010
0100
0010
0000
0001
1000
0000
,
0010
0100
0001
0000
1100
0000
0101
0000
,
1001
0000
0010
0100
0001
0100
0010
1000
,
0100
1000
0001
0100
0010
1000
0001
1000
,
0100
0010
0001
0100
0000
0001
1000
0001
,
0000
0100
0010
0000
1000
0001
1000
0000
,
0011
0000
0101
0000
0010
1000
0100
0000
,
1001
1100
0020
2030
,
3001
0000
0001
0010
0000
0010
0000
0100
,
0000
1000
0010
0000
0101
0000
1001
0000
,
1010
0000
0100
0001
0010
0100
0010
0001
,
1000
0010
0100
0001
1000
0100
1000
0001
,
0100
0010
1000
0001
0000
0010
0100
0010
,
0000
0001
0100
0000
0010
1000
0001
0000
,
0011
0000
0110
0000
0100
1000
0001
0000
,
0101
0110
2000
3002
,
0013
0000
0100
1000
0000
0001
0000
0100
,
0000
0010
0100
0000
0001
0010
0100
1000
,
0010
0100
0010
0100
0000
0001
0010
0001
,
0000
1000
0001
0000
1001
0000
0010
0100
,
0001
0000
1000
0000
0100
1000
0001
0020
,
0000
0001
1000
0031
,
0100
0010
0100
0010
0000
1000
0100
1000
,
0000
0001
1000
0000
0010
0000
1000
0001
,
0200
0000
0000
1000
0000
0000
0301
0000
,
0020
0000
0000
1000
0000
0000
0130
0000
,
2000
0000
0010
0000
3001
1000
0001
0100
,
0020
0001
1000
0031
,
1010
1010
0011
0011
,
1001
0000
0000
0000
0010
0000
0100
0000
0001
0000
0010
0100
1000
0001
0100
0000
,
1001
0000
0101
0000
1100
0000
0001
0100
,
0000
1010
0000
1100
0000
0010
0001
0100
,
0010
0000
1010
0000
1100
0000
0001
0100
,
0000
1001
0000
0010
0100
0001
1000
0000
,
0100
1100
0001
0101
,
0010
1001
0100
0011
,
0200
1000
0001
0310
,
1000
0000
0001
0000
0000
0000
1001
0000
0000
0000
0010
0100
0010
1000
0100
0000
,
0110
0000
0011
0000
1001
0000
0010
0100
,
0000
0101
0000
1100
0000
1000
0010
0100
,
0001
0000
0011
0000
0110
0000
0100
1000
,
0000
1001
0000
0100
0010
1000
0001
0000
,
0100
0101
0010
1010
,
0001
1100
0010
0101
,
2001
0100
0010
3001
,
0100
0010
1000
0110
0001
0000
1100
0000
,
0001
0010
0001
0000
1000
0010
1000
0100
,
0000
0010
0001
0000
1000
0000
0001
0100
,
0010
0000
1000
0000
0001
1000
0001
0020
,
0000
0001
1000
0130
,
1000
0010
1000
0000
0001
0100
0001
0010
,
0000
0100
1000
0000
0001
0000
0100
0010
,
1000
0000
0001
0000
0010
0001
0010
0200
,
0000
0000
1300
0000
0001
0000
0000
0000
1001
0000
0000
0000
0110
0000
0100
0001
,
0100
0010
0100
0010
1000
0100
1000
0100
,
0010
0001
1000
0010
1000
0001
0010
0100
,
0010
0001
0010
0001
1000
0010
1000
0001
,
1000
0000
0000
0000
0011
0000
0000
0000
1010
0000
0000
0000
1001
0000
1000
0010
,
1000
0100
1000
0100
0010
0001
0010
0001
,
0100
0010
1000
0100
1000
0001
0100
0010
,
1001
0000
0000
0000
0110
0000
0000
0011
,
0000
0000
0011
0000
0010
0000
0100
0000
1000
0000
0001
0100
0010
1000
0010
0000
,
0100
0001
0010
0100
0000
1000
0001
0000
,
0100
0010
1000
0001
0010
0100
0010
0001
,
1000
0010
0100
0001
0000
2000
0002
0000
,
0000
0000
0000
0000
,
0000
0000
0000
0000
,
0000
0000
0000
0000
,
3003
0000
0000
0000
;

//---------------dance-single - Blank----------------
#NOTES:
     dance-single:
     Blank:
     Medium:
     7:
     0.676,0.753,0.502,0.158,0.000,284.000,35.000,11.000,0.000,0.000,0.000,0.676,0.753,0.502,0.158,0.000,284.000,35.000,11.000,0.000,0.000,0.000: // measure 1
0000
0000
0000
0000
,  // measure 2
0000
0000
0000
0000
,  // measure 3
0000
0000
0000
0000
,  // measure 4
0000
0000
0000
0000
,  // measure 5
0000
0000
0100
1001
,  // measure 6
0100
0000
0010
1000
0000
0010
2000
0000
,  // measure 7
0000
3000
0001
1000
,  // measure 8
0100
0000
1000
0010
0000
1000
0020
0000
,  // measure 9
0000
0130
0101
1100
,  // measure 10
1001
0100
1100
0001
,  // measure 11
0101
0010
1000
0001
,  // measure 12
0010
0000
0100
0000
1000
0001
1000
0001
,  // measure 13
0000
0100
0010
0000
1000
0010
0100
0000
,  // measure 14
0101
0000
0000
0000
0001
0010
0100
0000
,  // measure 15
1100
0000
0010
1000
,  // measure 16
0001
0000
0100
0010
0000
1000
0000
0100
,  // measure 17
0000
0000
1100
0101
,  // measure 18
1001
0100
0101
0010
,  // measure 19
1010
1000
0100
0010
,  // measure 20
0001
0000
1000
0000
0010
0100
0010
0100
,  // measure 21
0000
0001
1000
0000
0100
0010
0100
0000
,  // measure 22
1100
0000
0000
0000
0001
0100
0001
0000
,  // measure 23
0110
0000
0001
1000
,  // measure 24
0010
0000
0100
0001
0000
1000
0000
0100
,  // measure 25
0000
1000
0001
0100
,  // measure 26
0010
1000
0010
0000
0100
0000
0001
0100
,  // measure 27
0001
0000
0101
0000
1100
0000
0010
0001
,  // measure 28
0100
0000
0010
0000
1000
0001
1000
0002
,  // measure 29
0000
0000
0010
0013
,  // measure 30
0100
0001
0100
0000
0001
0000
1000
0010
,  // measure 31
1000
0000
1010
0000
0011
0000
1000
0001
,  // measure 32
1000
0000
0000
0020
0000
0000
0000
0030
,  // measure 33
1001
0000
0000
0200
0000
0000
0010
0300
,  // measure 34
0020
0000
0000
0000
0000
1030
0100
2000
,  // measure 35
0000
0000
0001
3001
,  // measure 36
0110
0110
1001
1001
,  // measure 37
0010
0000
0001
1000
0000
0000
1001
0000
,  // measure 38
0100
0000
0100
0000
0010
0000
0010
1000
,  // measure 39
0000
1000
0000
0001
0000
0010
0100
0000
,  // measure 40
1000
0000
1000
0000
0001
0000
0001
0100
,  // measure 41
0000
0100
0000
0000
0001
0000
0010
0000
,  // measure 42
0100
1100
0010
0110
,  // measure 43
0001
0011
0100
0101
,  // measure 44
1000
0100
0010
0001
,  // measure 45
1000
0001
0000
0010
0000
0000
1001
0000
,  // measure 46
0100
0000
0100
0000
1000
0000
1000
0010
,  // measure 47
0000
0010
0000
0100
0000
0001
0010
0000
,  // measure 48
0001
0000
0001
0000
0100
0000
0100
0010
,  // measure 49
0000
0010
0000
0000
1000
0000
0001
0000
,  // measure 50
0100
0101
0010
0011
,  // measure 51
0100
0110
1000
1100
,  // measure 52
0001
0100
0010
1000
,  // measure 53
0001
1000
0001
1000
0000
0000
0100
0000
,  // measure 54
0010
0001
0010
0000
0100
1000
0100
0000
,  // measure 55
0010
0000
0001
0000
1000
0000
0010
0100
,  // measure 56
0010
1000
0001
0100
,  // measure 57
0020
0001
1000
0031
,  // measure 58
1000
0010
1000
0000
0001
0010
0001
0000
,  // measure 59
0100
0000
0010
0000
1000
0000
0001
0010
,  // measure 60
0001
0100
0010
1000
,  // measure 61
0002
0000
0010
1003
,  // measure 62
0100
0010
0000
1000
0000
0001
0000
0010
,  // measure 63
0000
0001
0000
0100
0000
0010
0000
1000
,  // measure 64
0000
0001
0000
0010
0000
0100
0000
1000
,  // measure 65
0000
0001
0100
0000
0010
1000
0010
0000
,  // measure 66
0100
0001
0000
0010
0000
0001
0000
1000
,  // measure 67
0000
0010
0000
0100
0000
0001
0000
1000
,  // measure 68
0001
0000
0000
0000
0110
0000
0000
1000
,  // measure 69
0000
0001
0010
0100
1000
0000
0001
0000
,  // measure 70
0100
0000
0010
0100
0000
0010
0200
0000
,  // measure 71
0000
0000
0001
0301
,  // measure 72
0010
0000
0100
1000
0000
0100
2000
0000
,  // measure 73
0000
0000
0000
0000
,  // measure 74
0000
0000
0000
0000
,  // measure 75
0000
0000
0000
0000
,  // measure 76
3000
0000
0000
0000
;

//---------------dance-single - Blank----------------
#NOTES:
     dance-single:
     Blank:
     Easy:
     5:
     0.520,0.591,0.315,0.358,0.000,207.000,22.000,25.000,0.000,0.000,0.000,0.520,0.591,0.315,0.358,0.000,207.000,22.000,25.000,0.000,0.000,0.000: // measure 1
0000
0000
0000
0000
,  // measure 2
0000
0000
0000
0000
,  // measure 3
0000
0000
0000
0000
,  // measure 4
0000
0000
0000
0000
,  // measure 5
0000
0000
0010
1001
,  // measure 6
0100
0000
0010
0020
,  // measure 7
0000
0000
1000
1030
,  // measure 8
0001
0000
0010
0020
,  // measure 9
0000
0000
0130
0010
,  // measure 10
0001
0000
1000
0000
,  // measure 11
0001
0100
0010
1000
,  // measure 12
0001
0000
0000
0010
,  // measure 13
0010
0000
0100
1000
,  // measure 14
0001
0001
1000
1000
,  // measure 15
0010
0010
0100
0100
,  // measure 16
0001
0000
0000
0010
0000
0100
0000
1000
,  // measure 17
0000
0001
1000
0010
,  // measure 18
0100
0000
0001
0000
,  // measure 19
0010
0001
1000
0010
,  // measure 20
0100
0000
0000
0001
,  // measure 21
0001
0000
1000
0100
,  // measure 22
0010
0010
0001
0001
,  // measure 23
1000
1000
0100
0100
,  // measure 24
1000
0000
0000
0001
0000
0100
0000
0010
,  // measure 25
0000
1000
0001
0010
,  // measure 26
0100
1000
0001
0100
,  // measure 27
0010
1010
0011
0100
,  // measure 28
0001
0010
0100
1000
,  // measure 29
0002
0000
0100
0103
,  // measure 30
0010
1000
0001
0010
,  // measure 31
0100
1000
0010
1000
,  // measure 32
0202
0000
0000
0303
,  // measure 33
2200
0000
0000
3300
,  // measure 34
2002
0000
0000
3003
,  // measure 35
0020
0000
0000
0030
,  // measure 36
0001
0001
1000
1000
,  // measure 37
0010
0000
0010
0100
0000
0000
0000
0000
,  // measure 38
0001
0000
0010
0000
0100
0000
0000
0010
,  // measure 39
0000
0001
0000
0000
1000
0000
0001
0000
,  // measure 40
0100
0000
0010
0000
1000
0000
0000
0001
,  // measure 41
0000
0100
0000
0000
0010
0000
1000
0000
,  // measure 42
0001
0101
0100
0110
,  // measure 43
0010
1010
1000
1100
,  // measure 44
1001
0000
0000
0010
,  // measure 45
0100
0000
1001
0000
,  // measure 46
0001
0000
1000
0000
0100
0000
0000
0010
,  // measure 47
0000
0001
0000
0000
0100
0000
0010
0000
,  // measure 48
1000
0000
0001
0000
1000
0000
0000
0100
,  // measure 49
0000
0010
0000
0000
0001
0000
1000
0000
,  // measure 50
0010
1010
1000
1100
,  // measure 51
0100
0110
0010
0011
,  // measure 52
1001
0000
0000
0100
,  // measure 53
0010
0000
1001
0000
,  // measure 54
0001
0001
0100
0100
,  // measure 55
0010
1000
0100
0000
0010
0000
0100
0000
,  // measure 56
1000
1000
0001
0001
,  // measure 57
0020
0000
1000
0031
,  // measure 58
0100
0100
0010
0010
,  // measure 59
1000
0001
0010
0000
0100
0000
0100
0000
,  // measure 60
1000
0001
0100
0010
,  // measure 61
1000
0000
0110
1001
,  // measure 62
0200
0000
0002
0300
,  // measure 63
0020
0003
0230
2300
,  // measure 64
0002
0000
0000
3000
,  // measure 65
0200
0000
0000
0003
,  // measure 66
0020
0300
2000
0030
,  // measure 67
0002
3000
0023
0032
,  // measure 68
1003
0000
0000
0000
0110
0000
0000
1001
,  // measure 69
0000
0100
0100
0000
,  // measure 70
0010
0000
1000
2000
,  // measure 71
0000
0000
0001
3001
,  // measure 72
0010
0000
0001
0200
,  // measure 73
0000
0000
0000
0000
,  // measure 74
0000
0000
0000
0000
,  // measure 75
0000
0000
0000
0000
,  // measure 76
0300
0000
0000
0000
;
