#TITLE:Girls on Film;
#SUBTITLE:;
#ARTIST:Duran Duran;
#TITLETRANSLIT:;
#SUBTITLETRANSLIT:;
#ARTISTTRANSLIT:;
#CREDIT:;
#BANNER:;
#BACKGROUND:;
#LYRICSPATH:;
#CDTITLE:;
#MUSIC:Girls on Film.mp3;
#OFFSET:-7.300;
#SAMPLESTART:38.160;
#SAMPLELENGTH:13.180;
#SELECTABLE:YES;
#DISPLAYBPM:132.000;
#BPMS:0.000=132.000,52.000=132.500,64.000=132.000,130.000=131.000,138.000=131.700,160.000=133.000,168.000=131.480,184.000=131.850;
#STOPS:;
#BGCHANGES:;

//---------------dance-single - ----------------
#NOTES:
     dance-single:
     :
     Hard:
     7:
     0.450,0.404,0.370,0.053,0.119: // measure 1
0000
0000
1000
0001
1000
0010
0100
0001
,  // measure 2
1000
0000
0001
0010
0001
1000
0000
1000
,  // measure 3
0001
0000
1000
0000
0100
0010
0000
0010
,  // measure 4
0100
0000
1000
0000
0001
0100
0001
0000
,  // measure 5
1001
0000
1000
0000
0010
0100
0001
1000
,  // measure 6
0100
0000
0010
0001
1000
0001
1000
0001
,  // measure 7
0100
0000
0010
0000
1000
0100
0000
1000
,  // measure 8
0100
0000
0010
0000
0001
1000
0001
0000
,  // measure 9
1000
0010
0010
0100
0001
1000
1000
0001
,  // measure 10
0010
0100
0100
0010
0001
1000
0010
0100
,  // measure 11
0001
0000
1000
0000
0010
0100
0010
0100
,  // measure 12
0000
0100
0001
0000
1000
0001
1001
0000
,  // measure 13
1000
0100
0010
0001
0100
0010
1000
0010
,  // measure 14
1000
0000
0001
0100
0001
1000
0100
0010
,  // measure 15
0000
0010
0100
0000
0010
0001
0000
0001
,  // measure 16
1000
0000
0001
0000
1000
0010
0100
0000
,  // measure 17
2002
0000
0000
3003
,  // measure 18
1001
0000
0000
0000
0110
0000
0000
0000
1001
0000
0000
0001
0000
0000
1000
0000
,  // measure 19
0001
0000
0100
0000
0010
0000
0000
0000
0100
0000
0000
0010
0000
0000
0100
0000
,  // measure 20
0101
0000
0000
0000
1001
0000
0000
0000
1100
0000
0000
0010
0000
0000
0001
0000
,  // measure 21
1000
0000
0001
0000
0100
0000
0000
0000
0010
0000
0000
1000
0000
0000
0001
0000
,  // measure 22
0101
0000
0000
0000
1001
0000
0000
0000
1010
0000
0000
1000
0000
0000
1000
0000
,  // measure 23
0100
0000
0010
0000
0001
0000
0100
0000
0010
0000
0000
0010
0000
0000
0010
0000
,  // measure 24
0110
0000
0000
0000
1001
0000
0000
0000
1100
0000
0000
1000
0000
0000
0001
0000
,  // measure 25
0100
0010
0100
0001
1001
0000
0001
0000
,  // measure 26
1000
0000
0100
0000
1000
0000
0000
0000
0001
0000
0000
0100
0001
0000
0000
0000
,  // measure 27
1000
0000
0000
0010
1000
0000
0000
0000
0001
0000
0000
1000
0100
0000
0000
0000
,  // measure 28
0010
0000
0000
0001
0100
0000
0000
0101
0000
0000
0001
0000
0000
1000
0000
0000
,  // measure 29
0100
0000
0000
0010
0100
0000
0010
0000
0000
0000
0010
0000
0001
0000
1000
0000
,  // measure 30
0010
0000
0100
0000
0001
0000
1000
0000
0100
0000
0000
1000
0000
0000
0001
0000
,  // measure 31
0100
0001
1000
0100
0010
0001
0100
0001
,  // measure 32
1000
0001
0000
1000
0001
1000
0010
0100
,  // measure 33
0001
1000
0100
0010
0200
0000
0000
0000
,  // measure 34
0010
1300
0011
1100
,  // measure 35
1000
0010
0000
0000
0101
0000
0000
0000
2001
0000
0000
0000
0000
0000
0000
0000
,  // measure 36
0010
0000
0000
0000
3001
0000
0000
0000
1000
0000
0000
0010
0000
0000
1000
0000
,  // measure 37
0001
0000
0000
0010
0000
0000
0001
0000
1000
0000
0000
0000
0001
0000
0000
0000
,  // measure 38
0100
0000
0010
0000
0100
0000
0010
0000
0100
0000
0000
0001
0000
0000
0100
0000
,  // measure 39
0001
1000
1001
0000
1000
0000
0001
0000
,  // measure 40
0100
0000
0000
0000
0001
0000
0000
0000
1000
0000
0000
0100
0000
0000
0010
0000
,  // measure 41
0000
0001
0000
0000
1000
0000
0001
0000
2002
0000
0000
0000
0000
0000
0000
0000
,  // measure 42
0000
3003
0110
1001
,  // measure 43
0110
0000
0010
0100
0010
1000
0100
0010
,  // measure 44
0000
0100
0000
0010
0011
0000
1001
0000
,  // measure 45
1010
0000
0000
1000
0000
0000
0001
0000
0100
0000
0010
0000
0100
0000
0001
0000
,  // measure 46
1000
0000
0000
0001
0000
0000
1000
0000
1010
0000
0000
0000
0101
0000
0000
0000
,  // measure 47
1001
0000
1000
0100
0010
0001
0100
0010
,  // measure 48
0000
0110
0000
0100
0101
0000
1001
0000
,  // measure 49
1100
0000
0000
1000
0000
0000
0001
0000
1000
0000
0100
0000
0010
0000
0001
0000
,  // measure 50
1000
0000
0000
0001
0000
0000
1000
0000
0001
0000
0100
0000
0001
0000
1000
0000
,  // measure 51
1010
0000
0000
1000
0000
0000
0001
0000
1000
0000
0100
0000
0010
0000
0001
0000
,  // measure 52
0000
1001
0000
1000
1010
0000
0101
0000
,  // measure 53
1001
0000
0000
0000
0001
0000
1000
0000
0010
0000
0100
0000
0000
0010
0000
0000
,  // measure 54
0100
0010
1000
0001
1000
0100
0010
0001
,  // measure 55
0101
0000
0000
0000
;

//---------------dance-single - ----------------
#NOTES:
     dance-single:
     :
     Medium:
     6:
     0.392,0.356,0.273,0.070,0.009: // measure 1
0001
0000
1000
0000
0001
0100
0000
0100
,  // measure 2
0001
0000
1000
0000
0100
0010
0100
0000
,  // measure 3
0010
0000
0001
0000
1000
0010
0000
1000
,  // measure 4
0001
0000
1000
0000
0001
0100
0001
0100
,  // measure 5
0010
0000
1000
0000
0001
1000
0001
1000
,  // measure 6
0100
0000
0010
0000
0001
0010
0001
1000
,  // measure 7
0000
1000
0001
0000
1000
0010
0000
0010
,  // measure 8
1000
0000
0001
0000
0100
0001
0100
0001
,  // measure 9
1000
0000
0001
0000
1000
0001
0100
0000
,  // measure 10
0010
1000
0100
0000
0010
0001
0100
0000
,  // measure 11
0001
0000
1000
0000
0001
1000
0000
1000
,  // measure 12
0001
0000
0100
0000
0010
0100
0010
0100
,  // measure 13
0001
0000
1000
0000
0100
0010
0100
0010
,  // measure 14
0001
0000
1000
0000
0001
0100
0001
1000
,  // measure 15
0010
0000
0100
0000
0010
1000
0000
1000
,  // measure 16
0001
0000
1000
0000
0001
0100
0001
0000
,  // measure 17
2002
0000
0000
3003
,  // measure 18
1010
0000
0101
0000
1001
0000
0100
0010
,  // measure 19
0100
0010
1000
0000
0001
0000
1000
0001
,  // measure 20
0200
0000
0010
0000
0301
0000
1000
0010
,  // measure 21
1000
0010
0100
0000
0001
0000
1000
0001
,  // measure 22
1001
0000
0110
0000
1001
0000
0001
0100
,  // measure 23
0001
0100
0010
0000
0100
0000
0001
1000
,  // measure 24
0002
0000
1000
0000
0103
0000
0010
0100
,  // measure 25
0001
0100
0001
0000
1001
0000
1000
0000
,  // measure 26
0100
0010
0001
0100
,  // measure 27
0001
0100
0010
1000
0001
0000
0100
0000
,  // measure 28
0001
1000
0010
0100
,  // measure 29
0010
0100
0001
1000
0100
0000
0010
0000
,  // measure 30
0001
1000
0100
1000
,  // measure 31
0001
1000
0010
0100
0001
0000
1000
0000
,  // measure 32
0010
0000
0100
0000
0001
0000
1000
0001
,  // measure 33
1000
0001
0100
0001
0200
0000
0000
0000
,  // measure 34
0010
0301
1001
1010
,  // measure 35
1100
0011
0002
0000
,  // measure 36
0010
0000
1003
0000
1000
0000
0001
0100
,  // measure 37
0001
0000
1000
0100
1000
0000
0001
0000
,  // measure 38
0100
0000
0001
0000
1000
0001
0100
0000
,  // measure 39
0001
1000
0100
0000
0010
0000
0100
0000
,  // measure 40
0010
0000
0000
0000
0001
0000
0000
0000
1000
0000
0000
0001
0000
0000
1000
0000
,  // measure 41
0000
0001
0000
0000
0100
0000
0010
0000
0220
0000
0000
0000
0000
0000
0000
0000
,  // measure 42
0000
0330
1010
0101
,  // measure 43
1001
0000
1000
0000
0001
0100
0001
0100
,  // measure 44
0000
0010
1000
0000
0011
0000
1100
0000
,  // measure 45
0011
0000
1000
0000
0001
1000
0001
0000
,  // measure 46
1000
0010
0110
1001
,  // measure 47
0101
0000
1000
0000
0010
1000
0100
1000
,  // measure 48
0000
0001
0010
0000
0011
0000
1100
0000
,  // measure 49
1001
0000
1000
0000
0010
0100
0010
0000
,  // measure 50
1000
0001
1000
0100
0010
0000
0110
0000
,  // measure 51
1001
0000
0001
0000
1000
0010
0100
0001
,  // measure 52
0000
0100
0010
0000
1010
0000
0101
0000
,  // measure 53
1001
0000
1000
0100
0010
0100
1000
0000
,  // measure 54
0010
0000
0100
0001
1000
0001
0100
0000
,  // measure 55
0110
0000
0000
0000
;

//---------------dance-single - ----------------
#NOTES:
     dance-single:
     :
     Easy:
     3:
     0.227,0.214,0.044,0.018,0.000: // measure 1
1000
0001
0100
0010
,  // measure 2
0100
0001
1000
0001
,  // measure 3
1000
0000
0001
0000
,  // measure 4
0010
0000
0100
0000
,  // measure 5
0010
0001
1000
0100
,  // measure 6
0010
0001
0100
0010
,  // measure 7
1000
0000
0001
0000
,  // measure 8
0100
0000
0001
0000
,  // measure 9
1000
1000
0001
0001
,  // measure 10
0100
0100
0010
0010
,  // measure 11
1000
0000
0001
0000
,  // measure 12
0100
0000
0001
0000
,  // measure 13
1000
0100
1000
0100
,  // measure 14
0010
0001
0010
0001
,  // measure 15
0100
0000
0010
0000
,  // measure 16
1000
0000
0001
1000
,  // measure 17
2001
0000
0000
0000
,  // measure 18
0001
0001
3001
0000
,  // measure 19
0010
0100
0001
1000
,  // measure 20
0001
0001
0001
0000
,  // measure 21
1000
0100
0010
0001
,  // measure 22
0100
0100
0100
0000
,  // measure 23
0010
0100
0010
1000
,  // measure 24
0100
0100
0100
0000
,  // measure 25
0010
0001
1001
0000
,  // measure 26
1000
0001
0100
0001
,  // measure 27
1000
0100
0010
0000
,  // measure 28
0001
0010
0001
0100
,  // measure 29
0010
0100
0010
0000
,  // measure 30
0100
0010
1000
0001
,  // measure 31
1000
0100
0010
0000
,  // measure 32
0100
0010
0100
0010
,  // measure 33
0001
1000
1001
0000
,  // measure 34
0001
0000
1000
0001
,  // measure 35
1000
0001
0100
0000
,  // measure 36
0010
0000
0100
0010
,  // measure 37
1000
0001
1000
0000
,  // measure 38
0010
0000
0100
0001
,  // measure 39
1000
0010
0100
0000
,  // measure 40
0010
0000
1000
0001
,  // measure 41
1000
0100
0020
0000
,  // measure 42
0000
0000
0100
0100
,  // measure 43
0130
0000
0010
0001
,  // measure 44
1000
0001
1000
1000
,  // measure 45
1000
0000
0001
0100
,  // measure 46
0010
0100
0001
0001
,  // measure 47
0001
0000
1000
0010
,  // measure 48
1000
0100
0010
0010
,  // measure 49
0010
0000
0100
0010
,  // measure 50
0001
0010
0001
0001
,  // measure 51
1001
0000
1000
0010
,  // measure 52
0100
0001
1000
0001
,  // measure 53
1000
0000
0001
0100
,  // measure 54
0010
1000
0100
0010
,  // measure 55
0110
0000
0000
0000
;

//---------------dance-single - ----------------
#NOTES:
     dance-single:
     :
     Beginner:
     1:
     0.129,0.143,0.035,0.000,0.000: // measure 1
1000
0000
0001
0000
,  // measure 2
0100
0000
0010
0000
,  // measure 3
0100
0000
0000
0000
,  // measure 4
0001
0000
0000
0000
,  // measure 5
1000
0000
0100
0000
,  // measure 6
0010
0000
0001
0000
,  // measure 7
1000
0000
0000
0000
,  // measure 8
0001
0000
0000
0000
,  // measure 9
1000
0000
1000
0000
,  // measure 10
0001
0000
0001
0000
,  // measure 11
0100
0000
0000
0000
,  // measure 12
0010
0000
0000
0000
,  // measure 13
0100
0000
0010
0000
,  // measure 14
1000
0000
0001
0000
,  // measure 15
0100
0000
0001
0000
,  // measure 16
1000
0000
0001
0000
,  // measure 17
1001
0000
0000
0000
,  // measure 18
0001
0001
0001
0000
,  // measure 19
1000
0000
0010
0000
,  // measure 20
0100
0000
0010
0000
,  // measure 21
1000
0000
0100
0000
,  // measure 22
0010
0000
0100
0000
,  // measure 23
0010
0000
0001
0000
,  // measure 24
1000
0000
0001
0000
,  // measure 25
1000
0000
1001
0000
,  // measure 26
0000
0000
1000
0000
,  // measure 27
0001
0000
0100
0000
,  // measure 28
0001
0000
1000
0000
,  // measure 29
0100
0000
0010
0000
,  // measure 30
0100
0000
0010
0000
,  // measure 31
0100
0000
1000
0000
,  // measure 32
0001
0000
1000
0000
,  // measure 33
0001
0000
1001
0000
,  // measure 34
0000
0000
1000
0000
,  // measure 35
0001
0000
0100
0000
,  // measure 36
0000
0000
0010
0000
,  // measure 37
1000
0000
0001
0000
,  // measure 38
0000
0000
1000
0000
,  // measure 39
0001
0000
1000
0000
,  // measure 40
0000
0000
0100
0000
,  // measure 41
0010
0000
0110
0000
,  // measure 42
0000
0000
0100
0100
,  // measure 43
0100
0000
0010
0000
,  // measure 44
0001
0000
1000
0000
,  // measure 45
0010
0000
0100
0000
,  // measure 46
0001
0000
1000
0000
,  // measure 47
0100
0000
0010
0000
,  // measure 48
0001
0000
1000
0000
,  // measure 49
0010
0000
0100
0000
,  // measure 50
0010
0000
1000
0000
,  // measure 51
0001
0000
1000
0000
,  // measure 52
0100
0000
0010
0000
,  // measure 53
0001
0000
1000
0000
,  // measure 54
0001
0000
0100
0100
,  // measure 55
0100
0000
0000
0000
;
