#TITLE:Dear You;
#SUBTITLE:(dnb mix);
#ARTIST:DJ Adam;
#TITLETRANSLIT:;
#SUBTITLETRANSLIT:;
#ARTISTTRANSLIT:;
#GENRE:;
#CREDIT:;
#MENUCOLOR:;
#NEWMETERSYSTEM:NO;
#BANNER:Dear You (dnb mix)-bn.png;
#BACKGROUND:Dear You (dnb mix)-bg.png;
#LYRICSPATH:;
#CDTITLE:Z-I-v Summer Contest 2010-cdtitle.png;
#MUSIC:Dear You (dnb mix).mp3;
#OFFSET:-0.020;
#SAMPLESTART:88.220;
#SAMPLELENGTH:11.000;
#SELECTABLE:YES;
#LISTSORT:;
#BPMS:0.000=174.080;
#STOPS:;
#BGCHANGES:;
#ATTACKS:;

//---------------dance-single - ----------------
#NOTES:
     dance-single:
     :
     Easy:
     3:
     0.253,0.282,0.000,0.069,0.000:
0000
0000
0000
0000
,
0000
0000
0000
0000
,
0000
0000
0000
0000
,
0000
0000
0000
0000
,
0020
0000
1000
0000
,
2030
0000
0001
0000
,
3002
0000
0100
0000
,
0200
0000
0000
0303
,
0001
0000
1000
0000
,
1000
0000
0010
0000
,
0100
0000
0001
0000
,
0010
0100
1000
0000
,
0001
0000
0010
0000
,
0001
0000
1000
0000
,
0100
0000
0010
0100
,
0010
0000
0001
0000
,
1000
0000
0010
1000
,
0010
0000
0100
0001
,
0100
0000
0010
0100
,
0010
0010
0010
0000
,
1000
0000
0100
1000
,
0100
0000
0001
0010
,
0001
0000
0100
0010
,
2000
0000
0001
0000
,
3001
0000
0100
0001
,
1000
0000
0001
0010
,
0100
0000
1000
0100
,
0010
0000
0001
0000
,
0100
0000
0010
1000
,
0010
0000
0100
0001
,
0100
0000
0001
1000
,
0001
0000
1000
0000
,
0001
0000
0010
0100
,
1000
0000
0100
0010
,
0001
0000
1000
0001
,
1000
0010
0010
0000
,
1000
0000
0010
1000
,
0001
0000
0100
0001
,
1000
0000
1000
0100
,
0010
0000
0010
0000
,
1000
0000
0001
0000
,
0010
0000
0100
0000
,
0010
0000
0001
0000
,
1000
1000
0001
0000
,
0100
0000
0010
0000
,
1000
0000
0001
0000
,
0010
0000
0100
0000
,
0010
0100
0010
0000
,
0001
0000
1000
0000
,
0001
0000
1000
0000
,
0010
0000
1000
0000
,
0100
0000
1000
0000
,
0010
0000
0100
0000
,
0001
0000
0010
0000
,
0100
0000
0100
0000
,
0020
0000
0000
0030
,
0100
0000
0100
1000
,
0001
0000
0010
0000
,
0100
0000
0010
0100
,
0010
0000
0000
1000
,
0100
0010
0000
0001
,
0010
0100
0000
0010
,
0002
0000
0100
0000
,
1003
0000
0000
0100
,
1000
0000
0100
0010
,
0100
1000
0001
0100
,
0001
0000
0010
0100
,
0010
1000
1000
0000
,
0001
0000
1000
0100
,
0010
0001
1000
0010
,
0100
0000
0001
1000
,
0001
0000
0100
0000
,
0010
0000
0100
0010
,
0001
1000
0010
1000
,
0001
0000
1000
0100
,
1000
0010
0010
0000
,
0001
0000
0001
0010
,
0001
1000
0100
0010
,
0100
0000
0010
0100
,
1000
0000
0001
0000
,
0020
0000
0000
0000
,
0000
0000
0000
0030
;

//---------------dance-single - Copied from----------------
#NOTES:
     dance-single:
     Copied from:
     Beginner:
     1:
     0.121,0.176,0.009,0.173,0.000:
0000
0000
0000
0000
,
0000
0000
0000
0000
,
0000
0000
0000
0000
,
0000
0000
0000
0000
,
0000
0000
0000
0000
,
0000
0000
0000
0000
,
0000
0000
0000
0000
,
0000
0000
0000
1000
,
1000
0000
0000
0000
,
1000
0000
0000
0000
,
0100
0000
0000
0000
,
0010
0000
0000
0000
,
0010
0000
0000
0000
,
0001
0000
0000
0000
,
0001
0000
1000
0000
,
1000
0000
0000
0000
,
0010
0000
0000
0000
,
0100
0000
0000
0000
,
0010
0000
0000
0000
,
1000
0000
0001
0000
,
1000
0000
0000
0000
,
0001
0000
0000
0000
,
0100
0000
0010
0000
,
0100
0000
0000
0000
,
0020
0000
0030
0000
,
2000
0000
3000
0000
,
0002
0000
0003
0000
,
1000
0000
0001
0000
,
0020
0000
0030
0000
,
0200
0000
0300
0000
,
0020
0000
0030
0000
,
0010
0000
0000
0000
,
0200
0000
0300
0000
,
2000
0000
3000
0000
,
0002
0000
0003
0000
,
0001
0000
0010
0000
,
0200
0000
0300
0000
,
0020
0000
0030
0000
,
0002
0000
0003
0000
,
2000
0000
3000
0000
,
0100
0000
0000
0000
,
0100
0000
0000
0000
,
0010
0000
0000
0000
,
1000
0000
0000
0000
,
0100
0000
0000
0000
,
0001
0000
0000
0000
,
0010
0000
0000
0000
,
1000
0000
0000
0000
,
0002
0000
0000
0000
,
0003
0000
0000
0000
,
0020
0000
0000
0000
,
0030
0000
0000
0000
,
2000
0000
0000
0000
,
3000
0000
0000
0000
,
0200
0000
0000
0000
,
0300
0000
0000
0000
,
0010
0000
0000
0000
,
1000
0000
0000
0000
,
0010
0000
0000
0000
,
0100
0000
0000
0000
,
0002
0003
0000
0000
,
2000
3000
0000
0000
,
0100
0000
0000
0000
,
0100
0000
0000
0000
,
1001
0000
0000
0000
,
0010
0000
0000
0000
,
0100
0000
0000
0000
,
0010
0000
1000
0000
,
0001
0000
0000
0000
,
0100
0000
0000
0000
,
0001
0000
0000
0000
,
1000
0000
0000
0000
,
0100
0000
0000
0000
,
0100
0000
0000
0000
,
0010
0000
0000
0000
,
0100
0000
1000
0000
,
0001
0000
0000
0000
,
0010
0000
0000
0000
,
0001
0000
0000
0000
,
1000
0000
0000
0000
,
0020
0000
0000
0000
,
0000
0000
0000
0030
;

//---------------dance-single - Copied from----------------
#NOTES:
     dance-single:
     Copied from:
     Medium:
     6:
     0.432,0.494,0.155,0.112,0.000:
0000
0000
0000
0000
,
0000
0000
0000
0000
,
0000
0000
0000
0000
,
0000
0000
0000
0000
,
0002
0100
1000
0100
,
2003
0001
0010
0001
,
3020
0100
1000
0100
,
2030
0010
0002
3003
,
0010
0000
0100
0000
0010
1000
0100
0000
,
0010
0000
0100
0000
0010
0001
1000
0000
,
0100
0000
1000
0000
0100
0100
0010
0000
,
0001
1000
0101
0000
,
0001
0000
0100
0000
0010
1000
0100
0000
,
1000
0000
0100
0000
1000
0001
1000
0000
,
0010
0100
0001
1000
,
1100
0000
0001
0000
,
0100
0000
0010
0000
0100
0001
0100
0000
,
0010
0000
1000
0000
0001
1000
0010
0000
,
1000
0000
0100
0000
0010
0001
1000
0000
,
0001
0100
0001
0000
,
1000
0000
0100
0000
0010
0100
1000
0000
,
0010
0000
0100
0000
0010
0001
0100
0000
,
0010
0100
1000
0001
,
1000
0000
0001
0110
,
1001
0000
0010
0000
0100
0010
0100
0000
,
0010
0000
1000
0000
0100
1000
0100
0000
,
1000
0000
0010
0000
0001
0010
1000
0000
,
0010
0001
1001
0000
,
1000
0000
0100
0000
0001
0010
0100
0000
,
0010
0000
0100
0000
1000
0010
0100
0000
,
0010
1000
0001
1000
,
1100
0000
1010
0000
,
0100
0000
0010
0000
0100
0010
0001
0000
,
1000
0000
0010
0000
0100
0010
1000
0000
,
0010
0000
0100
0000
0001
1000
0100
0000
,
0010
0001
1001
0000
,
0001
0000
1000
0000
0100
1000
0001
0000
,
1000
0000
0001
0000
0100
0001
1000
0000
,
0001
0010
1000
0100
,
1100
0001
0011
0000
,
0010
0100
0001
0100
,
0010
1000
0100
1000
,
0010
1000
0200
0010
,
1300
0010
0200
1000
,
0301
0010
0100
1000
,
0001
0100
1000
0100
,
0002
0010
1003
0100
,
2000
0100
3001
0100
,
0001
1000
0100
0000
,
1000
0010
0100
0000
,
0200
0001
0010
1000
,
0301
0000
0100
1000
,
0010
0000
0100
0000
,
2000
0001
0001
0010
,
3100
0000
0001
0010
,
0100
0000
0100
1001
,
0001
0000
1000
0000
0100
0000
1000
0010
,
0001
0100
0001
0010
,
0100
0000
1000
0000
0010
0000
0100
0010
,
0001
0000
0100
1000
0001
0000
1000
0000
,
0100
1100
0000
0010
,
0001
0011
0000
0001
,
0100
0000
0010
0100
0010
0000
0100
0010
,
1000
0010
1000
0100
0001
0000
0101
0000
,
1000
0000
0100
0000
0010
0001
0100
0000
,
0010
0000
0100
0000
0010
1000
0100
0000
,
1000
0000
0001
0000
0010
0001
0000
0100
,
0010
1000
0200
0001
,
0310
0000
0001
0000
0001
1000
0001
0000
,
1000
0000
0100
0000
0010
0100
1000
0000
,
0010
0100
0001
1000
,
1001
1000
0101
0000
,
1000
0000
0100
0000
0010
0100
0010
0000
,
0001
0000
0100
0000
0100
1000
1000
0000
,
0100
0000
0001
0000
1000
0100
0010
0000
,
0100
0100
1001
0000
,
0010
0000
0100
0000
0001
0100
0001
0000
,
0010
0000
0100
0000
1000
0100
0001
0000
,
0010
0100
0010
0001
,
1100
0001
1000
0000
,
0200
0000
0000
0000
,
0000
0000
0000
0300
;

//---------------dance-single - Copied from----------------
#NOTES:
     dance-single:
     Copied from:
     Hard:
     7:
     0.515,0.529,0.233,0.233,0.000: // measure 1
0000
0000
0000
0000
,  // measure 2
0000
0000
0000
0000
,  // measure 3
0000
0000
0000
0000
,  // measure 4
0000
0000
0000
0000
,  // measure 5
0001
0000
0100
0000
0001
0010
0001
0000
,  // measure 6
1000
0000
0100
0000
1000
0010
1000
0000
,  // measure 7
0010
0100
0001
0010
,  // measure 8
0100
1000
0010
1001
,  // measure 9
0100
0000
0010
0000
1000
0010
1000
0000
,  // measure 10
0001
0000
0100
0000
0001
0010
0100
0000
,  // measure 11
1000
0000
0010
0000
0100
0010
1000
0000
,  // measure 12
0100
0011
0110
1000
,  // measure 13
0010
0000
0100
0000
0001
1000
0100
0000
,  // measure 14
0010
0000
0100
0000
0010
0001
1000
0000
,  // measure 15
0010
0000
0100
0000
0001
0010
0001
0000
,  // measure 16
1000
0100
1001
0100
,  // measure 17
1001
0000
0010
0000
0001
0010
1000
0000
,  // measure 18
0100
0000
1000
0000
0010
0100
0001
0000
,  // measure 19
1000
0000
0001
0000
0010
0010
0001
0000
,  // measure 20
0100
1010
1001
0100
,  // measure 21
0010
0000
1000
0000
0001
0100
1000
0000
,  // measure 22
0100
0000
0001
0000
1000
0100
0001
0000
,  // measure 23
0100
0000
0010
0000
1000
0010
0100
0000
,  // measure 24
0010
0100
0002
1003
,  // measure 25
0101
0000
1000
0000
0100
1000
0010
0000
,  // measure 26
0200
0000
0320
0000
1030
0100
0010
0000
,  // measure 27
2000
0000
0010
0000
3001
0001
0100
0000
,  // measure 28
0001
0011
1001
0100
,  // measure 29
1000
0000
0010
0000
0100
0010
1000
0000
,  // measure 30
0002
0000
0203
0000
0310
0100
0010
0000
,  // measure 31
0200
0000
0001
0000
0310
1000
0100
0000
,  // measure 32
0001
0100
1001
0000
,  // measure 33
1000
0000
0100
0000
1000
0010
0100
0000
,  // measure 34
0002
0000
2003
0000
3001
0100
1000
0000
,  // measure 35
0020
0000
1000
0000
0130
0010
1000
0000
,  // measure 36
1000
0011
1100
0001
,  // measure 37
0010
0000
1000
0000
0010
0100
0001
0000
,  // measure 38
0020
0000
0230
0000
1300
0100
0001
0000
,  // measure 39
0200
0000
1000
0000
1300
0001
1000
0000
,  // measure 40
1000
0010
0100
1000
0010
0001
0100
0001
,  // measure 41
0010
0100
1000
0001
,  // measure 42
0100
0000
0001
0000
1000
0100
0010
0000
,  // measure 43
0100
1000
0001
0010
,  // measure 44
0001
0000
0100
0000
0010
0100
0001
0000
,  // measure 45
0001
1000
0100
1000
,  // measure 46
0001
0000
0100
0000
0010
1000
0100
0000
,  // measure 47
1000
0010
1000
0100
,  // measure 48
0010
0001
1000
0001
0100
0000
1001
0000
,  // measure 49
0010
1000
0010
0100
,  // measure 50
0010
1000
0100
0010
,  // measure 51
0001
1000
0002
0100
,  // measure 52
0100
1000
0103
1000
,  // measure 53
0200
0000
0010
0001
,  // measure 54
0010
1000
1000
0010
,  // measure 55
0301
0002
1000
0100
,  // measure 56
1000
0000
0103
1001
,  // measure 57
0100
0000
1000
0000
0010
0100
0010
0000
,  // measure 58
1000
0000
0100
0010
0001
1000
0001
0000
,  // measure 59
0100
0000
0001
0100
1000
0100
0001
0000
,  // measure 60
0010
0100
1000
0010
,  // measure 61
1010
2002
3003
0100
,  // measure 62
1100
2002
3003
0010
,  // measure 63
2000
0001
0100
3001
,  // measure 64
0001
0100
0010
1000
0100
0001
0100
1000
,  // measure 65
0101
0000
1000
0000
0100
1000
0010
0100
,  // measure 66
0001
0000
1000
0000
0010
0100
0100
0000
,  // measure 67
0020
0000
1030
0000
0100
1000
0000
1000
,  // measure 68
0100
0001
1001
0010
,  // measure 69
0011
0000
0100
0000
0010
0100
1000
0001
,  // measure 70
0010
0000
0001
0000
1000
0010
0100
0000
,  // measure 71
0002
0000
0013
0000
0100
1000
0010
0000
,  // measure 72
0100
0001
0010
0000
1001
0000
0100
0000
,  // measure 73
0110
0000
0001
0000
0001
0100
0010
1000
,  // measure 74
0010
0000
1000
0000
1000
0100
0010
0000
,  // measure 75
0200
0000
1300
0000
0010
0100
0001
0000
,  // measure 76
1000
0100
0010
0000
0011
0000
1000
0000
,  // measure 77
1001
0000
0010
0000
0100
0010
1000
0001
,  // measure 78
0100
0000
0010
0000
1000
0010
0001
0000
,  // measure 79
0020
0000
0130
0010
1000
0001
0100
0010
,  // measure 80
1000
0100
0001
0100
,  // measure 81
2200
0000
0000
0000
,  // measure 82
0000
0000
0000
3300
;
