#TITLE:Cagayake!GIRLS;
#SUBTITLE:;
#ARTIST:Helvetia feat. Camry;
#TITLETRANSLIT:;
#SUBTITLETRANSLIT:;
#ARTISTTRANSLIT:;
#GENRE:;
#CREDIT:;
#MENUCOLOR:;
#NEWMETERSYSTEM:NO;
#BANNER:Cagayake!GIRLS-bn.png;
#BACKGROUND:Cagayake!GIRLS-bg.png;
#LYRICSPATH:;
#CDTITLE:Z-I-v Summer Contest 2010-cdtitle.png;
#MUSIC:Cagayake!GIRLS.mp3;
#OFFSET:-0.560;
#SAMPLESTART:90.680;
#SAMPLELENGTH:12.000;
#SELECTABLE:YES;
#LISTSORT:;
#BPMS:0.000=180.000;
#STOPS:;
#BGCHANGES:;
#ATTACKS:;

//---------------dance-single - ----------------
#NOTES:
     dance-single:
     :
     Easy:
     3:
     0.277,0.296,0.040,0.087,0.000:
0000
0000
0000
0000
,
0000
0000
0000
0000
,
0000
0000
0000
0000
,
0000
0000
0000
0000
,
0010
0000
0010
0000
,
0100
0000
0010
1000
,
0010
0000
1000
0000
,
0002
0000
0023
0000
,
0200
0000
0000
0030
,
2000
0000
0000
3300
,
0001
0100
0010
1000
,
0001
0000
1000
0000
,
0010
1000
0100
1000
,
0010
0000
0010
0000
,
0100
0010
0100
0000
,
0010
1000
0001
0000
,
0100
0010
0100
0000
,
0100
0001
1000
0000
,
0001
0010
0100
1000
,
0001
0000
1000
0000
,
1000
0001
0100
0001
,
1000
0000
0010
0000
,
0100
0001
0100
0000
,
0010
1000
0010
0000
,
0100
1000
0100
0000
,
0001
0010
0001
0000
,
0100
0000
0100
0000
,
0010
0000
0100
0000
,
1000
0010
0001
0010
,
1000
0000
0001
0000
,
1000
0000
1000
0000
,
0001
0000
0001
0000
,
0010
0100
1000
0100
,
0010
0000
0010
0000
,
0001
0000
1000
0000
,
0220
0000
0000
0330
,
0001
0000
0100
0000
,
1000
0000
0100
0000
,
0001
1000
0001
0000
,
1000
0001
1000
0000
,
0010
0000
0100
0000
,
1000
0000
0100
0000
,
0010
0000
0001
0000
,
1000
0000
1000
0001
,
0100
0010
0000
0100
,
0010
1000
0000
0001
,
0100
0001
0000
0010
,
0001
1000
0000
0100
,
0010
1000
0000
0010
,
0100
0001
0000
1000
,
0001
0100
0000
0010
,
0200
0000
0000
0300
,
1000
0000
0100
0000
,
0001
0000
0010
0000
,
0100
0000
0001
0000
,
1000
0000
0010
0000
,
1001
0000
0100
0000
,
0100
0000
1000
0000
,
0010
0000
0100
0000
,
0001
0000
1000
0000
,
0010
0000
0010
0100
,
0010
0000
0010
1000
,
0010
0000
1000
0100
,
1000
0000
0001
0010
,
0001
0000
0001
0000
,
0010
0000
0010
0000
,
0100
0000
1000
0000
,
2002
0000
3003
0010
,
0100
0010
1000
0100
,
0010
0100
0010
0000
,
0001
0010
0001
1000
,
0001
0000
1000
0000
,
0100
0010
0001
1000
,
0100
0010
0001
0000
,
1000
0000
0010
0000
,
0100
0010
0100
0000
,
0001
0100
0001
1000
,
0010
1000
0001
0000
,
0100
0000
0010
0000
,
0001
0010
0100
0000
,
0010
1000
0001
1000
,
0100
1000
0010
0000
,
0001
0000
0100
0000
,
0010
1000
0010
0000
,
1001
0000
0100
0000
,
0010
1000
0010
0000
,
0100
0000
0001
0000
,
0010
0001
0010
0000
,
1000
0000
0001
0000
,
0100
0001
0100
0000
,
0010
0000
0100
0000
,
0010
0010
0100
0000
,
2002
0000
0000
0000
,
0000
0000
3003
0000
;

//---------------dance-single - Copied from----------------
#NOTES:
     dance-single:
     Copied from:
     Beginner:
     1:
     0.112,0.182,0.040,0.016,0.000:
0000
0000
0000
0000
,
0000
0000
0000
0000
,
0000
0000
0000
0000
,
0000
0000
0000
0000
,
1000
0000
1000
0000
,
1000
0000
0000
0000
,
0100
0000
0000
0000
,
0100
0000
0010
0000
,
0020
0000
0000
0000
,
0000
0000
0030
0000
,
0001
0000
0000
0000
,
1000
0000
0000
0000
,
0010
0000
0000
0000
,
0100
0000
0000
0000
,
0001
0000
0001
0000
,
0010
0000
0000
0000
,
1000
0000
1000
0000
,
0100
0000
0000
0000
,
0010
0000
0000
0000
,
1000
0000
0000
0000
,
0001
0000
0000
0000
,
0100
0000
0000
0000
,
0010
0000
0010
0000
,
0100
0000
0000
0000
,
1000
0000
1000
0000
,
0001
0000
0000
0000
,
0010
0000
0000
0000
,
0001
0000
0000
0000
,
1000
0000
0000
0000
,
1001
0000
0000
0000
,
0010
0000
0000
0000
,
1000
0000
0000
0000
,
0001
0000
0000
0000
,
0010
0000
0000
0000
,
0200
0000
0000
0000
,
0300
0000
0000
0000
,
0010
0000
0000
0000
,
0000
0000
0000
0000
,
0100
0000
0000
0000
,
0000
0000
0000
0000
,
0001
0000
0000
0000
,
0000
0000
0000
0000
,
0001
0000
0000
0000
,
0000
0000
0000
0000
,
0110
0000
0000
0000
,
0001
0000
0000
0000
,
1001
0000
0000
0000
,
1000
0000
0000
0000
,
0001
0000
0010
0000
,
0001
0000
0000
0000
,
1000
0000
0100
0000
,
1000
0000
0000
0000
,
0100
0000
0000
0000
,
0000
0000
0000
0000
,
0100
0000
0000
0000
,
0000
0000
0000
0000
,
0010
0000
0000
0000
,
0000
0000
0000
0000
,
0010
0000
0000
0000
,
0000
0000
0000
0000
,
1001
0000
0000
0000
,
0000
0000
0000
1000
,
1000
0000
0000
0000
,
0000
0000
0000
0001
,
0001
0000
0000
0000
,
1000
0000
0000
0000
,
0010
0000
0010
0000
,
0010
0000
0000
0000
,
1001
0000
0000
0000
,
1000
0000
0001
0000
,
0010
0000
0000
0000
,
0100
0000
0000
0000
,
0010
0000
0000
0000
,
1000
0000
0010
0000
,
1000
0000
0000
0000
,
0001
0000
0000
0000
,
0010
0000
0000
0000
,
0100
0000
0010
0000
,
0001
0000
0000
0000
,
1000
0000
0000
0000
,
0010
0000
0000
0000
,
0100
0000
0100
0000
,
0001
0000
0000
0000
,
1000
0000
0000
0000
,
0100
0000
0000
0000
,
0010
0000
0000
0000
,
0001
0000
0000
0000
,
0100
0000
0000
0000
,
0001
0000
0000
0000
,
1000
0000
0000
0000
,
0010
0000
0000
0000
,
0100
0000
0000
0000
,
0001
0000
0000
0000
;

//---------------dance-single - Copied from----------------
#NOTES:
     dance-single:
     Copied from:
     Medium:
     6:
     0.427,0.443,0.024,0.142,0.000:
0000
0000
0000
0000
,
0000
0000
0000
0000
,
0000
0000
0000
0000
,
0000
0000
0000
0000
,
0010
0000
0100
0000
0001
0000
0100
0001
,
0000
0000
1000
0000
0100
0100
0100
0000
,
0000
0000
1000
0000
0010
0000
1000
0002
,
0000
0000
0000
0203
0000
0000
0000
0320
,
0000
0000
0000
0000
,
2000
0000
0000
3030
,
1000
1000
0100
0010
,
0001
0100
0001
1000
,
0010
0100
0001
0010
,
0100
0000
1000
0010
1000
0000
0001
0000
,
0100
0000
0001
0000
0010
0000
0010
0001
,
0000
0010
0000
0001
0100
0000
0000
0000
,
0010
0000
1000
0000
0001
0000
1000
0100
,
0000
0100
0000
1000
0010
0000
0000
0000
,
1000
0001
0100
0001
,
1000
0100
1000
0010
,
0100
0001
0010
0100
,
1000
0000
0010
0100
0010
0000
0100
0000
,
0001
0000
1000
0000
0001
0000
1000
0100
,
0000
0100
0000
1000
0010
0000
0000
0000
,
0100
0000
0001
0000
0010
0000
0100
0010
,
0000
0100
0000
0010
0001
0000
1000
0000
,
0001
0100
0001
0001
,
0010
0100
1000
0000
,
1000
0000
0001
0000
0100
0000
0001
1000
,
0000
0010
0100
0010
0000
1000
0100
1000
,
0010
0100
0001
1000
,
0100
0010
0001
0100
,
0010
1000
1000
0100
,
0010
0001
0001
0100
,
0010
0000
0100
0000
0001
0100
0001
1000
,
0002
0000
0000
0003
,
1000
0000
0100
0000
1000
0000
0010
1000
,
0000
0010
1000
0000
0010
0000
0010
0000
,
0000
0000
0100
0000
0010
0000
0100
0001
,
0000
0100
0000
0001
0000
1000
0001
0000
,
0100
0000
0001
0000
0100
0000
0010
1000
,
0000
1000
0001
0000
0100
0000
0100
0000
,
0000
0000
0001
0000
1000
0000
0001
0100
,
0000
0010
0000
1000
0000
0001
1000
0000
,
0100
1000
0000
1000
,
0100
0000
1000
0000
0000
0010
1000
0000
,
0001
0100
0000
1000
,
0100
0000
0001
0000
0000
0010
0100
0000
,
1000
0010
0000
0001
,
0100
0000
0001
0000
0000
1000
0100
0000
,
0100
0010
0000
0001
,
0220
0000
0000
0330
,
0001
0000
1000
0000
0001
0000
1000
0001
,
0000
0001
0000
0100
0000
0100
0000
0000
,
0010
0000
1000
0000
0010
0000
0100
0010
,
0000
0010
0000
1000
0000
1000
0000
0000
,
0100
0000
1000
0000
0100
0000
0010
0001
,
0000
0001
0000
0010
0000
0010
0000
0000
,
0100
0000
0010
0000
1000
0000
0001
1000
,
0000
1000
0000
0001
0000
0001
0000
0000
,
0100
0000
0010
0000
0100
0010
0001
0000
,
0100
0000
0010
0000
1000
0100
0010
0000
,
0100
0000
0010
0000
1000
0001
1000
0000
,
0100
0000
0010
0000
0010
0001
0010
0000
,
0100
0010
1000
0010
,
0100
0010
1000
0001
,
0100
0001
0010
0100
,
2000
0000
0200
3300
,
1100
0000
0100
0000
0010
0000
0001
0100
,
0000
0100
0010
0000
2000
0000
0002
0000
,
3003
0000
0010
0000
1000
0000
0001
0100
,
0000
0100
0010
1000
0000
0010
0100
0000
,
0001
0000
1000
0000
0100
0000
0010
0001
,
0000
0001
1000
0000
0010
0100
0010
0000
,
0000
0000
1000
0000
0100
0000
0010
0100
,
0000
1000
0000
0001
0000
0100
0001
0000
,
0010
0000
0001
0000
0100
0000
0010
0100
,
0000
0100
0010
0000
2000
0000
0020
0000
,
3030
0000
0100
0000
0001
0000
0010
0100
,
0000
1000
0001
1000
0000
0010
0100
0000
,
0010
0000
1000
0000
0100
0000
0010
0001
,
0000
0001
0100
0000
0010
1000
0010
0000
,
0100
0000
0001
0000
0010
0000
0100
2000
,
0000
0000
0000
0200
0000
3000
0000
0020
,
0000
0330
0001
0100
,
0010
0000
1000
0000
0001
0100
0001
0100
,
0001
0000
1000
0000
0010
0000
0100
0010
,
0000
0010
0000
0100
0000
0010
1000
0000
,
0001
0100
0001
1000
,
0010
0000
1000
0000
1000
0010
0100
0010
,
0100
0000
0001
0000
0010
0000
0100
1000
,
0000
0001
0000
0100
0000
0010
0100
0000
,
2002
0000
0000
0000
,
0000
0000
3003
0000
;

//---------------dance-single - Copied from ----------------
#NOTES:
     dance-single:
     Copied from:
     Hard:
     8:
     0.581,0.628,0.111,0.213,0.004: // measure 1
0000
0000
0000
0000
,  // measure 2
0000
0000
0000
0000
,  // measure 3
0000
0000
0000
0000
,  // measure 4
0000
0000
0000
0000
0010
1000
0010
0000
,  // measure 5
1000
0000
0100
0000
1000
0000
0010
0100
,  // measure 6
0000
0100
0001
0010
0100
0100
0100
0000
,  // measure 7
1000
0000
0100
0000
0010
0000
0100
2000
,  // measure 8
0000
0000
0000
0002
0000
3000
0000
0200
,  // measure 9
0000
0000
0000
0000
,  // measure 10
0303
0000
0000
0000
,  // measure 11
0100
0010
1000
0010
0010
0000
0100
0000
,  // measure 12
0001
0010
0100
1000
0001
0000
0001
0000
,  // measure 13
1000
0100
0010
0000
1000
0100
0010
0000
,  // measure 14
0100
0010
0001
0100
0010
0100
0001
0000
,  // measure 15
1000
0001
0200
0000
0320
0000
1030
0100
,  // measure 16
0000
0100
0000
0010
0002
0000
0103
0000
,  // measure 17
0010
0100
0002
0000
0203
0000
0310
0100
,  // measure 18
0000
0010
0000
0010
2000
0000
3100
0000
,  // measure 19
1000
0010
0100
0001
0010
0100
0010
0001
,  // measure 20
1000
0100
0010
0001
0100
0000
0010
0000
,  // measure 21
0100
0001
0100
0010
1000
0100
0010
0100
,  // measure 22
1000
0001
0100
0010
0100
0000
0001
0000
,  // measure 23
1000
0100
2000
0000
3002
0000
0103
0001
,  // measure 24
0000
1000
0000
1000
0200
0000
1300
0000
,  // measure 25
0010
0100
0020
0000
2030
0000
3001
0100
,  // measure 26
0000
0010
0000
0010
0200
0000
0310
0000
,  // measure 27
1000
0001
0010
0100
0010
1000
0010
0001
,  // measure 28
0000
0100
0010
0100
0001
0010
0100
0000
,  // measure 29
1000
0100
1000
0001
0100
0001
1000
0100
,  // measure 30
0000
0011
0000
0011
0000
1100
0000
1000
,  // measure 31
0010
0100
0001
1000
0010
0000
0100
0010
,  // measure 32
1000
0100
0010
0001
0100
0000
0001
0000
,  // measure 33
0100
0100
1000
0001
0100
0001
0010
0100
,  // measure 34
0000
1000
0001
0010
0100
0001
0100
1000
,  // measure 35
0010
0010
0010
0010
,  // measure 36
2002
0000
0000
3003
,  // measure 37
0110
0000
1000
0000
0100
0000
0010
0001
,  // measure 38
0000
0010
0001
0000
0100
0000
0010
0000
,  // measure 39
1000
0000
0001
0000
0100
0000
0001
1000
,  // measure 40
0000
1000
0000
0001
0000
0010
0001
0000
,  // measure 41
0100
0000
0010
0000
1000
0000
0100
1000
,  // measure 42
0000
0100
1000
0000
0001
0000
0001
0000
,  // measure 43
1000
0000
0100
0000
1000
0000
0001
0100
,  // measure 44
0000
0100
0000
0010
1000
0010
1000
0000
,  // measure 45
0100
0000
0010
0000
0000
0001
0100
0000
,  // measure 46
0010
0000
1000
0000
0000
0100
0010
0000
,  // measure 47
0100
0000
1000
0000
0000
0010
0100
0000
,  // measure 48
0010
0000
0001
0000
0001
0010
0100
0000
,  // measure 49
0001
0000
0010
0000
0000
0100
1000
0000
,  // measure 50
0010
0000
0100
0000
0000
0010
0100
0000
,  // measure 51
1000
0000
0100
0000
0000
0010
0001
0000
,  // measure 52
0002
0000
2000
3003
,  // measure 53
0011
0000
0100
0000
1000
0000
0010
0100
,  // measure 54
0000
0010
0000
1000
0010
0100
0001
0000
,  // measure 55
0010
0000
0100
0000
1000
0000
0001
0100
,  // measure 56
0000
0100
0000
0001
0000
0001
1000
1000
,  // measure 57
0100
0000
0100
0000
0010
0001
1000
0010
,  // measure 58
0000
0010
0000
0100
1000
0010
0100
0000
,  // measure 59
0010
0000
0100
0000
0001
0000
0010
0001
,  // measure 60
0000
0001
0000
0100
0000
0100
0010
0000
,  // measure 61
1000
0000
1100
0000
0100
0010
0001
0000
,  // measure 62
0100
0000
0011
0000
0010
0100
0100
0000
,  // measure 63
0010
0000
1010
0000
0100
0001
1000
0000
,  // measure 64
0010
0000
0101
0000
0010
0001
0010
0100
,  // measure 65
1000
0000
0100
0000
0010
0000
0001
0010
,  // measure 66
1000
0000
0001
0000
0200
0000
0000
0010
,  // measure 67
0310
0000
0100
0010
0010
0000
0100
0000
,  // measure 68
1000
0000
0000
0100
0000
0000
0010
0000
0001
0000
1000
0000
0100
0000
1000
0000
,  // measure 69
0100
0010
0001
0100
0001
1000
0100
0010
,  // measure 70
0000
0100
1000
0001
0010
0000
1001
0000
,  // measure 71
0100
0010
0100
0001
0010
0100
0010
1000
,  // measure 72
0000
1000
0010
0001
0000
0001
0100
0000
,  // measure 73
0010
0100
0001
0100
0010
1000
0100
0010
,  // measure 74
0000
0001
0001
0100
0010
0100
0001
0000
,  // measure 75
1000
0100
0010
0100
1000
0001
0100
0001
,  // measure 76
0000
1000
0100
1000
0000
0001
0100
0000
,  // measure 77
1000
0100
0010
0100
0001
0010
1000
0010
,  // measure 78
0000
0100
0001
0010
0002
0000
0203
0000
,  // measure 79
0310
1000
0010
0100
1000
0100
0010
1000
,  // measure 80
0000
0100
0010
0001
0000
0010
0100
0000
,  // measure 81
0001
1000
0001
0010
0100
0010
0001
0100
,  // measure 82
0000
1000
0100
0010
0100
0100
0010
0000
,  // measure 83
0001
0100
0010
1000
0100
0010
0001
0200
,  // measure 84
0010
0000
0310
2000
0100
0000
3100
0020
,  // measure 85
0001
0001
0031
1000
,  // measure 86
0001
0000
0100
0000
0001
0010
0001
0010
,  // measure 87
0100
0000
0100
0000
1000
0000
0010
0100
,  // measure 88
0000
1001
0000
1001
0000
0010
0100
1000
,  // measure 89
0010
0000
0100
0000
0001
0100
0001
0010
,  // measure 90
0100
0000
0100
0000
1000
0010
1000
0000
,  // measure 91
0001
0010
0100
0010
0001
0100
0010
1000
,  // measure 92
0000
1000
0000
0001
0000
0001
0100
0000
,  // measure 93
0220
0000
0000
0000
,  // measure 94
0000
0000
0330
0000
;
