#TITLE:CAT'S EYE;
#SUBTITLE:;
#ARTIST:Yoko Koboyashi;
#TITLETRANSLIT:;
#SUBTITLETRANSLIT:;
#ARTISTTRANSLIT:;
#GENRE:;
#CREDIT:;
#MENUCOLOR:;
#NEWMETERSYSTEM:NO;
#BANNER:CAT'S EYE-bn.png;
#BACKGROUND:CAT'S EYE-bg.png;
#LYRICSPATH:;
#CDTITLE:Z-I-v Summer Contest 2010-cdtitle.png;
#MUSIC:CAT'S EYE.mp3;
#OFFSET:-0.040;
#SAMPLESTART:35.580;
#SAMPLELENGTH:14.000;
#SELECTABLE:YES;
#LISTSORT:;
#BPMS:0.000=188.140;
#STOPS:;
#BGCHANGES:;
#ATTACKS:;

//---------------dance-single - ----------------
#NOTES:
     dance-single:
     :
     Easy:
     4:
     0.394,0.504,0.208,0.352,0.000:
0000
0000
0000
0000
,
0000
0000
0000
0000
,
0000
0000
0000
0000
,
0000
0000
0000
0000
,
0000
0000
0000
0000
,
0000
0000
0000
0000
,
0020
0000
2030
0000
,
3200
0000
0320
0000
,
0032
0000
0023
0000
,
0032
0000
2000
3003
,
0110
0010
1000
0100
,
0001
0000
1001
0000
,
0010
0100
0010
1000
,
0001
0100
0001
0000
,
1001
0100
0010
0001
,
1000
0000
0110
0000
,
0001
0100
0001
1000
,
0100
0000
1000
0000
,
0110
2002
3003
0000
,
0100
0010
0100
0001
,
1000
0100
0001
0100
,
1000
0010
0100
0001
,
1000
0000
0001
0000
,
0010
0100
0010
0001
,
0100
0010
1000
0010
,
0100
0000
0001
0000
,
1000
0000
0100
0000
,
2002
0000
3003
0000
,
0010
0100
0010
0100
,
0001
0100
0001
0100
,
1000
0100
0010
0001
,
2000
0000
0020
3030
,
1000
0100
1000
0100
,
0001
0100
0001
0100
,
0001
0010
0100
1000
,
0100
0000
0010
0000
,
2002
3003
0220
0330
,
2002
0000
0000
3003
,
0010
0100
0010
1000
,
0100
1000
0001
0100
,
0101
0000
0000
0000
,
1100
0000
0000
0000
,
1001
0000
0000
0000
,
0110
0100
0010
0100
,
0001
0100
0001
0100
,
0010
1000
0100
0010
,
0001
0010
0001
0010
,
0100
1000
0010
0100
,
0010
1000
0010
1000
,
0200
0000
2000
3300
,
1001
0100
0010
0100
,
1000
0000
0110
0000
,
0001
0100
0001
1000
,
0100
0010
0001
0000
,
0110
0010
1000
0001
,
0100
0000
1001
0000
,
0100
0010
1000
0001
,
0010
0100
0100
0000
,
0110
2002
3003
0000
,
0001
1000
0001
0000
,
1000
0100
1000
0000
,
0010
0100
0001
0010
,
0001
1000
0100
0000
,
1000
0100
0010
0000
,
0001
0010
0100
0000
,
0010
0001
1000
0001
,
0010
0100
0010
0001
,
2002
0000
0000
3003
,
0010
1000
0010
1000
,
0001
0010
0001
0010
,
0001
0100
0010
1000
,
0002
0000
0200
0303
,
1000
0100
1000
0100
,
0001
0100
0001
0100
,
1000
0010
1000
0001
,
0010
0000
0100
0000
,
0220
0330
2002
3003
,
0220
0000
0000
0000
,
0000
0000
0000
0330
,
1001
0000
0000
0000
,
0010
0100
0010
0100
,
0001
1000
0001
1000
,
0100
1000
0010
0100
,
0002
0000
0200
0303
,
1000
0100
1000
0100
,
0010
0001
0010
0001
,
0100
0010
0100
0001
,
2000
0000
0002
3003
,
1000
0100
0010
0001
,
1000
0100
0010
0001
,
0100
0010
0100
0001
,
0002
0000
2000
3003
,
0001
0010
0100
1000
,
0001
0010
0100
1000
,
0010
0100
0001
0010
,
0200
0000
2000
3300
,
2002
0000
0000
0000
,
3003
0000
0000
0000
;

//---------------dance-single - Copied from----------------
#NOTES:
     dance-single:
     Copied from:
     Beginner:
     2:
     0.155,0.269,0.168,0.096,0.000:
0000
0000
0000
0000
,
0000
0000
0000
0000
,
0000
0000
0000
0000
,
0000
0000
0000
0000
,
0000
0000
0000
0000
,
0000
0000
0000
0000
,
0010
0000
0000
0000
,
1000
0000
0000
0000
,
0010
0000
0000
0000
,
0001
0000
1000
0000
,
1001
0000
0000
0000
,
0010
0000
0000
0000
,
0100
0000
0000
0000
,
0010
0000
0000
0000
,
0001
0000
0000
0000
,
1000
0000
0000
0000
,
0010
0000
0000
0000
,
0001
0000
0000
0000
,
1001
1001
0000
0000
,
0020
0000
0030
0000
,
2000
0000
3000
0000
,
0002
0000
0003
0000
,
0200
0000
0300
0000
,
0020
0000
0030
0000
,
2000
0000
3000
0000
,
0001
0000
0000
0000
,
0100
0000
0000
0000
,
1001
0000
0000
0000
,
0110
0000
0000
0000
,
0010
0000
0000
0000
,
1000
0000
0100
0000
,
0001
0000
0000
0000
,
1001
0000
0000
0000
,
0100
0000
0000
0000
,
0001
0000
0010
0000
,
1000
0000
0000
0000
,
1001
0000
0000
0000
,
0110
0000
0000
0000
,
0001
0000
1000
0000
,
0001
0000
0000
0000
,
1000
0000
0000
0000
,
0100
0000
0000
0000
,
0010
0000
0000
0000
,
0001
0000
0000
0000
,
0100
0000
0000
0000
,
0100
0000
0000
0000
,
0010
0000
0000
0000
,
1000
0000
0000
0000
,
0100
0000
0000
0000
,
0001
0000
0010
0000
,
0011
0000
0000
0000
,
0001
0000
0000
0000
,
1000
0000
0000
0000
,
0100
0000
0000
0000
,
0010
0000
0000
0000
,
1000
0000
0000
0000
,
0001
0000
0000
0000
,
0100
0000
0000
0000
,
0110
0110
0000
0000
,
0020
0000
0030
0000
,
2000
0000
3000
0000
,
0200
0000
0300
0000
,
0002
0000
0003
0000
,
0200
0000
0300
0000
,
0002
0000
0003
0000
,
1000
0000
0000
0000
,
0100
0000
0000
0000
,
0110
0000
0000
0000
,
1001
0000
0000
0000
,
0010
0000
0000
0000
,
1000
0000
0100
0000
,
0001
0000
0000
0000
,
1001
0000
0000
0000
,
0100
0000
0000
0000
,
0001
0000
0010
0000
,
1000
0000
0000
0000
,
1001
0000
0000
0000
,
0110
0000
0000
0000
,
0000
0000
0000
0000
,
0010
0000
0000
0000
,
1001
0000
0000
0000
,
0010
0000
0000
0000
,
1000
0000
0001
0000
,
1000
0000
0000
0000
,
1001
0000
0000
0000
,
0100
0000
0000
0000
,
0001
0000
1000
0000
,
0001
0000
0000
0000
,
0110
0000
0000
0000
,
0010
0000
0000
0000
,
1000
0000
0100
0000
,
1000
0000
0000
0000
,
0110
0000
0000
0000
,
1000
0000
0000
0000
,
0001
0000
0100
0000
,
0001
0000
0000
0000
,
1001
0000
0000
0000
;

//---------------dance-single - Copied from----------------
#NOTES:
     dance-single:
     Copied from:
     Medium:
     6:
     0.507,0.543,0.192,0.320,0.004:
0000
0000
0000
0000
,
0000
0000
0000
0000
,
0000
0000
0000
0000
,
0000
0000
0000
0000
,
0000
0000
0000
0000
,
0000
0000
0000
0000
,
0001
0100
0010
1000
,
0001
0100
0010
1000
,
0100
0010
0001
1000
,
0002
1000
0200
0303
,
1001
1000
0010
1000
,
0001
0000
0100
0000
0010
0010
0010
0000
,
1000
0100
0010
0001
,
1000
0001
0100
0010
,
1000
0001
0100
0001
,
1000
0000
0010
0000
0001
0001
0001
0000
,
1000
0100
0010
0001
,
0010
0100
0010
1000
,
1001
0000
1001
0000
1000
0010
1000
0010
,
0200
0010
0010
0310
,
0002
0100
0100
0103
,
2000
0001
0001
3001
,
0020
0000
0000
0000
1000
0000
0000
0000
1000
0000
0000
0000
1030
0000
0000
0001
,
2000
0010
0010
3010
,
0200
1000
1000
1300
,
0001
0100
0010
0000
1000
0001
0010
0000
,
0100
1000
0010
0001
,
2002
0000
0000
3003
,
0100
0000
1000
0100
0010
0000
0100
0000
,
0001
1000
0001
0100
0001
0000
1000
0000
,
0100
0000
1000
0000
0010
0000
0100
0001
,
1000
0010
0220
0330
,
0001
0000
0100
0001
0010
0000
0100
0000
,
1000
0100
0010
0001
1000
0000
0010
0000
,
0100
0000
0001
0000
0100
0010
1000
0000
,
1001
1000
0200
0320
,
0031
0000
0100
0000
0001
1000
0001
0000
,
0220
0000
0330
0000
,
1000
0100
0010
0001
,
0100
0010
1000
1000
,
0101
0000
0000
0000
0000
0000
0000
1000
,
1100
0000
0000
0000
,
0110
0000
0000
0000
,
0001
0101
1000
1100
,
0010
0100
0010
0000
1000
0100
1000
0000
,
0001
0000
0100
0000
1000
1000
1000
0000
,
0001
0010
0001
0000
1000
0100
1000
0000
,
0010
1000
0001
0100
,
0010
0100
0010
0000
1000
0100
1000
0000
,
0002
0100
2000
3003
,
1001
0010
0100
0010
,
1000
0000
0010
0000
0100
0100
0100
0000
,
0010
1000
0001
0100
,
0010
0100
0001
1000
,
0100
0010
1000
0001
,
0100
0000
0001
0000
0010
0010
0010
0000
,
0100
1000
0010
0100
,
0001
0001
1000
0010
,
0110
0000
0110
0000
0010
1000
0010
1000
,
0002
0010
0100
1003
,
0200
0010
1000
0301
,
2000
0100
0001
3100
,
0020
0100
0001
1030
,
0200
0001
1000
0301
,
2000
0001
0001
3100
,
0001
0100
0001
0000
1000
0100
1000
0000
,
0010
0100
0001
1000
,
2002
0000
0000
3003
,
1000
0000
1000
0001
0010
0000
0100
0000
,
0010
0001
0100
0010
1000
0000
0001
0000
,
0100
0000
0100
0000
0001
0000
1000
0001
,
0100
0010
2002
3003
,
0001
0000
0100
1000
0100
0000
0010
0000
,
1000
0001
1000
0001
0010
0000
0100
0000
,
1000
0000
0100
0000
0001
0000
0100
1000
,
0001
0101
2000
3020
,
0130
0000
0001
0000
1000
0001
1000
0000
,
0220
0000
0000
0000
,
0000
0000
0000
0330
,
1001
0000
0000
0000
,
0010
0000
0100
0001
1000
0000
0100
0000
,
0010
0100
1000
0001
0010
0000
1000
0000
,
0010
0000
0100
0000
0010
0000
0001
1000
,
0100
0010
2200
3300
,
0001
0000
0001
0010
0100
0000
0001
0000
,
1000
0010
1000
0001
0100
0000
0010
0000
,
1000
0010
1000
0010
,
0001
1000
0220
0330
,
0100
0000
0010
0100
0001
0000
0100
0000
,
0010
0100
1000
0100
0010
0000
0100
0000
,
0001
0000
0001
0000
0100
0000
1000
0100
,
1000
0100
0220
0330
,
1000
0000
0010
1000
0001
0000
0100
0000
,
0100
0001
1000
0001
0100
0000
1000
0000
,
0100
0000
0010
0000
1000
0000
0001
0010
,
0100
0010
1000
0001
,
0220
0000
0000
0000
,
0330
0000
0000
0000
;

//---------------dance-single - Copied from ----------------
#NOTES:
     dance-single:
     Copied from:
     Hard:
     9:
     0.726,0.659,0.096,0.440,0.048: // measure 1
0000
0000
0000
0000
,  // measure 2
0000
0000
0000
0000
,  // measure 3
0000
0000
0000
0000
,  // measure 4
0000
0000
0000
0000
,  // measure 5
0000
0000
0000
0000
,  // measure 6
0000
0000
0000
0000
,  // measure 7
1000
0100
0010
0000
0100
0010
0001
0000
,  // measure 8
1000
0001
1000
0001
0100
0001
1000
0000
,  // measure 9
0100
1000
0010
0000
0100
0001
1000
0000
,  // measure 10
2000
0001
0020
3030
,  // measure 11
0001
0100
1000
0100
0001
0010
0100
0000
,  // measure 12
0001
1000
0010
0000
1000
1000
1000
0000
,  // measure 13
0100
0010
0100
0001
1000
0100
0010
0000
,  // measure 14
0100
0000
0001
0000
0100
0000
0020
0000
0100
0000
0000
0000
1030
0000
0000
1000
,  // measure 15
0100
0010
0001
1000
0010
0100
0010
0000
,  // measure 16
1000
0100
0010
0000
0001
0001
0001
0000
,  // measure 17
1000
0010
0100
0001
0010
0100
0010
0001
,  // measure 18
1000
0010
0100
0010
1000
0000
0100
0000
,  // measure 19
1100
0000
0011
0000
0100
0010
0100
0010
,  // measure 20
1000
0100
0010
0001
0100
0010
1000
0000
,  // measure 21
0100
0010
0001
1000
0010
0100
0001
0000
,  // measure 22
0010
0100
1000
0001
0010
0100
1000
0010
,  // measure 23
0100
0000
0000
0000
0001
0000
0000
0000
1000
0000
0000
0000
0010
0000
0000
1000
,  // measure 24
0100
1000
0001
0010
0001
0001
0100
0000
,  // measure 25
0010
0100
0010
1000
0100
1000
0001
0000
,  // measure 26
0100
0010
0100
1000
0001
0100
0010
0100
,  // measure 27
0001
0010
0001
0000
1000
0100
1000
0000
,  // measure 28
0010
0000
0000
0010
0000
0000
1000
0001
1000
0000
0000
0000
0000
0000
0200
0000
,  // measure 29
0000
1300
0100
0010
0001
0200
0000
0320
,  // measure 30
0000
0130
0001
0010
0100
0020
0000
0032
,  // measure 31
0000
1003
0100
1000
0010
0100
0001
1000
,  // measure 32
0100
1000
0100
0010
0001
0100
0010
0200
,  // measure 33
0000
0310
1000
0001
0100
0020
0000
2030
,  // measure 34
0000
3010
0100
0001
0010
0200
0000
0320
,  // measure 35
0000
0031
0100
0001
1000
0010
1000
0100
,  // measure 36
0010
0000
0010
0000
1000
0100
0001
0100
,  // measure 37
2000
0010
3002
0103
,  // measure 38
2002
0000
3003
0000
0200
0000
0000
0300
,  // measure 39
0001
0100
0001
0010
0001
0100
0010
0000
,  // measure 40
1000
0010
0100
0001
0010
0100
1000
0000
,  // measure 41
0220
0000
0000
0000
0000
0330
0000
1000
,  // measure 42
2002
0000
0000
3003
,  // measure 43
0202
0000
0000
0303
,  // measure 44
1010
0000
0000
0000
0101
0000
0000
0000
1000
0000
0001
0100
0001
0000
1000
0000
,  // measure 45
0100
1000
0010
1000
0001
0100
0010
1000
,  // measure 46
0100
0010
0001
0010
0100
1000
0001
0000
,  // measure 47
0010
0001
0100
0010
0100
0001
1000
0010
,  // measure 48
0100
0000
0001
0000
0010
0000
0100
0000
1000
0000
0010
0000
0100
0000
0000
0001
,  // measure 49
0010
0001
1000
0100
0010
0100
0001
0100
,  // measure 50
0200
1000
0020
0330
,  // measure 51
1000
0001
0100
0010
1000
0100
0001
0000
,  // measure 52
0100
1000
0010
0000
0100
0100
0100
0000
,  // measure 53
0001
0100
0001
1000
0010
0100
0001
0000
,  // measure 54
1000
0000
0100
0000
0010
0000
0200
0000
1000
0000
0000
0000
1300
0000
0000
0001
,  // measure 55
0010
0100
1000
0001
0100
0010
0100
0000
,  // measure 56
0001
0100
0001
0000
1000
1000
1000
0000
,  // measure 57
0010
1000
0010
0100
0001
0010
0100
0010
,  // measure 58
0001
0100
0001
0000
1000
0100
1000
0000
,  // measure 59
1010
0000
0101
0000
0001
1000
0001
1000
,  // measure 60
0010
0100
0010
1000
0100
0010
0001
0000
,  // measure 61
0100
0010
1000
0100
1000
0100
0010
0000
,  // measure 62
0001
0100
1000
0100
0001
0010
1000
0010
,  // measure 63
0001
0000
0100
0000
0001
0000
0010
0000
0100
0000
1000
0000
0100
0000
0000
1000
,  // measure 64
0100
0010
0001
0100
0001
1000
0001
0000
,  // measure 65
0100
0010
1000
0100
0010
0001
0010
0000
,  // measure 66
0001
0100
0001
1000
0100
1000
0010
0100
,  // measure 67
0001
0100
1000
0000
1000
0100
0001
0000
,  // measure 68
0100
0000
0000
0100
0000
0000
0001
1000
0001
0000
0000
0000
0000
0000
0020
0000
,  // measure 69
0000
0031
0010
0100
1000
0200
0000
2300
,  // measure 70
0000
3010
0100
0001
0010
0002
0000
0203
,  // measure 71
0000
0301
1000
0100
0001
0100
1000
0010
,  // measure 72
0100
0010
0100
0001
0010
0001
1000
0200
,  // measure 73
0000
1300
0100
0010
0001
0020
0000
0032
,  // measure 74
0000
1003
0001
0100
0010
2000
0000
3020
,  // measure 75
0000
0130
0010
1000
0100
0010
0100
1000
,  // measure 76
0010
0000
0100
0000
0001
0100
1000
0100
,  // measure 77
0002
0100
2003
3010
,  // measure 78
2002
0000
0000
0000
,  // measure 79
0000
0000
0000
3003
,  // measure 80
0010
0000
0000
0100
0000
0000
0001
1000
0001
0000
0000
0000
0000
0000
2000
0000
,  // measure 81
0000
3010
1000
0010
0100
0001
0100
0020
,  // measure 82
0000
0130
0001
0010
0100
1000
0010
0200
,  // measure 83
0000
0301
0010
0001
0100
1000
0100
0001
,  // measure 84
0010
0100
0010
0100
1000
0010
0100
0002
,  // measure 85
0000
0013
0100
1000
0001
0100
0001
2000
,  // measure 86
0000
3010
0001
0010
1000
0001
0100
0020
,  // measure 87
0000
1030
0100
0001
0100
1000
0001
0010
,  // measure 88
0001
0000
0100
0000
0010
0100
0010
2000
,  // measure 89
0000
3100
0010
0001
1000
0100
1000
0020
,  // measure 90
0000
1030
0001
0010
1000
0010
0001
0002
,  // measure 91
0000
1003
0010
0100
0001
0100
0010
1000
,  // measure 92
0001
1000
0100
0010
0001
0100
0010
0200
,  // measure 93
0000
0301
0010
0100
0010
0001
1000
0020
,  // measure 94
0000
0130
1000
0100
0010
1000
0001
2000
,  // measure 95
0000
3100
0010
0001
0100
0010
1000
0001
,  // measure 96
0100
0001
0100
1000
0100
0010
0100
0000
,  // measure 97
2002
0000
0000
0000
,  // measure 98
3003
0000
0000
0000
;
