#TITLE:Who Is It?;
#SUBTITLE:;
#ARTIST:Michael Jackson;
#TITLETRANSLIT:;
#SUBTITLETRANSLIT:;
#ARTISTTRANSLIT:;
#CREDIT:;
#BANNER:bn.png;
#BACKGROUND:bg.png;
#LYRICSPATH:;
#CDTITLE:;
#MUSIC:Michael Jackson Who Is It.mp3;
#OFFSET:-0.040;
#SAMPLESTART:55.320;
#SAMPLELENGTH:12.000;
#SELECTABLE:YES;
#BPMS:0.000=102.960;
#STOPS:126.000=0.583
;
#BGCHANGES:;

//---------------dance-single - ----------------
#NOTES:
     dance-single:
     :
     Hard:
     7:
     0.370,0.381,0.107,0.253,0.065:
0000
0000
0000
0000
,
0000
0000
0000
0000
,
0000
0000
0000
0000
,
0000
0000
0000
0000
,
2000
0000
3100
0000
1000
0100
0001
0100
,
1000
0000
1010
0000
0010
1000
0100
1000
,
0001
0000
1001
0000
0001
0010
1000
0010
,
0002
0103
0200
0310
,
1000
0000
0001
0000
1000
0001
0100
0001
,
0020
0000
0031
0000
0001
0100
0010
1000
,
1010
0000
0101
0000
0001
1000
0100
0000
,
2000
3100
0200
0310
,
0011
0000
1100
0000
1000
0100
0001
0100
,
1000
0000
1010
0000
1000
0010
0001
0010
,
1000
0000
1001
0000
0001
0100
0010
1000
,
0200
1300
0020
0130
,
1001
0000
0001
1000
0100
0000
1000
0000
,
0002
0010
0100
1003
,
1000
0000
1000
0010
0100
0000
0100
0000
,
0020
0000
0000
0000
0130
0000
0000
0100
,
0010
0000
0100
0010
1000
0001
0010
1000
,
0010
0001
0200
0000
0310
0000
0010
0000
,
0100
0000
0010
1000
0000
0001
0010
0000
0000
0000
0000
0000
0000
0000
0001
0000
,
1001
0000
0001
0100
0020
0000
0200
0000
0000
0000
0330
0000
0100
0000
0010
0000
,
1001
1000
0001
0010
0001
0001
0010
0100
,
1000
0010
0200
0000
0301
0000
0001
0001
,
1000
0100
1000
0010
0100
0001
0010
1000
,
0010
0001
0100
0010
1010
0000
0100
0100
,
0010
0000
0100
0010
1000
0000
0001
0000
0010
0000
0001
0000
0100
0000
0010
0000
,
1000
1000
0001
0010
1100
0000
1000
0001
,
0100
0001
0010
0001
0010
1000
0010
0001
,
0100
0001
0100
0100
0010
0000
0002
0000
,
0013
0000
0100
0001
0100
0000
0001
0000
,
1000
0000
0010
1000
0100
0010
0100
0000
,
1000
0000
0001
0100
0010
0000
0100
0000
,
0100
0000
0100
0010
0010
1000
1001
0000
,
0001
0000
1000
0001
0100
0000
0100
0000
,
0010
0000
0010
1000
0001
0010
0200
0000
,
1300
0000
2000
0000
3010
0100
0010
1000
,
0001
0010
0200
0000
0320
0000
0032
0000
,
0000
1000
1000
0200
,
0303
0100
0100
0200
,
0000
0000
0000
0000
0010
0000
0000
0000
0010
0000
0000
0000
0310
0000
0000
1000
,
0000
0001
0020
0000
0032
0000
0203
0000
,
0010
0000
0310
1000
0001
0010
0200
0000
,
1000
0000
1300
0010
0100
0001
0020
0000
,
0001
0000
0000
0000
0130
0000
0010
0000
0001
0000
0010
0000
0002
0000
0000
0010
,
0003
0000
0010
0000
0200
0000
0000
0000
2000
0000
0000
0000
3300
0000
0010
0001
,
0010
0000
0001
0000
0100
0000
0000
0010
1000
0000
0000
0000
0000
0000
0001
0100
,
0010
0000
1000
0000
0100
0000
0000
1000
0000
0000
0010
0000
0000
0000
0100
0000
,
0010
0000
1000
0000
0001
0000
0000
1000
0000
0000
0001
0000
0100
0000
0000
0001
,
0000
0000
0010
0000
0100
0000
0000
1000
0100
0000
0000
0000
1000
0000
0000
0100
,
0000
0000
0010
0000
0002
0000
0000
0000
0013
0000
0000
0000
0001
0000
0000
0100
,
0000
0000
0010
0000
2000
0000
0000
0000
3001
0000
0000
0000
0001
0000
0000
0100
,
0000
0000
0010
0000
2000
0000
0000
0000
3100
0000
0000
0000
1000
0000
0000
0001
,
0000
0100
0010
0000
0000
0000
0000
0000
;

//---------------dance-single - ----------------
#NOTES:
     dance-single:
     :
     Medium:
     5:
     0.251,0.297,0.084,0.215,0.000:
0000
0000
0000
0000
,
0000
0000
0000
0000
,
0000
0000
0000
0000
,
0000
0000
0000
0000
,
0100
0000
0100
0000
0100
0010
1000
0000
,
0001
0000
0001
0000
1000
0010
0100
0000
,
0010
0000
0010
0000
1000
0001
0100
0000
,
0001
1000
0100
0000
,
1000
0001
0100
0000
,
0001
1000
0100
0000
,
1000
0000
0010
0000
0100
0001
0100
0000
,
0011
0000
1100
0000
0000
0001
0000
0000
,
1001
0000
1001
0000
0001
1000
0100
0000
,
1000
0000
0010
0000
0100
0010
1000
0001
,
0010
0010
0001
1000
,
0001
0000
0100
0010
1000
0000
0000
0000
,
2000
0010
0000
0010
,
0010
0000
3010
0000
,
0002
0100
0000
0100
,
0200
0000
0303
0000
,
1001
0001
1000
0100
,
1000
0010
0100
0000
,
0002
0000
0003
0000
,
2000
0000
3000
0000
,
1000
0000
0001
0000
0100
0100
0001
0000
,
0010
0000
0001
0000
1100
0000
0100
1000
,
0010
0000
0100
0000
0100
0010
1000
0001
,
0010
0001
0100
0010
1000
0000
0010
0000
,
0100
0000
0010
1000
0001
0000
1000
0000
,
0100
0001
0100
1000
,
0010
0001
0010
1000
,
0001
1000
0100
0010
0001
0000
0002
0000
,
0103
0000
0000
0001
0100
0010
0200
0000
,
0310
0000
0000
1000
0100
1000
0100
0000
,
1000
0000
1000
0010
,
0100
0000
0000
0100
0010
1000
0001
0000
,
0001
0000
0001
0001
,
0100
0000
0000
0100
0010
1000
0001
0000
,
0001
0000
1000
1001
,
0101
1100
0101
2000
,
0000
0100
0100
0200
,
3300
0001
0001
0002
,
0000
0100
0100
0200
,
0000
0000
0303
2002
,
3003
1000
0200
2000
,
3300
1000
0020
0200
,
0330
0100
0010
2000
,
0000
0000
0002
0000
3003
0000
0000
0001
,
0100
0001
0020
0000
0031
0000
0000
0010
,
0001
0100
0020
0000
0130
0000
0000
0010
,
1000
0100
2000
0000
3010
0000
2000
0000
,
0000
0002
3003
2000
,
3000
0010
0100
0002
,
0003
0001
0100
0020
,
0030
0010
1000
0200
,
0000
0300
0000
0000
;

//---------------dance-single - ----------------
#NOTES:
     dance-single:
     :
     Easy:
     2:
     0.123,0.191,0.008,0.130,0.000:
0000
0000
0000
0000
,
0000
0000
0000
0000
,
0000
0000
0000
0000
,
0000
0000
0000
0000
,
1000
0000
0000
0000
,
0001
0000
0000
0000
,
0100
0000
0000
0000
,
0010
0000
0000
0000
,
0000
1000
0001
0000
,
0000
0001
0001
0000
,
0100
0000
0010
0000
,
0010
1000
0100
0000
,
1100
0000
1000
0000
,
0001
0001
0001
0000
,
0100
0000
0010
0000
,
1000
1000
0010
0000
,
0200
0000
0000
0300
,
0010
0000
1000
0000
,
0002
0000
0000
0003
,
1000
0000
0010
0000
,
0200
0000
0000
0300
,
0010
0000
1000
0000
,
0002
0000
0000
0003
,
2000
0000
0000
3000
,
0001
0000
1000
0000
,
0010
0010
0010
0000
,
0100
0000
0010
0000
,
1000
0001
0100
0000
,
0100
0000
0001
0000
,
0010
0100
1000
0000
,
1000
0000
1000
0000
,
1000
0001
0100
0000
,
0000
0000
0000
0000
,
0000
0000
0000
0010
1000
0010
0000
0000
,
0000
0000
0000
0000
,
0000
0000
0000
0001
0100
0010
0000
0000
,
0000
0000
0000
0000
,
0000
0000
0000
0100
0010
1000
0000
0000
,
0000
0000
0000
1000
,
0001
0100
0100
0002
,
0000
0000
0003
2000
,
0000
0000
3000
0020
,
0000
0000
0030
0200
,
0000
0000
0300
0020
,
0000
0000
0030
2000
,
0000
0000
3000
0002
,
0000
0000
0003
0020
,
0000
0000
0030
0000
,
0001
1000
0200
0300
,
1000
0010
0200
0300
,
0100
0010
1000
0002
,
0000
2000
3003
0001
,
0000
1000
0000
0010
,
0000
0100
0000
0010
,
0000
1000
0000
0001
,
0000
1000
0000
0000
;

//---------------dance-double - ----------------
#NOTES:
     dance-double:
     :
     Hard:
     7:
     0.369,0.381,0.207,0.322,0.008:
00000000
00000000
00000000
00000000
,
00000000
00000000
00000000
00000000
,
00000000
00000000
00000000
00000000
,
00000000
00000000
00000000
00000000
,
01010000
00000000
00110000
00000000
00100000
00001000
00010000
00000100
,
00001100
00000000
00001010
00000000
00001000
00000001
00000010
00000100
,
00001000
00010100
00010000
00001000
,
01000000
00000000
00100000
00000000
10000000
00000000
00010000
01000000
,
00100000
00000000
01000000
00000000
00100000
10000000
00010000
00000000
,
00100000
00000000
00110000
00000000
00100000
00001000
00010000
00000000
,
00001000
00000000
00010000
00000000
00000100
00001000
00000001
00000100
,
00000020
00000130
00000020
00001030
,
00000200
00000000
00010300
00000000
00010000
00001000
00100000
00010000
,
02000000
00000000
03001000
00000000
01000000
00010000
00100000
00001000
,
00020000
00000000
00030100
00000000
00010000
00001000
00100000
00010000
,
02000000
03100000
00200000
10300000
,
10010000
00000000
00010000
00000000
00100000
00000000
00010000
01000000
,
00100000
00000000
01000000
00000000
01000000
00010000
00100000
00000000
,
00110000
00000000
00100000
00000000
00001000
00010000
00000100
00000000
,
00001100
00000010
00000101
00000100
,
00001001
00000000
00000001
00000000
00000001
00000100
00000010
00001000
,
00000100
00000000
00010000
00000000
00001000
00100000
00010000
00000000
,
00220000
00000000
00000000
00000000
00330000
00000000
00000000
10000000
,
20020000
00000000
00000000
00000000
30030000
00000000
10000000
00010000
,
00110000
01000000
00100000
10000000
00010000
00100000
00001000
00010000
,
00000100
00001000
00000020
00000000
00000130
00000000
00000001
00000001
,
00001000
00000100
00000001
00000100
00001000
00000100
00000010
00000100
,
00001000
00000100
00000010
00000001
00001001
00000000
00000010
00000010
,
00000110
00000000
00000010
00001000
00000100
00000000
00010000
00000000
00001000
00000000
00100000
00000000
00010000
00000000
01000000
00000000
,
00100000
00100000
01000000
00010000
00100000
00000000
00010000
10000000
,
01000000
00100000
00001000
00010000
00000100
00001000
00000010
00000100
,
00000001
00000100
00001000
00000100
00000001
00000000
00000110
00000000
,
00001001
00000000
00000000
00000010
00001000
00000100
00010000
00000000
,
00101000
00000000
00100000
01000000
01000000
01000000
00100000
00000000
,
01100000
00000000
00100000
10000000
00010000
00000000
00200000
00000000
,
00310000
00020000
01030000
01010000
,
00110000
00000000
00100000
00001000
00010000
00000010
00000100
00000001
,
00000010
00000100
00002000
00000000
00003200
00000000
00020000
00000000
,
00030300
00000000
00000000
00000000
00000100
00010000
00001000
00100000
,
00010000
10000000
10010000
00000000
00011000
00000000
00001200
00000000
,
00000000
00001000
00001000
00002000
,
00000300
00000010
00000010
00000020
,
00003000
00000100
00000100
00000230
,
00000302
00000023
00000230
00001300
,
00001100
00000000
00001000
00001000
00000100
00010000
00002000
00000000
,
00013000
00000000
00001000
00100000
00010000
01000000
00200000
00000000
,
01300000
00000000
01000000
01000000
00100000
10000000
00020000
00000000
,
00230000
00000000
02300000
00000000
20000000
00000000
33000000
10000000
,
00010000
00100000
00002000
00000000
00013000
00000000
00000000
00010000
,
00000100
00001000
00000020
00000000
00000130
00000000
00000000
00000100
,
00000010
00000001
00000010
00001000
00000100
00010000
00001000
01000000
,
00100000
10000000
00020000
00000000
00130000
00000000
00120000
00000000
,
00000000
00230000
00302000
00020000
,
00033000
00020000
00030020
00000200
,
00000330
00000000
00000000
00000000
00000002
00000000
00000000
00000000
00000023
00000000
00000000
00000000
00000130
00000000
00000000
00010000
,
00000000
00001000
00010000
00000000
00000000
00000000
00000000
00000000
;

//---------------dance-double - ----------------
#NOTES:
     dance-double:
     :
     Medium:
     5:
     0.313,0.339,0.153,0.414,0.000:
00000000
00000000
00000000
00000000
,
00000000
00000000
00000000
00000000
,
00000000
00000000
00000000
00000000
,
00000000
00000000
00000000
00000000
,
20000000
31000000
20000000
30100000
,
02000000
03100000
02000000
03010000
,
00020000
00130000
00200000
00301000
,
00020000
00000000
00030100
00000000
00002000
00000000
00003010
00000100
,
00000110
00000000
00000110
00000000
00000010
00001000
00000100
00000000
,
00001100
00000000
00001100
00000000
00000100
00010000
00001000
00000000
,
00011000
00000000
00011000
00000000
00001000
00100000
00010000
00000000
,
01000000
01000000
00100000
00100000
,
01100000
00000000
10010000
00000000
10000000
01000000
00100000
00000000
,
00110000
00000000
00110000
00000000
00100000
00001000
00010000
00000000
,
00010100
00000000
00010100
00000000
00000100
00001000
00000010
00000000
,
00000100
00000010
00001000
00000001
,
00000002
00000013
00000020
00000130
,
00000200
00001300
00000200
00010300
,
00020000
00031000
00002000
01003000
,
02000000
03100000
00200000
10300000
,
20000000
31000000
02000000
03100000
,
00200000
00310000
00020000
01030000
,
00220000
00000000
00000000
00000000
00330000
00000000
00000000
00100000
,
00202000
00000000
00000000
00000000
00303000
00000000
00001000
00010000
,
00000010
00000000
00000010
00000000
00000010
00000100
00000100
00000000
,
00000010
00001000
00001001
00000001
,
00001000
00001000
00000001
00000001
,
00000001
00000100
00000010
00001000
00000100
00000000
00000100
00010000
,
00001000
00100000
00010000
01000000
,
00100000
10000000
00010000
00100000
00010000
00000000
00100000
00000000
,
01000000
10000000
00010000
00100000
,
00100000
00001000
00010000
00000010
00000100
00000000
00000020
00000000
,
00000100
00000000
00001000
00000000
,
00001030
00000000
00000000
00001000
00000010
00010000
00002000
00000000
,
00010000
00000000
00100000
00000000
,
00013000
00000000
00001000
00100000
00010000
01000000
00200000
00000000
,
01000000
00000000
10000000
00000000
,
01300000
00000000
00100000
10000000
00010000
00100000
00002000
00000000
,
00013000
00020000
00030100
00010100
,
00101000
00011000
00011000
00022000
,
00033000
00000100
00001000
00000200
,
00000300
00000100
00000010
00000200
,
00000300
00000020
00000031
00000001
,
00000010
00001000
00000010
00000002
,
00000103
00000001
00000100
00000020
,
00000130
00000010
00001000
00000200
,
00010300
00001000
01000000
00200000
,
01300000
00000000
00020000
00000000
10030000
00000000
00000000
10000000
,
00010000
00100000
00020000
00000000
00130000
00000000
00000000
00100000
,
00001000
00010000
00000020
00000000
00000130
00000000
00000000
00000010
,
00000100
00001000
00000002
00000000
00000013
00000000
00000200
00000000
,
00000310
00000020
00001030
00000200
,
00000300
00000200
00020300
00002000
,
00033000
00002000
00203000
02000000
,
03300000
00200000
00320000
20000000
,
00000000
30030000
00000000
00000000
;

//---------------dance-single - ----------------
#NOTES:
     dance-single:
     :
     Beginner:
     1:
     0.081,0.126,0.038,0.000,0.000:
0000
0000
0000
0000
,
0000
0000
0000
0000
,
0000
0000
0000
0000
,
0000
0000
0000
0000
,
0001
0000
0000
0000
,
0001
0000
0000
0000
,
1000
0000
0000
0000
,
1000
0000
0000
0000
,
0110
0000
0000
0000
,
0010
0000
0000
0000
,
1000
0000
1000
0000
,
1000
0000
0000
0000
,
0001
0000
0000
0000
,
0010
0000
0000
0000
,
0001
0000
0000
0000
,
1000
0000
1000
0000
,
0010
0000
0000
0000
,
0100
0000
0010
0000
,
1000
0000
0000
0000
,
0001
0000
0001
0000
,
1001
0000
0000
0000
,
0100
0000
0100
0000
,
0100
0000
0000
0000
,
0010
0000
0000
0000
,
1001
0000
0000
0000
,
0100
0000
0000
0000
,
0010
0000
0000
0000
,
1000
0000
0000
0000
,
0001
0000
0001
0000
,
0001
0001
0001
0000
,
1000
0000
1000
0000
,
1000
1000
1000
0010
,
0000
0000
0000
0000
,
0000
0000
0000
0100
,
0000
0000
0000
0000
,
0000
0000
0000
1000
,
0000
0000
0000
0000
,
0000
0000
0000
0001
,
0000
0000
0000
0100
,
0000
0010
0000
1001
,
0000
0000
0000
0001
,
0000
0000
0000
1000
,
0000
0000
0000
0010
,
0000
0010
0000
0110
,
0000
0000
0000
0100
,
0000
0000
0000
0010
,
0000
0000
0000
1000
,
0000
0001
0000
0100
,
0000
0000
0000
0010
,
0000
0000
0000
1000
,
0000
0000
0000
0001
,
0000
0000
0000
0100
,
0000
0010
0010
0010
,
0000
0100
0100
0100
,
0000
0010
0010
0010
;

//---------------dance-double - ----------------
#NOTES:
     dance-double:
     :
     Easy:
     3:
     0.201,0.233,0.077,0.222,0.000: // measure 1
00000000
00000000
00000000
00000000
,  // measure 2
00000000
00000000
00000000
00000000
,  // measure 3
00000000
00000000
00000000
00000000
,  // measure 4
00000000
00000000
00000000
00000000
,  // measure 5
10000000
10000000
10000000
00000000
,  // measure 6
00010000
00010000
00010000
00000000
,  // measure 7
00100000
00100000
00100000
00000000
,  // measure 8
00001000
00010000
00000100
00001000
,  // measure 9
00001010
00000010
00001000
00000000
,  // measure 10
00000100
00010000
00001000
00000000
,  // measure 11
00001000
00010000
00100000
00010000
,  // measure 12
01000000
01000000
02000000
03000000
,  // measure 13
00010000
00010000
00200000
00300000
,  // measure 14
00100000
00001000
00020000
00030000
,  // measure 15
00001000
00010000
00000020
00000030
,  // measure 16
00000100
00000010
00000100
00000001
,  // measure 17
00000011
00000000
00000000
00000000
,  // measure 18
00000200
00000000
00000310
00000000
,  // measure 19
00000220
00000000
00000330
00000020
,  // measure 20
00002030
00000000
00003100
00000000
,  // measure 21
00012000
00000000
00000000
00013000
,  // measure 22
00020000
00000000
00030100
00000000
,  // measure 23
00011000
00000000
00000000
00000000
,  // measure 24
00110000
00000000
00000000
00000000
,  // measure 25
00010000
00010000
00010000
00000000
,  // measure 26
10000000
10000000
10000000
00000000
,  // measure 27
00100000
00100000
00100000
01000000
,  // measure 28
00010000
00100000
00001000
00000000
,  // measure 29
00010000
00010000
00010000
00000000
,  // measure 30
00000100
00000100
00000100
00000000
,  // measure 31
00000100
00001000
00000010
00000100
,  // measure 32
00000001
00000010
00000001
00000002
,  // measure 33
00000000
00000000
00000000
00000000
,  // measure 34
00000003
00000000
00000000
00000001
00000100
00000010
00002000
00000000
,  // measure 35
00000000
00000000
00000000
00003000
,  // measure 36
00000000
00000000
00000100
00010000
00001000
00100000
00020000
00000000
,  // measure 37
00000000
00000000
00000000
00000000
,  // measure 38
00030000
00000000
00000000
00010000
01000000
00100000
10000000
00000000
,  // measure 39
00000000
00000000
10000000
01000000
,  // measure 40
00110000
00011000
00010100
00000200
,  // measure 41
00000000
00001300
00000100
00002000
,  // measure 42
00000000
00003100
00001000
00000020
,  // measure 43
00000000
00000130
00000000
00000020
,  // measure 44
00001030
00000200
00000301
00000002
,  // measure 45
00000000
00000013
00000001
00000200
,  // measure 46
00000000
00000310
00001000
00000200
,  // measure 47
00000000
00001300
00000000
00002200
,  // measure 48
00000000
00000000
00000000
00000000
00003300
00000000
00000000
00001000
,  // measure 49
00000100
00000000
00010000
00000000
00001000
00000000
00000000
00100000
,  // measure 50
00010000
00000000
01000000
00000000
00100000
00000000
00000000
10000000
,  // measure 51
00010000
00100000
00001000
00010000
,  // measure 52
00000200
00001300
00002000
00003010
,  // measure 53
00000000
00000100
00000100
00000200
,  // measure 54
00000300
00000010
00000010
00000020
,  // measure 55
00000030
00001000
00001000
00002000
,  // measure 56
00000000
00003000
00000000
00000000
;
