#TITLE:Paranoid Android;
#SUBTITLE:;
#ARTIST:Radiohead;
#TITLETRANSLIT:;
#SUBTITLETRANSLIT:;
#ARTISTTRANSLIT:;
#CREDIT:;
#BANNER:paranoid-bn.png;
#BACKGROUND:paranoid-bg.png;
#LYRICSPATH:;
#CDTITLE:;
#MUSIC:paranoid android.mp3;
#OFFSET:0.000;
#SAMPLESTART:44.160;
#SAMPLELENGTH:21.060;
#SELECTABLE:YES;
#BPMS:0.000=180.000,428.000=90.000,432.000=180.000;
#STOPS:0.000=3.399
;
#BGCHANGES:;

//---------------dance-single - ----------------
#NOTES:
     dance-single:
     :
     Hard:
     9:
     0.573,0.648,0.148,0.390,0.044:
0000
0000
0000
0000
,
0000
0000
0000
0000
,
0000
0000
0000
0000
,
0000
0000
0000
0000
,
0000
0000
0000
0000
,
0000
0000
0000
0000
,
1000
0000
0100
0010
0000
0010
0000
0000
,
0001
0000
1000
0001
0000
0001
1000
0001
,
2000
0000
3000
0000
0010
0100
0010
0000
,
0001
0010
0100
1000
0010
0100
0001
1000
,
0001
1000
0000
0001
1000
0200
0000
0002
,
0300
0000
0000
0023
0000
0000
0000
0200
,
0030
0000
0000
2000
0300
0000
0000
0020
,
0000
3000
0000
0200
0000
0030
0000
0000
,
0002
0300
0000
0000
0020
0003
0000
0000
,
0200
0030
0000
0000
2000
0000
0300
0000
,
0002
0000
0000
0000
,
0000
0000
3003
0000
,
0010
0000
1000
0000
0010
0100
0000
0100
,
0001
0000
0001
1000
0001
1000
0001
0010
,
0100
0010
0100
0020
0000
0000
0031
1000
,
0001
1000
0010
0100
0001
0010
0000
1000
,
0000
0010
0000
0100
0000
0000
0000
0001
,
0000
0020
0000
0000
0000
0200
0030
0000
,
0000
2300
0000
0000
0000
0000
3001
1000
,
0002
0000
0020
0000
0003
0000
0100
0030
,
1000
0002
0000
1003
,
0010
0000
0200
0000
0000
0000
0002
0300
,
0000
2000
0000
0000
,
3003
0000
0000
0000
0000
0010
0000
0100
,
0000
0001
0000
0010
0000
0100
0000
1000
,
0001
0000
0001
0010
0100
1000
0000
0010
,
0100
0000
0010
0100
0001
1000
0001
0000
,
0001
1000
0000
0010
0100
0001
0000
0010
,
0100
0000
1000
0100
0001
0100
1000
0000
,
0010
0001
0000
0010
1000
0100
0010
0000
,
0001
1000
0000
1000
0100
0000
0100
0000
,
1000
0001
0000
0001
0010
0100
1000
0000
,
0010
0100
0000
0010
0100
0001
1000
0001
,
0000
0001
1000
0000
0010
0100
0001
0000
,
0010
0100
0000
1000
0100
0001
0100
1000
,
0000
0010
0001
0000
0010
1000
0100
0010
,
0000
0001
0100
0000
0010
1000
0100
0010
,
0001
0000
0100
0010
0000
1000
0001
1000
,
0002
0000
0103
0000
0010
1000
0001
1000
,
0000
0001
1000
0100
1100
0000
0011
0000
,
0001
0000
0001
0010
0100
0001
0100
0010
,
0000
0001
1000
0001
0000
1000
0001
1000
,
0000
2001
0000
3100
0000
0100
1000
0000
,
0002
0000
0000
0000
1000
0000
0000
0000
0000
0000
0000
0100
0000
0000
0000
0000
,
0003
0010
0000
0100
1000
0100
0001
0100
,
1000
0000
0100
0000
0010
0001
1000
0000
,
0000
0000
0000
0001
0000
0000
0000
0001
0000
1000
0000
0010
0000
1000
0000
0000
,
0000
2010
0000
0000
0000
3001
0000
0000
0000
0001
0000
0010
0000
0000
0000
0000
,
1001
0000
1000
0001
0000
0001
1000
0000
,
1000
0100
0010
0001
0010
0100
2000
0000
,
3001
0000
0010
0100
0000
0201
0000
0320
,
0000
0032
0000
2003
0000
3020
0000
0130
,
0000
0001
1000
0000
1000
0001
1000
0001
,
0010
0100
0010
0100
0000
2000
0000
0000
,
0000
0001
0000
0000
0001
0000
0001
0000
,
0000
0000
3001
0000
0000
0000
0001
1000
,
0001
1000
0010
0100
0010
0001
0010
1000
,
0100
0010
0002
0000
1003
0000
0120
0000
,
1030
0000
1000
0001
0000
0001
1000
0001
,
0010
0100
0010
0001
1000
0000
1000
0001
,
1000
0001
0010
0100
0010
1000
0010
0001
,
0100
0010
1000
0002
0000
0013
0000
2100
,
0000
3001
0000
0001
0100
0010
2000
0000
,
3100
0000
0010
0001
0000
1000
0000
0001
,
1000
0001
0010
0001
1000
0010
1000
0001
,
0000
1002
0000
1003
0000
1000
0010
1000
,
0100
1000
0001
1000
0001
0010
0100
1000
,
0002
0000
1003
0000
0001
1000
0100
0000
,
1000
0001
0100
0000
0010
0000
1000
0000
,
0001
2002
0000
0000
,
0000
0000
0000
0000
0000
3003
0000
0000
,
0001
1000
0000
2010
0000
3100
0001
0100
,
1000
0000
0010
0000
0120
0000
0130
0001
,
0000
2002
0000
0000
0000
0000
0000
0000
,
3003
0000
0000
0000
0000
0000
0000
0000
1000
0100
1000
0000
0001
0100
0001
0000
,
1000
0100
1000
0000
1000
0000
0001
0000
0002
0000
0000
0000
0013
0000
0100
0000
,
1000
0010
0100
0101
0000
0011
0000
1010
,
0000
0110
0000
2001
0000
3001
0010
0100
,
0001
0100
0010
0002
0000
1003
0010
0100
,
0010
0100
2000
0000
3100
0001
0010
0100
,
1000
0002
0000
1003
0010
0100
0001
0010
,
0100
2000
0000
3001
0010
0100
0010
0001
,
2000
0000
3010
0100
1000
0100
0010
2000
,
0000
3001
0010
0100
1000
0010
0100
0001
,
0010
1000
0010
0000
0001
1000
0000
2002
,
0000
0000
0000
0000
,
0000
0000
3003
1001
,
0001
0000
0001
1000
0001
0000
0010
0100
,
0000
1000
0001
0000
0010
0100
0001
0000
,
0110
0000
1000
0010
1000
0001
0100
0001
,
1000
0000
0001
1000
0100
0000
1000
0001
,
0010
0000
0010
0100
0000
0100
1000
0000
,
1000
0001
0000
0001
0010
0100
1000
0010
,
0100
0000
1000
0100
0001
0100
1000
0100
,
0001
0010
1000
0010
0001
0010
1000
0010
,
0001
1000
0001
1000
0010
0100
0010
0100
,
0001
0010
0100
1000
0010
0100
0001
0010
,
1000
0010
0001
0100
1000
0100
0001
0100
,
1000
0100
0001
1000
0001
0010
0001
1000
,
0010
1000
0001
0000
0001
0010
0000
0011
,
0000
0001
0010
1000
0100
0002
0000
0000
,
0000
0000
0000
0003
0000
0000
0000
0000
0000
0000
0000
0000
0000
0000
0000
0000
;

//---------------dance-single - ----------------
#NOTES:
     dance-single:
     :
     Medium:
     7:
     0.432,0.540,0.141,0.356,0.077:
0000
0000
0000
0000
,
0000
0000
0000
0000
,
0000
0000
0000
0000
,
0000
0000
0000
0000
,
0000
0000
0000
0000
,
0000
0000
0000
0000
,
1000
0000
0001
1000
0001
0000
0000
0000
,
0010
0000
0100
0010
0100
0000
0000
0000
,
1000
0001
1000
0000
0001
0000
0000
0000
,
0001
1000
0001
1000
0001
1000
0000
0000
,
1001
0000
0000
0000
0000
1000
0200
0000
,
0000
0000
0000
0320
0000
0000
0000
0032
,
0000
0000
0000
0203
0000
0000
0000
0320
,
0000
0000
0000
2030
0000
0000
0000
3020
,
0000
0000
0000
0230
0000
0000
0000
0302
,
0000
0000
0000
0023
0000
0000
0000
0230
,
0000
0000
0300
1000
,
1000
0000
0001
0001
,
0001
0000
0001
0000
1000
0001
1000
0000
,
0000
0000
0100
0000
0010
0100
0010
0000
,
0000
0000
0001
1000
0001
0000
1000
0000
,
0000
0000
1000
0001
1000
0001
1000
0001
,
0000
0000
1001
0000
0000
0000
0000
0001
,
0020
0000
0000
0000
0000
0230
0000
0000
,
0000
2300
0000
0000
0000
3020
0000
0000
,
0000
0230
0000
0000
0000
0302
0000
0000
,
0000
0203
0000
0000
0000
0320
0000
0000
,
0000
2030
0000
0000
0000
3200
0000
0000
,
0000
0320
0000
0000
0000
0000
0030
0000
,
0001
0001
0000
1000
,
1000
0000
1000
0000
0000
1000
0000
0100
,
1000
1000
0000
0100
,
0100
1000
0000
1000
0100
0000
0100
0000
,
0100
0010
0000
0100
0000
0100
0000
0100
,
0010
0000
0100
0010
0100
0000
0010
0000
,
0010
0001
0000
0010
0000
0000
0010
0000
,
0010
0001
0000
0010
0001
0010
0000
0001
,
0000
0001
0100
0000
0001
0000
0000
0001
,
0000
0001
0100
0000
0001
0100
0001
0100
,
0000
0100
0010
0000
0100
0000
0000
0100
,
0000
0100
0010
0000
0010
0100
0010
0100
,
0000
0000
0010
0000
1000
0000
0000
0000
0010
0000
0000
0000
0000
0000
0000
0010
,
0000
0000
0000
0010
0000
1000
0000
0000
0000
0010
0000
0000
0000
0010
0000
1000
,
0000
0000
0000
1000
0000
0000
0000
1000
0000
0001
0000
0000
0000
0000
0000
0000
,
1001
0000
0001
0000
0001
1000
0000
0001
,
0000
1000
0000
1000
0001
0000
1001
0000
,
0110
0000
0010
0100
0010
0100
0000
1000
,
0000
0001
1000
0001
0000
1000
0001
1000
,
0000
1000
0000
0001
0010
0001
0100
0000
,
0010
0000
0010
0000
0000
1000
0000
1000
,
0000
0001
0000
1000
0100
1000
0010
0000
,
0100
0000
0001
1000
0001
0000
0001
0010
,
0001
0000
1000
0000
0010
0100
0010
0000
,
0000
0200
0000
0000
0000
0010
0300
0000
0000
0000
0000
0000
1000
0000
0000
0000
,
0001
0000
1000
0001
1000
0001
0000
1001
,
0000
1000
0000
0000
0110
0000
2002
3003
,
0001
0000
0001
1000
0000
1000
0001
0000
,
0001
0000
0000
0000
0000
1001
0000
0000
0000
1000
0000
0000
0000
0001
0000
0000
,
0000
0010
0000
0100
0000
0000
0000
0000
1000
0000
0001
0000
1000
0000
0001
0000
,
2000
0000
0000
0000
0000
3002
0000
0000
,
0000
1000
0000
0000
1000
0000
0000
0000
,
0000
1003
0000
0001
,
0001
1000
1000
0010
,
0010
0100
0100
0220
,
0000
0000
0000
0000
,
0330
0000
0000
0001
,
0001
1000
1000
0100
,
0100
0000
0010
0000
0010
0000
0000
1000
,
0000
0000
0010
0000
0100
0000
0010
0000
0000
0000
0000
0200
0000
0000
0000
0010
,
0300
0000
0000
1000
0000
0001
0000
1000
,
0001
1000
0001
0000
1001
0000
1000
0000
,
0000
0110
0000
2002
3003
0001
0000
0001
,
1000
0000
0000
0000
1000
0000
0001
0000
0000
0000
0001
0000
0000
0000
0000
1001
,
0000
0000
0000
1000
0000
0000
0000
0001
0000
0000
0000
0010
0000
0100
0000
0000
,
0000
1000
0001
1000
0001
1000
0000
1001
,
0000
2002
0000
0000
,
3003
0000
0000
0000
,
2000
0000
3001
0000
0000
0001
0010
0100
,
1000
0000
0001
0000
0001
0000
1000
0001
,
0000
2002
0000
0000
0000
0000
0000
0000
,
3000
0000
0000
1000
0000
1000
0000
1000
,
0000
1003
0000
0002
0000
0000
1003
0010
,
0100
0001
0000
1000
0000
0100
0000
0010
,
0000
0001
0000
2000
0000
0001
0000
3002
,
0000
0000
0000
0203
0000
0000
0010
0000
,
1000
0302
1000
1000
,
0000
2003
0000
0000
0000
0001
0000
0010
,
0000
3200
0000
0010
0000
0001
0000
0000
,
2300
0000
0000
0001
0000
0001
0000
0002
,
0000
0000
0000
3003
0000
0000
0000
0100
,
0100
0020
0030
0110
,
2002
0000
0000
0000
,
3003
0000
0000
1001
,
1000
0000
0001
0000
1000
0000
0010
0100
,
0000
0100
0010
0000
2000
0000
0001
0000
,
3001
0001
1000
1000
,
0010
0100
0010
0000
0100
0000
0010
0000
,
1000
0001
0001
1000
,
0001
1000
0010
0100
,
0001
0000
0010
0000
0010
0001
1000
0000
,
0010
0000
0010
0000
0010
1000
0001
0000
,
0010
0000
0010
0001
1000
0000
0010
0000
,
0100
0001
0010
0100
,
0100
1000
0001
0000
0100
0000
0100
0001
,
1000
0000
0100
0000
0100
1000
0001
0000
,
0100
0010
1000
0001
,
2000
0000
0001
3001
0000
2002
0000
0000
,
0000
3003
0000
0000
0000
0000
0000
0000
;

//---------------dance-single - ----------------
#NOTES:
     dance-single:
     :
     Easy:
     4:
     0.251,0.432,0.087,0.141,0.000: // measure 1
0000
0000
0000
0000
,  // measure 2
0000
0000
0000
0000
,  // measure 3
0000
0000
0000
0000
,  // measure 4
0000
0000
0000
0000
,  // measure 5
0000
0000
0000
0000
,  // measure 6
0000
0000
0000
0000
,  // measure 7
1000
0000
1000
0000
,  // measure 8
0001
0000
0001
0010
,  // measure 9
0010
0000
0100
0100
,  // measure 10
0000
1000
1000
0000
,  // measure 11
0001
0000
1000
0000
,  // measure 12
0001
0000
1000
0000
,  // measure 13
0001
0000
0010
0000
,  // measure 14
0100
0000
0010
0000
,  // measure 15
0100
0000
0010
0000
,  // measure 16
0001
0000
1000
0000
,  // measure 17
0001
0000
0000
1000
,  // measure 18
1000
0000
0001
0001
,  // measure 19
0000
1000
0000
1000
,  // measure 20
0000
0001
0000
0001
,  // measure 21
0010
0010
0000
0100
,  // measure 22
0100
0000
1000
1000
,  // measure 23
0000
0001
0000
1000
,  // measure 24
0000
0001
0000
1000
,  // measure 25
0000
0001
0000
0010
,  // measure 26
0000
0100
0000
0010
,  // measure 27
0000
0100
0000
0010
,  // measure 28
0000
0001
0000
1000
,  // measure 29
0000
0001
0000
0000
,  // measure 30
1000
1000
0000
0001
,  // measure 31
0001
0000
0000
0000
0000
1000
0000
0000
,  // measure 32
0001
0000
0000
0000
0000
1000
0000
0000
,  // measure 33
0001
0000
0000
0000
0000
0001
0000
0000
,  // measure 34
1000
0000
0000
0001
,  // measure 35
0000
1000
0000
0000
0000
0000
0010
0000
,  // measure 36
0000
0100
0000
0000
0000
0000
0000
0010
,  // measure 37
0000
0000
0100
0000
0000
0000
0000
0001
,  // measure 38
0000
0000
1000
0000
0000
0000
0000
0001
,  // measure 39
0000
0000
1000
0000
0000
0000
0000
0100
,  // measure 40
0000
0000
0010
0000
0000
0000
0000
0100
,  // measure 41
0000
0000
0010
0000
0000
0100
0000
1000
,  // measure 42
0000
0000
0001
0000
0000
0000
0000
1000
,  // measure 43
0000
0001
0000
0000
,  // measure 44
1000
0000
0000
0001
0000
0000
0000
0000
,  // measure 45
1000
1000
0001
0001
,  // measure 46
2000
0000
3001
0001
,  // measure 47
1000
1000
0001
0001
,  // measure 48
2000
0000
0000
0000
,  // measure 49
3010
0010
0100
0100
,  // measure 50
0020
0000
0130
0100
,  // measure 51
0010
0010
0100
0100
,  // measure 52
0020
0000
0000
0000
,  // measure 53
0030
1000
0000
0001
0000
1000
0000
0001
,  // measure 54
0000
2000
0000
0000
3000
0000
0001
0000
,  // measure 55
0001
0020
0130
0010
,  // measure 56
0200
0310
0010
0010
,  // measure 57
1001
1000
0001
1000
,  // measure 58
0001
2000
3001
0010
,  // measure 59
0100
0010
1000
0001
,  // measure 60
0100
0020
0000
0030
,  // measure 61
0000
0000
0000
0000
,  // measure 62
0000
0000
0000
2000
,  // measure 63
0000
0000
0000
0000
0000
3002
0000
0000
,  // measure 64
0000
0000
0000
0003
,  // measure 65
0000
0000
0000
0000
,  // measure 66
0000
0000
0000
1000
,  // measure 67
0000
1000
0000
0001
,  // measure 68
0000
0001
0000
0110
,  // measure 69
0000
0000
0000
1001
,  // measure 70
0000
0000
0000
0000
0000
1001
0000
0000
,  // measure 71
0000
0000
0110
0000
,  // measure 72
0000
0000
0000
1001
0000
0000
0000
0000
,  // measure 73
0000
0000
0000
1001
0000
0000
0000
0000
,  // measure 74
0000
0110
0000
0000
,  // measure 75
1000
0001
0000
0000
,  // measure 76
1000
1001
0000
0000
,  // measure 77
0000
0000
0000
0000
,  // measure 78
0001
0000
0000
1000
0000
1000
0000
1000
,  // measure 79
0000
0001
0001
1000
,  // measure 80
0002
0000
0000
0000
,  // measure 81
0000
0000
0000
2000
0000
0000
0000
0000
,  // measure 82
3003
0000
0001
0001
,  // measure 83
0001
0000
0000
1000
0000
1000
0000
0001
,  // measure 84
0000
1000
0000
0001
0000
0010
0000
0200
,  // measure 85
0000
0300
0000
1000
0000
0010
0000
0200
,  // measure 86
0000
0300
0001
0000
0010
0000
0200
0000
,  // measure 87
0300
1000
0010
0200
,  // measure 88
0300
0001
0000
0010
0000
0200
0000
0300
,  // measure 89
1000
0000
0010
0000
0200
0000
0300
0001
,  // measure 90
0000
0010
0000
0200
0000
0300
0000
1000
,  // measure 91
0000
0001
0000
0000
,  // measure 92
1001
0000
0000
0000
,  // measure 93
0000
0000
0000
0000
,  // measure 94
0010
0000
0010
0000
,  // measure 95
0100
0000
0100
0000
,  // measure 96
0110
0000
0000
0000
,  // measure 97
1001
0000
0000
0000
,  // measure 98
1001
0000
0000
0000
,  // measure 99
0001
0001
1000
1000
,  // measure 100
0000
0001
0010
1000
,  // measure 101
0000
1000
0010
0001
,  // measure 102
0001
0100
1000
0000
,  // measure 103
1000
0100
0001
0001
,  // measure 104
0010
1000
1000
0010
,  // measure 105
0001
0001
1000
0001
,  // measure 106
1000
0001
1000
0000
,  // measure 107
0001
0000
2000
0000
,  // measure 108
0000
3000
0000
0000
;
