#TITLE:Marching Season;
#SUBTITLE:[Live at the Acropolis];
#ARTIST:Yanni;
#TITLETRANSLIT:;
#SUBTITLETRANSLIT:;
#ARTISTTRANSLIT:;
#CREDIT:348;
#BANNER:Marching Season Banner.png;
#BACKGROUND:Marching Season Background.png;
#LYRICSPATH:;
#CDTITLE:;
#MUSIC:Marching Season (Live at the Acropolis).mp3;
#OFFSET:-1.893;
#SAMPLESTART:45.105;
#SAMPLELENGTH:15.000;
#SELECTABLE:YES;
#BPMS:0.000=189.981,7.000=186.996,21.000=184.570,35.000=184.162,49.000=184.480,63.000=184.316,77.000=185.242,91.000=185.476,105.000=183.663,112.000=186.430,117.000=186.907,124.000=184.519,133.000=184.622,140.000=185.648,147.000=184.725,154.000=184.957,161.000=181.996,168.000=188.906,175.000=185.645,182.000=187.225,189.000=185.349,196.000=185.710,203.000=189.325,209.000=182.571,210.000=191.781,211.000=184.906,217.000=202.867,219.000=186.325,221.000=178.206,223.000=195.018,225.000=182.031,227.000=184.185,229.000=194.831,232.000=181.171,235.000=182.370,238.000=182.344,240.000=194.392,244.000=189.609,246.000=189.596,253.000=187.026,262.000=185.583,271.000=185.126,280.000=189.667,289.000=190.634,298.000=190.373,306.000=190.346,321.000=190.803,328.000=188.879,335.000=190.542,349.000=191.948,363.000=192.520,377.000=195.162,390.000=195.090,398.000=187.500,404.000=191.406,407.000=189.909,411.000=188.462;
#DISPLAYBPM:190;
#STOPS:;
#BGCHANGES:;

//---------------dance-single - ----------------
#NOTES:
     dance-single:
     :
     Beginner:
     2:
     0.105,0.191,0.029,0.000,0.000: // measure 1
0000
0000
0000
0000
,  // measure 2
0000
0000
0000
1000
,  // measure 3
0000
1000
0000
0000
,  // measure 4
0000
0000
1000
0000
,  // measure 5
1000
0000
0000
0000
,  // measure 6
0000
1000
0000
1000
,  // measure 7
0000
0000
0000
0000
,  // measure 8
1000
0000
1000
0000
,  // measure 9
0000
0000
0000
0001
,  // measure 10
0000
0001
0000
0000
,  // measure 11
0000
0000
0001
0000
,  // measure 12
0001
0000
0000
0000
,  // measure 13
0000
0001
0000
0001
,  // measure 14
0000
0000
0000
0000
,  // measure 15
0001
0000
0001
0000
,  // measure 16
0000
0000
0000
0100
,  // measure 17
0000
0100
0000
0000
,  // measure 18
0000
0000
0100
0000
,  // measure 19
0100
0000
0000
0000
,  // measure 20
0000
0010
0000
0010
,  // measure 21
0000
0000
0000
0000
,  // measure 22
0010
0000
0010
0000
,  // measure 23
0000
0000
0000
0100
,  // measure 24
0000
0100
0000
0000
,  // measure 25
0000
0000
0100
0000
,  // measure 26
0100
0000
0000
0000
,  // measure 27
0000
0010
0000
0010
,  // measure 28
0000
0000
0000
0000
,  // measure 29
0010
0000
0010
0000
,  // measure 30
0000
1000
0000
0000
,  // measure 31
0000
0000
0000
0000
,  // measure 32
0001
0000
0000
0000
,  // measure 33
0000
1000
0000
0000
,  // measure 34
0000
0000
0000
0001
,  // measure 35
0000
0000
0000
0000
,  // measure 36
0000
0000
0001
0000
,  // measure 37
0000
0000
0000
0000
,  // measure 38
0000
1000
0000
0000
,  // measure 39
0000
0000
0000
0000
,  // measure 40
1000
0000
0000
0000
,  // measure 41
0000
0000
0000
0010
,  // measure 42
0000
0000
0000
0000
,  // measure 43
0000
0000
0010
0000
,  // measure 44
0000
0000
0000
0000
,  // measure 45
0000
0100
0000
0000
,  // measure 46
0000
0000
0000
0000
,  // measure 47
0100
0000
0000
0000
,  // measure 48
0000
0000
0000
0001
,  // measure 49
0000
0000
0000
0000
,  // measure 50
0000
0000
1000
0000
,  // measure 51
0000
0000
0000
0000
,  // measure 52
0000
0010
0000
0000
,  // measure 53
0000
0000
0000
0000
,  // measure 54
0100
0000
0000
0000
,  // measure 55
0000
0000
0000
0000
,  // measure 56
0000
0000
0000
0000
,  // measure 57
0010
0100
0000
0000
,  // measure 58
0000
0001
1000
0000
,  // measure 59
0001
0000
0000
0000
,  // measure 60
0000
0000
0000
0000
,  // measure 61
0000
0000
0001
0000
,  // measure 62
0001
0000
0000
0000
,  // measure 63
0000
0000
0000
1000
,  // measure 64
0000
1000
0000
0000
,  // measure 65
0000
0000
0000
0000
,  // measure 66
0010
0000
0010
0000
,  // measure 67
0000
0000
0000
0000
,  // measure 68
0000
0100
0000
0100
,  // measure 69
0000
0000
0000
0000
,  // measure 70
0000
0000
0001
0000
,  // measure 71
1000
0000
0000
0000
,  // measure 72
0000
0000
0000
1000
,  // measure 73
0000
1000
0000
0000
,  // measure 74
0000
0000
0000
0010
,  // measure 75
0000
0010
0000
0000
,  // measure 76
0000
0000
0000
0000
,  // measure 77
0100
0000
0100
0000
,  // measure 78
0000
0000
0001
0000
,  // measure 79
0100
0000
0010
0000
,  // measure 80
1000
0000
0000
0000
,  // measure 81
0000
1001
0000
0000
,  // measure 82
0000
0000
0000
0000
,  // measure 83
0110
0000
0000
0000
,  // measure 84
0000
0000
0000
0110
,  // measure 85
0000
0000
0000
0000
,  // measure 86
0000
0000
1001
0000
,  // measure 87
0000
0000
0000
0000
,  // measure 88
0000
0100
0000
0001
,  // measure 89
0000
0000
0000
0001
,  // measure 90
0000
1000
0000
0000
,  // measure 91
0000
0000
0000
1000
,  // measure 92
0000
0010
0000
0000
,  // measure 93
0000
1000
0000
1000
,  // measure 94
0000
0000
0000
0010
,  // measure 95
0000
0000
0000
0000
,  // measure 96
0000
0000
0100
0000
,  // measure 97
0000
0000
0000
0000
,  // measure 98
0000
0001
0000
0000
,  // measure 99
0000
1000
0000
0000
,  // measure 100
0000
0000
0000
0000
,  // measure 101
0000
0000
0010
0010
,  // measure 102
0000
0000
0000
0000
,  // measure 103
0000
1000
1000
0000
,  // measure 104
0000
0000
0001
0001
,  // measure 105
0100
0100
0000
0000
;

//---------------dance-single - ----------------
#NOTES:
     dance-single:
     :
     Easy:
     6:
     0.369,0.421,0.345,0.264,0.000: // measure 1
0000
0000
0000
0000
,  // measure 2
0000
0000
0000
1000
,  // measure 3
0000
0000
1000
0000
0000
0001
0000
0000
,  // measure 4
0000
0001
0000
0000
0100
0000
0000
0000
,  // measure 5
0100
0000
0000
0010
0000
0000
0000
0010
,  // measure 6
0000
0100
0000
0100
,  // measure 7
0000
0001
0000
0000
0000
0001
0000
0000
,  // measure 8
1000
0000
0000
0000
1000
0000
0000
0010
,  // measure 9
0000
1001
0000
0020
,  // measure 10
0000
0000
2030
0000
0000
3001
0000
0000
,  // measure 11
1100
0000
0002
0000
,  // measure 12
0203
0000
0000
0310
0000
0000
0101
0000
,  // measure 13
0000
2000
0000
3002
,  // measure 14
0000
0103
0000
0000
1010
0000
0000
0000
,  // measure 15
0200
0000
0000
0000
0320
0000
0000
1030
,  // measure 16
0000
0011
0000
1000
,  // measure 17
0000
0001
0000
0100
0000
0100
0000
0001
,  // measure 18
0000
0000
0000
0000
0100
0000
0000
0010
,  // measure 19
0000
1000
0000
1000
0000
0010
0000
0000
,  // measure 20
0000
1000
0000
0002
,  // measure 21
0000
1003
0000
0000
0001
0000
0000
0000
,  // measure 22
0100
0000
0000
0000
0020
0000
0000
0130
,  // measure 23
0000
0010
0000
1000
,  // measure 24
0000
0001
0000
0010
0000
0001
0000
1000
,  // measure 25
1000
0000
0000
0000
0001
0000
0000
0100
,  // measure 26
0000
1000
0000
0100
0000
0001
0100
0000
,  // measure 27
0000
0000
0010
0000
0000
1100
0000
0000
,  // measure 28
0000
0011
0000
0000
0100
0000
0000
0000
,  // measure 29
0101
0000
0000
1010
0000
0000
0000
0001
,  // measure 30
0000
0000
0110
0000
0000
0110
0000
0000
,  // measure 31
0110
0000
0001
1000
,  // measure 32
1001
0000
0000
0001
0000
0100
0000
0000
,  // measure 33
0100
0000
0010
0000
0000
0010
0000
0100
,  // measure 34
0000
0010
0000
1001
0000
0000
0100
0000
,  // measure 35
0001
0000
0101
0000
0000
1000
0000
0010
,  // measure 36
0000
1010
0000
0000
1000
0000
0001
0000
,  // measure 37
2000
0000
0000
3001
0000
0000
0000
0110
,  // measure 38
0000
0001
0010
0011
,  // measure 39
0000
0100
0000
1000
0000
1100
0000
0000
,  // measure 40
0010
0000
0100
0000
0020
0000
0000
0130
,  // measure 41
0000
0000
0000
2000
0000
0000
3010
0000
,  // measure 42
0000
0000
1100
0000
0000
1001
0000
0000
,  // measure 43
0000
0002
0000
0000
0013
0000
0000
0000
,  // measure 44
0101
0000
0000
1001
0000
0000
0000
0110
,  // measure 45
0000
2000
0000
0001
,  // measure 46
0000
3010
0000
0000
0000
0110
0000
0000
,  // measure 47
0002
0000
0000
0000
1000
0000
0000
0103
,  // measure 48
0000
0000
0000
1000
0000
0001
0000
1000
,  // measure 49
0000
0001
0100
0000
0010
0000
0100
0000
,  // measure 50
0000
0010
0000
0100
0000
0010
0000
0100
,  // measure 51
0001
0000
1000
0000
0001
0000
0000
1010
,  // measure 52
0000
0001
0100
0001
,  // measure 53
1000
0100
0000
0000
0000
0011
0000
0000
,  // measure 54
1000
0000
0010
0000
1000
0000
0001
0100
,  // measure 55
0000
0000
0100
0000
0000
0100
0000
0000
,  // measure 56
0000
0010
0000
0010
0000
1000
0000
0000
,  // measure 57
0001
0000
0001
0000
0000
0100
0000
0100
,  // measure 58
0000
0010
0010
0010
,  // measure 59
2001
0000
0000
3020
,  // measure 60
0000
0000
0000
0230
0000
0000
0000
0302
,  // measure 61
0000
0000
0003
0120
,  // measure 62
0000
0000
0000
0000
0000
2030
0000
0000
,  // measure 63
0000
3002
0000
0203
,  // measure 64
0000
0000
0301
0000
0000
0001
0000
0001
,  // measure 65
0000
0000
0000
1000
0000
0000
1000
0000
,  // measure 66
1000
0000
2002
0000
,  // measure 67
0000
0000
3003
0000
,  // measure 68
0010
1000
0001
0220
,  // measure 69
0000
0000
0000
0330
,  // measure 70
0000
1000
0100
0010
,  // measure 71
0012
0000
0000
0000
0000
1003
0000
0000
,  // measure 72
0000
2100
0000
0000
0000
0000
3001
0000
,  // measure 73
0000
0000
1020
0000
0000
0000
0000
0130
,  // measure 74
0000
0000
0000
0210
0000
0000
0000
0000
,  // measure 75
0301
0000
0000
0000
0100
0000
0000
0100
,  // measure 76
0000
0100
0000
0000
0000
0010
0000
0000
,  // measure 77
0010
0010
0000
2000
,  // measure 78
0000
3100
0000
0000
0000
0020
0000
0000
,  // measure 79
0031
0000
0000
0000
1001
0000
0000
0110
,  // measure 80
0000
1001
0000
1000
,  // measure 81
0001
0000
1100
0000
0000
1000
0000
0000
,  // measure 82
0000
1100
0000
0000
0100
0000
0000
0000
,  // measure 83
0011
0000
0000
0001
0000
0000
0000
0011
,  // measure 84
0000
0010
0000
1010
,  // measure 85
0000
1000
0000
0000
0000
0010
0000
0000
,  // measure 86
1010
0000
0000
0000
0101
0000
0000
0001
,  // measure 87
0000
0000
0000
0100
0000
0000
0101
0000
,  // measure 88
0000
0000
1000
0000
0000
0100
0000
0000
,  // measure 89
0000
0010
0000
0000
0001
0000
0000
0000
,  // measure 90
0001
0000
0000
0010
0000
0000
0000
0100
,  // measure 91
0000
1000
0000
0001
,  // measure 92
0000
0100
0000
0000
0000
0010
0000
0000
,  // measure 93
1000
0000
0000
0000
1000
0000
0000
0010
,  // measure 94
0000
0000
0000
0100
0000
0000
0001
0000
,  // measure 95
0000
0000
1000
0000
0000
0001
0000
0001
,  // measure 96
0000
0001
0000
0000
1000
0000
0001
0000
,  // measure 97
0100
0000
0000
0010
0000
0010
0000
0010
,  // measure 98
0000
0100
0010
1000
,  // measure 99
0000
0100
0000
0000
0010
0000
0000
0001
,  // measure 100
0000
0000
1000
0000
0001
0000
0000
0100
,  // measure 101
0000
0100
0000
0000
0010
0000
0010
0000
,  // measure 102
0000
1000
0000
0100
0000
0010
0000
0001
,  // measure 103
0000
0000
2000
0000
3010
0000
0000
0200
,  // measure 104
0000
0301
0000
0000
0001
0000
0010
0000
,  // measure 105
0100
1001
0000
0000
;

//---------------dance-single - ----------------
#NOTES:
     dance-single:
     :
     Medium:
     7:
     0.496,0.497,0.396,0.308,0.000: // measure 1
0000
0000
0000
0000
,  // measure 2
0000
0000
0000
1001
,  // measure 3
0000
0100
0000
0010
0000
1001
0000
0000
,  // measure 4
0001
0000
0100
0000
1010
0000
0000
1000
,  // measure 5
0000
0010
0000
0101
0000
0000
1001
0000
,  // measure 6
0000
0000
0110
0000
0000
1000
0000
0001
,  // measure 7
0000
0110
0000
0000
1000
0000
0100
0000
,  // measure 8
0011
0000
0000
0001
0000
0010
0000
1100
,  // measure 9
0000
0110
0000
1000
,  // measure 10
0000
0010
0000
1000
0100
2000
0000
0000
,  // measure 11
0000
3001
0000
0000
0010
0000
0000
1000
,  // measure 12
0000
0010
0100
0020
0000
0000
0130
0000
,  // measure 13
0000
0000
0001
0000
0000
0010
0000
0001
,  // measure 14
0100
0002
0000
0000
1003
0000
0000
0000
,  // measure 15
0100
0000
0000
0010
0000
0100
0001
0200
,  // measure 16
0000
0310
0000
1000
,  // measure 17
0001
0100
0000
1000
0000
0100
0000
0001
,  // measure 18
1000
0000
0000
0000
0001
0000
1000
0010
,  // measure 19
0000
0001
0000
0010
0000
1000
0001
0000
,  // measure 20
0000
0000
2000
0000
0000
3100
0000
0001
,  // measure 21
0000
0200
0000
0000
1300
0000
0010
0000
,  // measure 22
0002
0000
0000
0013
0000
1000
0000
0020
,  // measure 23
0000
0130
0000
1001
,  // measure 24
0001
0100
0000
0010
0000
0001
0000
0010
,  // measure 25
0100
0000
0000
0000
0110
0000
0010
1000
,  // measure 26
0000
0100
0000
1000
0000
0001
1000
0000
,  // measure 27
0000
0000
0002
0000
0000
0103
0000
0001
,  // measure 28
0000
0020
0000
0000
0130
0000
1000
0000
,  // measure 29
0200
0000
0000
1300
0000
0001
0000
2000
,  // measure 30
0000
0000
3001
0000
1000
0100
0000
0010
,  // measure 31
0001
1000
0001
1001
,  // measure 32
0011
0000
0000
1000
0000
1100
0000
0000
,  // measure 33
0010
0000
1010
0000
0000
0100
0000
0101
,  // measure 34
0000
1001
0000
0010
0000
0000
1000
0000
,  // measure 35
0001
0010
0001
0000
0000
0100
0000
0010
,  // measure 36
1000
0010
0000
0000
1000
0000
0100
0000
,  // measure 37
0001
0000
0000
0100
0000
0000
0000
1000
,  // measure 38
0000
0000
0010
0000
0100
0001
0100
0000
,  // measure 39
0000
0001
0000
1000
0100
1000
0000
0000
,  // measure 40
0001
0000
0010
0000
1000
0000
0000
0010
,  // measure 41
0000
0000
0000
0001
0000
1000
1000
0000
,  // measure 42
0002
0000
0100
0000
0000
1003
0000
0000
,  // measure 43
0000
0100
0000
0010
0010
0000
2000
0000
,  // measure 44
0010
0000
0000
3001
0000
0000
0000
0001
,  // measure 45
0000
1000
0100
0000
0010
0001
0010
0000
,  // measure 46
0100
1000
0000
0010
0000
1000
0000
0001
,  // measure 47
0100
0000
0010
1000
0010
0000
0100
0001
,  // measure 48
0000
0000
0000
2000
0000
0000
0002
0000
,  // measure 49
3000
0000
0200
0003
0000
0020
0000
0300
,  // measure 50
0000
0230
0000
0000
0002
0000
0300
0000
,  // measure 51
2000
0003
0000
0020
0000
3030
0000
0002
,  // measure 52
0000
0103
0000
0200
,  // measure 53
0000
0310
0000
0000
0000
0020
0000
0000
,  // measure 54
1030
0000
0000
0000
2000
0000
0000
3001
,  // measure 55
0000
1000
0100
1000
0000
0001
0010
0000
,  // measure 56
0100
1000
0000
0011
0000
1001
0000
0000
,  // measure 57
0001
0000
0110
0000
0000
1000
0000
0110
,  // measure 58
0000
1000
0001
0100
,  // measure 59
0010
0000
0010
0000
0010
0000
0010
0001
,  // measure 60
0000
0001
0000
0001
0000
0001
0000
0001
,  // measure 61
1000
1000
1000
1000
,  // measure 62
1000
0100
0000
0100
0000
0100
0000
0100
,  // measure 63
0000
0100
0010
0000
0010
0000
0010
0000
,  // measure 64
0010
0000
0002
0000
0010
0010
0000
0100
,  // measure 65
0000
1003
0000
2000
0000
0100
0100
0000
,  // measure 66
0010
0000
3001
0000
0020
0000
0000
1000
,  // measure 67
0000
1000
0000
1000
0000
1030
0000
0000
,  // measure 68
1000
0001
0100
0002
,  // measure 69
0000
0100
0000
0100
0000
0100
0000
0103
,  // measure 70
0000
1000
1001
0001
,  // measure 71
1000
0000
0000
0001
0000
0100
0000
0001
,  // measure 72
0000
0100
0010
0000
1000
0000
0010
0000
,  // measure 73
1000
0000
0010
1000
0000
0100
0000
1000
,  // measure 74
0000
0100
0000
1000
0001
0000
0010
0000
,  // measure 75
0001
0000
0010
0000
0200
0000
0001
0001
,  // measure 76
0000
0010
0000
0310
0000
0020
0000
1000
,  // measure 77
1000
0100
0130
1000
,  // measure 78
0001
0100
0000
0100
0001
0100
0000
0010
,  // measure 79
1000
0000
1000
0010
1000
0000
0000
0011
,  // measure 80
0000
0000
0110
0000
0000
1100
0000
0000
,  // measure 81
0001
0000
1001
0000
0000
0100
0000
0010
,  // measure 82
0000
0100
0000
0000
1001
0000
0000
0000
,  // measure 83
0110
0000
0000
0001
0000
1000
0000
0001
,  // measure 84
0000
0110
0000
1100
,  // measure 85
0000
0001
0000
1001
0000
1000
0000
0000
,  // measure 86
0101
0000
0000
0000
0011
0000
0000
0100
,  // measure 87
0000
0110
0000
0010
0000
0000
1010
0000
,  // measure 88
0000
0000
1010
0000
0001
0010
0000
0010
,  // measure 89
0000
1100
0000
0001
0100
0000
0100
0000
,  // measure 90
0101
0000
1000
0100
0000
0100
0000
0011
,  // measure 91
0000
1000
0010
0000
0010
0000
2000
0000
,  // measure 92
0000
0010
0000
0001
0000
0001
0000
0100
,  // measure 93
3100
0000
0000
0000
0002
0000
0000
0100
,  // measure 94
0000
1000
0000
1000
0000
0010
0013
0000
,  // measure 95
0000
0000
1001
0000
0000
2000
0000
3001
,  // measure 96
0000
0110
0000
0002
1003
0000
0000
0000
,  // measure 97
0110
0000
0000
0020
0000
0130
0000
1001
,  // measure 98
0000
0200
0310
0000
0000
0000
0110
0000
,  // measure 99
0001
1000
0000
0010
0100
0010
0000
1000
,  // measure 100
0001
0000
1001
0000
0110
0000
0000
0002
,  // measure 101
0000
0103
0000
0000
2000
0000
3010
0000
,  // measure 102
0000
0020
0000
0230
0000
0310
0000
1001
,  // measure 103
0000
0000
0011
0000
1010
0000
0000
1100
,  // measure 104
0000
0101
0000
0000
1000
0000
0110
0000
,  // measure 105
0001
0110
0000
0000
;

//---------------dance-single - ----------------
#NOTES:
     dance-single:
     :
     Hard:
     8:
     0.667,0.765,0.675,0.506,0.000: // measure 1
0000
0000
0000
0000
,  // measure 2
0000
0000
0000
0002
,  // measure 3
0000
0103
0000
0010
0001
2000
0000
0000
,  // measure 4
3001
0000
0100
0001
0020
0000
0000
1030
,  // measure 5
0000
0010
1000
0200
0000
0000
1300
0000
,  // measure 6
0000
0000
0020
0000
0000
1030
0000
0100
,  // measure 7
0001
0200
0000
0000
1300
0000
0001
0100
,  // measure 8
0002
0000
0000
0013
0000
0010
0100
2000
,  // measure 9
0000
3001
0000
1100
,  // measure 10
0001
0010
0000
0100
1000
0100
0000
0010
,  // measure 11
0001
0000
1000
0100
1000
0000
0010
0100
,  // measure 12
0000
0010
1000
0010
0000
0100
0010
0000
,  // measure 13
1010
0000
0101
0000
1000
0010
0000
0100
,  // measure 14
0001
0100
0000
0010
1000
0000
0001
0010
,  // measure 15
0001
0000
0100
0001
0000
1000
0010
2000
,  // measure 16
0000
3000
0022
0000
0033
0000
1001
0000
,  // measure 17
0010
0002
0000
0100
0000
1000
0000
0100
,  // measure 18
0103
0000
1001
0000
0110
0000
1000
0200
,  // measure 19
0000
1000
0000
1300
0100
0010
0001
0000
,  // measure 20
0000
0000
2000
0000
0000
3001
0000
0002
,  // measure 21
0000
0100
0000
0100
0200
0000
0303
1000
,  // measure 22
0002
0000
0000
1003
0000
2000
0000
0100
,  // measure 23
0000
0100
3100
1000
0001
0000
0110
0000
,  // measure 24
0000
1100
0000
0011
0000
0110
0000
0001
,  // measure 25
1000
0010
0100
0010
1000
0000
0000
0101
,  // measure 26
0000
1010
0000
1001
0000
0100
0010
0000
,  // measure 27
0000
0000
1001
0000
0100
1000
0000
0110
,  // measure 28
0000
1001
0000
0001
0010
0100
1000
0000
,  // measure 29
0110
0000
0001
0010
0000
1000
0000
0010
,  // measure 30
0000
0001
1000
0000
0001
0100
0001
0000
,  // measure 31
1000
0100
0001
0100
1000
0000
0110
0000
,  // measure 32
1001
0000
0000
1100
0000
1100
0000
0000
,  // measure 33
0101
0000
0101
0000
0000
1001
0000
0110
,  // measure 34
0000
1001
0000
0020
0000
0000
1030
0000
,  // measure 35
0001
0100
2000
0000
3100
0001
0000
1000
,  // measure 36
0100
0020
0000
0031
0200
0000
0301
0000
,  // measure 37
0101
0000
0000
2002
0000
3003
0000
0002
,  // measure 38
0000
0000
0013
0000
1000
0010
0002
0000
,  // measure 39
1003
0010
0000
0100
0010
2000
0000
3001
,  // measure 40
0020
0000
0031
0000
0011
0000
0000
0110
,  // measure 41
0000
0000
0000
1000
0100
1000
0010
0000
,  // measure 42
0101
0000
0010
0001
0100
0001
0000
1001
,  // measure 43
0000
0001
0100
0001
0010
0000
1100
0000
,  // measure 44
0010
1000
0100
1000
0000
0000
0000
0020
,  // measure 45
0000
1030
0200
0000
0301
0010
1000
0010
,  // measure 46
0100
0001
0000
1100
0000
0002
0000
0103
,  // measure 47
2000
0000
3100
0001
1000
0010
0100
0001
,  // measure 48
0000
0000
0000
1000
0000
0001
0100
0000
,  // measure 49
1000
0000
0100
0000
0010
0001
0000
0010
,  // measure 50
0000
1000
0000
0100
0010
0000
0001
0000
,  // measure 51
1000
0000
0010
0100
0000
0001
0000
2000
,  // measure 52
0000
3100
0100
0200
,  // measure 53
0000
0301
0000
0001
0000
0002
0000
0000
,  // measure 54
0013
0000
0010
0000
0020
0000
0030
1100
,  // measure 55
0000
0000
0110
0000
0000
0011
0000
0000
,  // measure 56
1000
0100
1000
0001
0010
0001
0000
0000
,  // measure 57
0011
0000
0101
0000
0000
1010
0000
1100
,  // measure 58
0000
0110
1001
0110
,  // measure 59
0001
0000
0100
0000
1000
0000
0100
0001
,  // measure 60
1000
0100
0000
0010
0000
0001
0000
1000
,  // measure 61
0100
0001
0100
1000
,  // measure 62
0001
0010
0100
1000
0000
0001
0000
0010
,  // measure 63
0000
0001
0100
0000
0001
0000
1000
0000
,  // measure 64
0001
0000
0100
0010
0000
1100
0000
1001
,  // measure 65
0000
0011
0000
1000
0001
0000
1010
0000
,  // measure 66
0110
0000
0101
0000
0220
0000
0330
1000
,  // measure 67
0100
0010
0001
0100
0010
1000
0000
0000
,  // measure 68
1001
1100
1001
0022
,  // measure 69
0033
0001
1000
0010
0100
0010
1000
0001
,  // measure 70
0000
0100
1001
0010
,  // measure 71
2000
0000
0000
3020
0000
0100
0000
0130
,  // measure 72
0001
1000
0200
0000
0001
0000
0010
0000
,  // measure 73
0301
0000
0010
0001
0100
0002
0000
0100
,  // measure 74
0000
0100
0000
1003
0020
0000
0001
0000
,  // measure 75
1000
0000
0031
0000
1000
0100
1000
0100
,  // measure 76
0000
0010
0000
0001
0000
0100
0001
0100
,  // measure 77
0001
0000
1000
0000
0010
0000
1000
0001
,  // measure 78
1000
0001
0000
0001
1000
0010
0100
0010
,  // measure 79
0100
0000
0100
0010
1000
0000
0001
0100
,  // measure 80
0010
1000
0010
0100
0000
0001
1000
0000
,  // measure 81
0001
0000
0110
0000
0000
1100
0000
1001
,  // measure 82
0000
0010
0001
1000
0200
0000
1300
0000
,  // measure 83
1001
0000
0000
0011
0000
1001
0000
0100
,  // measure 84
0001
1000
0020
0000
0130
0000
1001
0000
,  // measure 85
0000
1010
0000
0110
0000
0001
1000
0100
,  // measure 86
2000
0000
3001
0000
0110
0000
0000
0101
,  // measure 87
0000
0110
0000
1000
0001
0010
0002
0000
,  // measure 88
0003
0000
1000
0100
1000
0100
0000
0100
,  // measure 89
0000
0010
0001
0010
0001
0000
0001
0000
,  // measure 90
0001
0100
0001
0010
0000
0010
0000
0100
,  // measure 91
1000
0010
0100
0000
0100
0000
0001
0010
,  // measure 92
0001
0010
0000
0010
0001
1000
0100
1000
,  // measure 93
0100
0000
0100
1000
0001
0100
0001
0100
,  // measure 94
0000
0100
0001
1000
0010
1000
0010
0000
,  // measure 95
1001
0000
2200
0000
3300
0202
0000
0303
,  // measure 96
0000
0022
0000
0033
2020
0000
3030
0000
,  // measure 97
0022
0000
0033
2200
0000
3300
0000
0202
,  // measure 98
0000
0303
2020
0000
3030
0000
1001
0000
,  // measure 99
1000
0100
0001
0100
1000
0001
0000
1000
,  // measure 100
0001
0100
0010
0000
1001
0000
0000
1100
,  // measure 101
0000
0101
0000
0000
1010
0000
0011
0000
,  // measure 102
0000
0110
0000
1001
0000
0110
0000
1001
,  // measure 103
0000
0000
0021
0000
1030
0000
0000
1200
,  // measure 104
0000
0301
0000
0000
2001
0000
3010
0000
,  // measure 105
0102
1003
0000
0000
;

//---------------dance-single - ----------------
#NOTES:
     dance-single:
     :
     Challenge:
     9:
     0.761,0.727,0.455,0.440,0.073: // measure 1
0000
0000
0000
0000
,  // measure 2
0000
0000
0000
0000
0000
0000
1000
0100
,  // measure 3
0010
0001
0000
1000
0000
0001
0010
0100
,  // measure 4
1000
0000
0001
0000
1000
0100
0001
0100
,  // measure 5
0000
1000
0001
0100
0001
0010
0001
0000
,  // measure 6
0100
0000
0010
0100
0010
0100
0000
0010
,  // measure 7
0000
1000
0001
1000
0001
0000
0100
0000
,  // measure 8
0001
0010
0001
0100
0000
0010
1000
0100
,  // measure 9
0000
2002
3003
0110
,  // measure 10
0001
0010
0001
1000
0010
1000
0000
0001
,  // measure 11
0100
0001
1000
0010
1000
0000
0010
1000
,  // measure 12
0001
1000
0001
0100
0000
0000
1001
0000
,  // measure 13
0000
1000
0001
0000
1000
0010
0100
0001
,  // measure 14
1000
0001
0000
0010
0001
1000
0100
1000
,  // measure 15
0001
0000
1000
0001
0100
0010
1000
0001
,  // measure 16
0000
0220
0330
1001
,  // measure 17
0010
0002
0000
2003
0000
3100
1000
0001
,  // measure 18
0010
0001
1000
0100
0010
0000
0001
0200
,  // measure 19
0000
0320
0000
1030
0100
0001
0200
0000
,  // measure 20
1300
0000
0000
0001
0010
0000
0000
0000
0100
0000
1000
0000
0000
0000
0001
0000
,  // measure 21
0100
0000
0010
0000
0100
0000
0001
0000
2000
0000
0000
0000
3100
0000
0000
0100
,  // measure 22
1000
0000
0010
1000
0000
0100
1000
0010
,  // measure 23
1000
0100
0010
0001
1000
0010
0100
0000
,  // measure 24
0000
0011
0000
1010
0000
1001
0000
0100
,  // measure 25
0001
1000
0001
1000
0010
0000
0000
1100
,  // measure 26
0000
0101
0000
0110
0000
2000
0002
0000
,  // measure 27
3003
0000
0000
0100
0001
0000
0100
0000
0001
0000
1000
0000
0100
0000
0010
0000
,  // measure 28
0001
0000
1000
0000
0100
0000
0010
0000
0002
0000
0000
0000
1003
0000
0000
1000
,  // measure 29
0010
0100
0001
0100
1000
0100
0001
1000
,  // measure 30
0100
0010
0001
0000
1000
0100
0010
0100
,  // measure 31
1000
0000
0001
0000
0100
0000
0010
0100
0010
0000
0100
0000
0001
0000
1000
0000
,  // measure 32
0001
0000
0000
1010
0000
1001
0000
0000
,  // measure 33
0011
0000
1001
0000
0000
0101
0000
1100
,  // measure 34
0000
0110
0000
1000
0100
0010
0100
1000
,  // measure 35
0100
0010
0100
0000
1000
0001
0010
0001
,  // measure 36
1000
0001
0010
0100
0010
0001
1000
0001
,  // measure 37
0100
0000
0001
0010
1000
0010
0001
1000
,  // measure 38
0100
0010
0001
0000
1100
0000
0001
0100
,  // measure 39
0010
1000
0000
1100
0000
0010
0100
0001
,  // measure 40
1000
0000
0011
0000
1010
0000
0000
1001
,  // measure 41
0000
0000
0000
0200
0000
0000
0302
0000
,  // measure 42
2003
0000
3001
0010
1000
0010
0001
1000
,  // measure 43
0100
2000
0000
0000
3002
0000
0023
0000
,  // measure 44
0031
0000
1000
0000
0100
0000
2000
0000
0000
0000
0000
0000
3000
0100
1000
0000
,  // measure 45
0000
0010
1000
0000
0001
1000
0100
1000
,  // measure 46
0100
0000
0020
0000
0000
0000
0031
0000
0000
0010
0001
0000
0000
0000
1000
0000
,  // measure 47
0010
0000
1000
0100
0001
1000
0010
0002
,  // measure 48
0000
0000
0000
1003
0001
0100
1000
0100
,  // measure 49
0010
0001
0100
0010
1000
0001
0000
0110
,  // measure 50
0000
0001
0100
0010
0100
0001
1000
0100
,  // measure 51
0001
0100
0010
0100
0000
1001
0000
0110
,  // measure 52
0000
0001
0020
0000
1030
0001
0100
1000
,  // measure 53
0001
1000
0000
0110
0000
1001
0000
0100
,  // measure 54
0002
0000
1003
0001
1000
0010
0100
0001
,  // measure 55
0000
1000
0100
1000
0000
0001
0010
0001
,  // measure 56
0010
0000
0100
1000
0100
0000
0010
0000
0002
0000
1003
0000
0000
0000
0000
0000
,  // measure 57
2100
0000
3001
0000
0000
0012
0000
1003
,  // measure 58
0000
0210
0320
0130
,  // measure 59
1001
0000
1000
0100
0010
0000
0001
0010
,  // measure 60
0100
0010
0000
1002
0000
1003
0000
1000
,  // measure 61
0100
0010
0100
0000
0210
0000
0310
0000
,  // measure 62
0001
0010
1000
0010
0000
2001
0000
3001
,  // measure 63
0000
1000
0010
0100
0010
0000
0120
0000
,  // measure 64
0130
0000
1000
0100
0010
0002
0000
0203
,  // measure 65
0000
0320
0000
1030
0010
0100
0001
0010
,  // measure 66
1000
0010
0001
1000
0200
0000
0300
1002
,  // measure 67
0000
0000
0013
0000
0000
0000
2001
0000
0000
0000
3100
0000
0000
0000
0000
0001
,  // measure 68
0010
0000
0000
0010
0100
0000
0000
0100
1000
0000
0000
1000
0001
0000
0000
0000
,  // measure 69
0000
0201
0000
0310
0000
0120
0000
1030
,  // measure 70
0000
0000
0000
0001
1000
0000
0000
1000
0010
0000
0000
0010
0100
0000
0000
0000
,  // measure 71
0110
0000
0001
0010
0100
0010
1000
0010
,  // measure 72
0000
0100
1000
0100
0010
0100
0001
0000
,  // measure 73
1100
0000
1000
0100
0001
0100
0000
1001
,  // measure 74
0000
1100
0000
0001
0010
1000
0010
0000
,  // measure 75
0011
0000
1001
0000
1000
0010
0100
0001
,  // measure 76
0000
1100
0000
1010
0000
0001
0100
0010
,  // measure 77
1000
0000
0011
0000
0101
0000
1000
0010
,  // measure 78
1000
0010
1000
0100
0001
0100
0001
0100
,  // measure 79
1000
0000
0010
0000
0001
0000
0010
1000
0010
0000
0000
0000
1000
0000
0100
0000
,  // measure 80
0010
0000
0001
0000
0010
0000
0100
0000
1000
0001
1000
0000
0001
0000
0100
0000
,  // measure 81
0010
0100
0002
0000
0000
2003
0000
3001
,  // measure 82
0100
0001
0010
0100
1000
0000
0110
0000
,  // measure 83
0020
0000
0000
0230
0000
0310
1000
0001
,  // measure 84
1000
0001
0100
0000
1001
0000
0002
0000
,  // measure 85
0000
0203
0000
0310
1000
0100
0001
0100
,  // measure 86
1000
0000
0101
0000
2000
0000
0000
3020
,  // measure 87
0000
1030
0001
0100
1000
0100
0001
0000
,  // measure 88
1010
0000
0001
0010
0100
0010
0001
0010
,  // measure 89
0100
0010
0001
1000
0100
0010
0100
1000
,  // measure 90
0001
0100
0001
0010
0001
0100
0010
1000
,  // measure 91
0100
1000
0010
0000
1001
0000
0010
1000
,  // measure 92
0001
1000
0100
0010
0001
1000
0001
1000
,  // measure 93
0100
0000
1000
0000
0010
0000
0100
0001
0100
0000
0010
0000
1000
0000
0100
0000
,  // measure 94
0001
0100
1000
0001
0100
0010
0200
0000
,  // measure 95
0301
0000
1000
0100
1000
0000
0001
0000
1000
0000
0100
0000
0010
0000
0001
0000
,  // measure 96
1000
0000
0010
0000
0100
0000
0001
0000
1000
0000
0001
0000
0100
0000
0001
0010
,  // measure 97
0001
0010
0100
1000
0001
0100
0010
1000
,  // measure 98
0001
1000
0010
0100
0010
1000
0002
0000
,  // measure 99
0000
0203
0000
0000
0320
0000
0000
2030
,  // measure 100
0000
0000
3001
0000
1001
0000
0000
0210
,  // measure 101
0000
0301
0000
0000
1020
0000
0130
0000
,  // measure 102
0000
1002
0000
2003
0000
3001
0000
1002
,  // measure 103
0000
0000
0100
0000
1000
0000
0000
0103
,  // measure 104
0000
2000
0000
0000
0001
0000
3001
0000
,  // measure 105
0110
1001
0000
0000
;
