#TITLE:Love You Down;
#SUBTITLE:;
#ARTIST:INOJ;
#TITLETRANSLIT:;
#SUBTITLETRANSLIT:;
#ARTISTTRANSLIT:;
#GENRE:;
#CREDIT:;
#MENUCOLOR:;
#METERTYPE:DDR;
#BANNER:90s - Love You Down.png;
#BACKGROUND:90s - Love You Down-BG.png;
#LYRICSPATH:;
#CDTITLE:./CDTitles/SpyHunter29 Originals.png;
#MUSIC:90s - Love You Down.mp3;
#OFFSET:-0.020;
#SAMPLESTART:27.545;
#SAMPLELENGTH:12.000;
#SELECTABLE:YES;
#LISTSORT:;
#BPMS:0.000=67.000,32.000=134.000;
#STOPS:;
#BGCHANGES: 7.75=Fireworks2.avi=0.5=1=0=1,
15.75=Fireworks1.avi=0.5=0=1=1,
29.75=Fireworks1.avi=1.5=0=1=1,
31.75=Ring4.avi=1=0=1=1,
39.75=Square2A.avi=0.982=0=1=1,
45.75=DDR14A.avi=1.768=0=1=1,
47.75=Ring4.avi=1=0=1=1,
55.75=Square2.avi=0.737=0=1=1,
63.75=Ring3.avi=1=0=1=1,
71.75=Stairs1.avi=1.474=0=1=1,
79.75=Max2.avi=1=0=1=1,
87.75=Ring2.avi=1.474=0=1=1,
95.75=Ring3.avi=1=0=1=1,
103.75=Stairs1.avi=1.474=0=1=1,
111.75=Max2.avi=1=0=1=1,
119.75=Ring2.avi=1.474=0=1=1,
125.75=DDR14A.avi=1.768=0=1=1,
127.75=Ring4.avi=1=0=1=1,
135.75=Square2A.avi=0.982=0=1=1,
141.75=DDR14A.avi=1.768=0=1=1,
143.75=Ring4.avi=1=0=1=1,
151.75=Square2.avi=0.982=0=1=1,
157.75=DDR14A.avi=1.768=0=1=1,
159.75=Ring4.avi=1=0=1=1,
167.75=Square2A.avi=0.982=0=1=1,
173.75=DDR14A.avi=1.768=0=1=1,
175.75=Ring4.avi=1=0=1=1,
183.75=Square2.avi=0.737=0=1=1,
191.75=90s - Love You Down-BG.png;
#ATTACKS:;

//---------------dance-single - BEGINNER----------------
#NOTES:
     dance-single:
     BEGINNER:
     Beginner:
     1:
     0.120,0.119,0.000,0.040,0.000: // measure 1
0000
0000
0000
0000
,  // measure 2
0000
0000
0000
0000
,  // measure 3
0000
0001
0001
0001
,  // measure 4
0001
0000
0000
0000
,  // measure 5
0000
1000
1000
1000
,  // measure 6
1000
0000
0000
0000
,  // measure 7
0000
0001
0001
0001
,  // measure 8
0001
0000
0000
0000
,  // measure 9
0010
0000
0010
0000
,  // measure 10
0100
0000
0100
0000
,  // measure 11
0001
0000
0010
0000
,  // measure 12
0100
0000
1000
0000
,  // measure 13
0001
0000
0001
0000
,  // measure 14
1000
0000
1000
0000
,  // measure 15
0010
0000
0100
0000
,  // measure 16
0001
0000
1000
0000
,  // measure 17
0100
0000
1000
0000
,  // measure 18
0100
0000
0001
0000
,  // measure 19
0100
0000
0000
0000
,  // measure 20
0010
0000
0000
0000
,  // measure 21
0001
0000
0010
0000
,  // measure 22
1000
0000
0010
0000
,  // measure 23
0001
0000
0000
0000
,  // measure 24
1000
0000
0000
0000
,  // measure 25
0010
0000
0001
0000
,  // measure 26
0100
0000
0001
0000
,  // measure 27
0010
0000
0000
0000
,  // measure 28
0100
0000
0000
0000
,  // measure 29
1000
0000
0100
0000
,  // measure 30
0001
0000
0100
0000
,  // measure 31
1000
0000
0000
0000
,  // measure 32
0001
0000
0000
0000
,  // measure 33
1000
1000
2000
0000
,  // measure 34
3000
0000
0000
0000
,  // measure 35
0100
0000
1000
0000
,  // measure 36
0001
0000
0010
0000
,  // measure 37
0001
0001
0002
0000
,  // measure 38
0003
0000
0000
0000
,  // measure 39
0100
0000
0010
0000
,  // measure 40
1000
0000
0001
0000
,  // measure 41
0100
0100
0200
0000
,  // measure 42
0300
0000
0000
0000
,  // measure 43
0010
0000
0100
0000
,  // measure 44
0001
0000
1000
0000
,  // measure 45
0010
0010
0020
0000
,  // measure 46
0030
0000
0000
0000
,  // measure 47
0100
0000
0010
0000
,  // measure 48
1000
0000
0001
0000
,  // measure 49
0100
0000
0000
0000
;

//---------------dance-single - BASIC----------------
#NOTES:
     dance-single:
     BASIC:
     Easy:
     3:
     0.225,0.262,0.010,0.288,0.000: // measure 1
0000
0000
0000
0000
,  // measure 2
0000
0000
0000
0000
,  // measure 3
0000
0010
0100
1000
,  // measure 4
0002
0000
0003
0000
,  // measure 5
0000
0100
0010
1000
,  // measure 6
0002
0000
0003
0000
,  // measure 7
0000
0010
0001
1000
,  // measure 8
0200
0000
0000
0000
0300
0000
0010
0010
,  // measure 9
1000
0100
2000
3000
,  // measure 10
0200
0300
0020
0030
,  // measure 11
0001
0100
0010
1000
,  // measure 12
0100
0000
0001
1000
,  // measure 13
0001
0010
0200
0300
,  // measure 14
2000
3000
0020
0030
,  // measure 15
0100
0001
0010
0100
,  // measure 16
1000
0001
1000
0001
,  // measure 17
0220
0330
0100
0010
,  // measure 18
1000
0100
1000
0001
,  // measure 19
1000
0000
0020
0030
,  // measure 20
2000
3000
0200
0300
,  // measure 21
0001
0000
1000
0100
,  // measure 22
0001
0000
0001
0100
,  // measure 23
1000
0000
0010
0000
,  // measure 24
0100
0000
0001
0000
,  // measure 25
0010
0000
1000
0100
,  // measure 26
1000
0000
0001
0100
,  // measure 27
0001
0000
0020
0030
,  // measure 28
0200
0300
0002
0003
,  // measure 29
1000
0000
0100
1000
,  // measure 30
0100
0000
0001
0010
,  // measure 31
0001
0000
0100
0000
,  // measure 32
1000
0000
0010
0000
,  // measure 33
0001
1000
0002
0003
,  // measure 34
0200
0300
0020
0030
,  // measure 35
1000
0100
0010
0001
,  // measure 36
1000
0000
0010
0100
,  // measure 37
0010
1000
0200
0300
,  // measure 38
0020
0030
0002
0003
,  // measure 39
0100
0001
1000
0001
,  // measure 40
0010
0000
0100
0100
,  // measure 41
1000
0010
0002
0003
,  // measure 42
0200
0300
0020
0030
,  // measure 43
0100
0001
0010
1000
,  // measure 44
0100
0000
1000
0001
,  // measure 45
0100
0001
2000
3000
,  // measure 46
0020
0030
0200
0300
,  // measure 47
0001
0010
0100
1000
,  // measure 48
0001
0000
0100
0010
,  // measure 49
0100
0000
0000
0000
;

//---------------dance-single - DIFFICULT----------------
#NOTES:
     dance-single:
     DIFFICULT:
     Medium:
     4:
     0.346,0.333,0.159,0.397,0.000: // measure 1
0000
0000
0000
0000
,  // measure 2
0000
0000
0000
0000
,  // measure 3
0000
0000
0010
0100
2000
0000
3002
0000
,  // measure 4
0203
0000
0300
0000
,  // measure 5
0110
0000
0010
1000
0100
1000
0001
0000
,  // measure 6
0200
0002
0303
0010
,  // measure 7
1001
0000
0010
0000
1000
0100
0001
0100
,  // measure 8
2000
0000
0000
0000
3001
0000
0010
0100
,  // measure 9
1000
0100
0002
0000
,  // measure 10
0100
0000
1003
0000
,  // measure 11
0001
0100
1000
0100
0001
0000
1000
0000
,  // measure 12
0100
0000
0100
0010
,  // measure 13
0001
0010
0200
0000
,  // measure 14
1000
0000
0310
0000
,  // measure 15
0001
0010
0001
1000
0001
0000
0010
0000
,  // measure 16
0200
0300
1100
0101
,  // measure 17
2002
0000
3003
0000
0001
0100
0001
0000
,  // measure 18
1000
0000
0100
0000
0010
0000
0001
1000
,  // measure 19
0010
0100
0002
1003
,  // measure 20
0020
1030
0002
0103
,  // measure 21
2020
0000
3030
0000
1000
0000
0100
0010
,  // measure 22
0002
0000
0003
0000
1000
0000
0010
0100
,  // measure 23
0002
0103
1000
0010
,  // measure 24
1000
0100
0010
0001
,  // measure 25
0220
0000
0330
0000
1000
0000
0100
0010
,  // measure 26
0001
0000
1000
0000
0100
0000
0001
0100
,  // measure 27
0010
1000
0002
0103
,  // measure 28
2000
3010
0200
0301
,  // measure 29
0020
0000
0030
0000
0100
1000
0100
0001
,  // measure 30
0100
1000
0001
0010
,  // measure 31
0001
0100
0010
1000
,  // measure 32
0002
0003
0110
1001
,  // measure 33
0001
0010
0200
1300
,  // measure 34
0020
0031
0200
1300
,  // measure 35
0001
0100
1000
0100
0001
0000
1000
0000
,  // measure 36
0002
0003
1100
0011
,  // measure 37
1000
0010
0002
0103
,  // measure 38
0020
1030
0200
0310
,  // measure 39
0001
0010
1000
0010
0001
0000
1000
0000
,  // measure 40
0010
0000
1010
1100
,  // measure 41
1000
0100
0002
0013
,  // measure 42
0002
0103
0020
1030
,  // measure 43
0100
0010
0001
1000
0010
0000
1000
0000
,  // measure 44
0200
0300
1010
1100
,  // measure 45
0001
0010
0200
1300
,  // measure 46
0020
0031
0020
1030
,  // measure 47
0100
1000
0001
0010
0100
0000
1000
0000
,  // measure 48
0002
0000
0003
0000
1000
0100
1000
0000
,  // measure 49
0101
0000
0000
0000
;

//---------------dance-single - EXPERT----------------
#NOTES:
     dance-single:
     EXPERT:
     Hard:
     6:
     0.425,0.405,0.089,0.188,0.094: // measure 1
0000
0000
0000
0000
,  // measure 2
0000
0000
0000
0000
,  // measure 3
1001
0000
0010
0100
1000
0100
0010
0001
,  // measure 4
0200
0000
0000
0000
0000
0000
0000
0000
0300
0000
0010
0000
0000
0100
0000
0000
,  // measure 5
0110
0000
0001
0100
1000
0100
0001
0010
,  // measure 6
2000
0000
0000
0000
0002
0000
0000
0000
3003
0000
0010
0000
0000
0001
0000
0000
,  // measure 7
0100
0000
0010
0000
1000
0001
0100
0001
,  // measure 8
2000
0000
3002
0000
0203
0000
0310
0010
,  // measure 9
1000
0000
0000
0000
0100
0000
1000
0100
0000
0000
0010
0000
0001
0000
0000
0000
,  // measure 10
1000
0000
0000
0000
0100
0000
0001
0100
0000
0000
0010
0000
1000
0000
0000
0000
,  // measure 11
0001
0100
1000
0100
0000
0001
0000
0010
,  // measure 12
0000
0100
1000
0000
0100
1000
0010
0000
,  // measure 13
1010
0000
0000
0000
0001
0000
1000
0010
0000
0000
0100
0000
0001
0000
0000
0000
,  // measure 14
1000
0000
0000
0000
0001
0000
0010
0001
0000
0000
1000
0000
0100
0000
0000
0000
,  // measure 15
0010
0100
1000
0010
0100
0000
0001
0000
,  // measure 16
0020
0000
0000
0000
0030
0000
0000
0000
1000
0000
0100
0000
0010
0001
0010
0000
,  // measure 17
0022
0000
0033
0000
0001
0100
1000
0100
,  // measure 18
0001
0000
0100
0000
1000
0000
0100
0010
,  // measure 19
0010
0000
0001
0000
1000
0010
1000
0000
,  // measure 20
0001
0100
0001
0000
1000
0100
1000
0000
,  // measure 21
0220
0000
0330
0000
1000
0000
0100
0010
,  // measure 22
0001
0000
1000
0100
0001
0000
0100
1000
,  // measure 23
1000
0000
0001
0000
0100
0010
1000
0000
,  // measure 24
0001
0000
0000
0000
0010
0000
0000
0000
1000
0000
0100
0000
0010
0001
0010
0000
,  // measure 25
0001
0000
0100
0000
0010
0000
1000
0001
,  // measure 26
0100
0000
0001
0100
1000
0000
0100
0001
,  // measure 27
0001
0010
0200
1300
,  // measure 28
0020
0000
0031
0000
1000
0100
0010
0001
,  // measure 29
0200
0000
0300
0000
0010
1000
0001
1000
,  // measure 30
0010
0000
1000
0000
0100
0000
0001
0100
,  // measure 31
0100
0000
1000
0100
0010
0000
0001
0010
,  // measure 32
0200
0000
0000
0000
0300
0000
0000
0000
1000
0000
0100
0000
0010
0100
0010
0000
,  // measure 33
1001
0000
0000
0000
0100
0000
0010
1000
0000
0000
0001
0000
0100
0000
0000
0000
,  // measure 34
1000
0000
0100
0000
1000
0000
0001
0010
0000
0000
0100
0000
1000
0000
0000
0000
,  // measure 35
0001
0100
1000
0100
0000
0010
0000
1000
,  // measure 36
0000
0100
0010
0000
0001
1000
0100
1000
,  // measure 37
2002
0000
0000
0000
3003
0000
1000
0100
0000
0000
0010
0000
0001
0000
0000
0000
,  // measure 38
1000
0000
0010
0000
0100
0000
0010
1000
0000
0000
0001
0000
0100
0000
0000
0000
,  // measure 39
1000
0100
0001
0100
0010
0001
0000
1000
,  // measure 40
0000
0000
0001
0000
0100
0000
0000
0000
0010
0000
1000
0000
0001
0100
0010
0000
,  // measure 41
2020
0000
0000
0000
3030
0000
0010
1000
0000
0000
0001
0000
0100
0000
0010
0000
,  // measure 42
1000
0000
0100
0000
1000
0000
0001
0010
0000
0000
0100
0000
1000
0000
0000
0000
,  // measure 43
0001
0100
1000
0100
0001
0010
0000
0100
,  // measure 44
0000
1000
0001
1000
0100
0010
0001
0000
,  // measure 45
0110
0000
0000
0000
1000
0000
0001
0100
0000
0000
0010
0000
1000
0000
0001
0000
,  // measure 46
0100
0000
0000
0000
0001
0000
0010
0100
0000
0000
1000
0000
0001
0000
0010
0000
,  // measure 47
0001
0100
1000
0100
0010
1000
0001
0100
,  // measure 48
0000
0000
0010
0000
0000
0000
1000
0000
0100
0000
0010
0000
0001
1000
0001
0000
,  // measure 49
0100
0000
0000
0000
;
