#TITLE:IKO IKO;
#SUBTITLE:;
#ARTIST:CAPTAIN JACK;
#TITLETRANSLIT:;
#SUBTITLETRANSLIT:;
#ARTISTTRANSLIT:;
#CREDIT:;
#BANNER:;
#BACKGROUND:;
#LYRICSPATH:;
#CDTITLE:;
#MUSIC:04 - Iko Iko (Radio Video Mix).mp3;
#OFFSET:0.324;
#SAMPLESTART:56.160;
#SAMPLELENGTH:15.000;
#SELECTABLE:YES;
#BPMS:0.000=106.000;
#STOPS:;
#BGCHANGES:0.000=AIKO.avi=1.000=1=1=0,
99999=-nosongbg-=1.000=0=0=0 // don't automatically add -songbackground-
;

//---------------dance-single - Copied from Blank----------------
#NOTES:
     dance-single:
     Copied from Blank:
     Hard:
     7:
     0.502,0.480,0.621,0.000,0.193:
0000
0000
0000
0000
,
0000
0000
0000
0000
,
0000
0000
0000
0000
,
0000
0000
0000
0000
,
0000
0000
0000
0000
,
1000
1000
0100
0100
1000
1000
0010
0010
,
0100
0000
0001
0100
0000
0001
0100
0000
0010
0000
0100
0000
0101
0000
0000
0000
,
1000
0100
1100
0000
0100
0101
1001
0000
,
0001
0010
0011
0000
1000
1010
1100
0000
,
0001
0001
0010
0010
0100
0100
1000
1000
,
0001
0000
1000
0001
0000
1000
0001
0000
0100
0000
0010
0000
0010
0000
0000
0000
,
1000
0100
0110
0000
0001
0011
1010
0000
,
1000
0100
1100
0000
0100
0110
0101
0000
,
0010
0000
1000
0000
1010
0000
1000
0100
0010
0001
0100
0000
0101
0000
0000
0000
,
0001
0000
0010
0001
0000
0010
0001
0000
1000
0000
0000
0000
1001
0000
0000
0000
,
0001
0000
0100
0000
0101
0000
0001
0010
0100
1000
0001
0000
1001
0000
0000
0000
,
1000
0000
0010
1000
0000
0010
1000
0000
0001
0000
0000
0000
1001
0000
0000
0000
,
1000
0010
0001
0010
0100
0001
0011
0000
,
0001
0000
0100
0000
0010
0000
1000
0001
0000
0001
0010
0000
0100
0000
1000
0000
,
0010
0001
0010
0100
0001
0100
0101
0000
,
1000
0000
0100
0000
0010
0000
0100
1000
0000
1000
0001
0000
0100
0000
0010
0000
,
1000
0100
0001
0100
0010
0001
0101
0000
,
0001
0000
1000
0100
0000
1000
0100
0000
0010
0000
0001
0000
1001
0000
0000
0000
,
0001
0100
1000
0100
0010
1000
1010
0000
,
1000
0010
0001
1000
0100
0001
1001
0000
,
0001
0001
0101
0101
0010
0010
1010
1010
,
0010
0000
1000
0010
0000
1000
0010
0000
0100
0000
0001
0000
1001
0000
0000
0000
,
0001
0100
1000
0001
0010
1000
1001
0000
,
1000
0100
0001
1000
0001
0100
1100
0000
,
0010
0010
1100
1100
0010
0010
0101
0101
,
0010
0000
0100
0001
0000
0100
0001
0000
1000
0000
0001
0000
1001
0000
0000
0000
,
1000
0100
0001
1000
0010
0001
1001
0000
,
0001
0100
1000
0001
1000
0100
0101
0000
,
0001
0001
1001
1001
1000
1000
1001
1001
,
0001
0000
0010
0100
0000
0010
0100
0000
1000
0000
1100
0000
1100
0000
0000
0000
,
0001
0010
0101
0000
1000
1100
1001
0000
,
0001
1000
1100
0000
0001
0101
0110
0000
,
1000
1000
0101
0101
0010
0010
1001
1001
,
1000
0000
0100
0010
0000
0100
0010
0000
0001
0000
0011
0000
0011
0000
0000
0000
,
1000
0100
1000
0000
0010
0100
0000
0001
0000
1000
0000
0100
0000
0000
0000
0010
,
0000
0010
0001
0000
0100
0010
0000
1000
0000
1000
0010
0000
1001
0000
0000
0000
;

//---------------dance-single - ----------------
#NOTES:
     dance-single:
     :
     Medium:
     5:
     0.369,0.349,0.429,0.171,0.011:
0000
0000
0000
0000
,
0000
0000
0000
0000
,
0000
0000
0000
0000
,
0000
0000
0000
0000
,
0000
0000
0000
0000
,
0011
0011
1100
1100
,
2000
0000
3001
0000
0100
0010
0010
0000
,
1000
0001
1000
0000
0100
0010
0011
0000
,
0001
0100
0010
0000
1000
0010
0110
0000
,
1010
1010
0101
0101
,
0002
0000
1003
0000
0020
0100
0130
0000
,
0001
0010
0001
0000
1000
0100
1100
0000
,
1000
0001
1000
0000
0010
0100
0110
0000
,
1000
1000
1000
0000
0200
0000
0310
0000
,
0001
0001
0001
0000
0200
0000
0310
0000
,
0100
0100
0100
0000
0002
0000
0013
0000
,
0100
0100
0100
0000
2000
0000
3010
0000
,
0100
0010
1000
0000
0100
0010
0001
0000
,
1000
0001
0100
0010
1000
0001
1001
0000
,
0001
0100
1000
0000
1000
0100
0001
0000
,
0001
0010
0001
0010
0100
1000
1100
0000
,
1000
0010
0001
0000
0001
0010
1000
0000
,
1000
0000
0000
1000
0000
0000
0100
0000
0010
0000
0001
0000
0001
0000
0000
0000
,
0001
1000
0100
0000
1000
0001
0100
0000
,
0010
0000
0000
0000
1000
0000
0000
1001
0000
0000
0000
0000
0000
0000
0000
0000
,
0011
0101
1010
1100
,
1000
0100
0010
0001
1000
0000
1001
0000
,
2000
0000
3010
0000
0100
0100
0101
0000
,
0002
0000
1003
0000
1000
1000
1010
0000
,
0110
1001
0011
1100
,
0001
0010
0100
1000
0001
0000
1001
0000
,
0002
0000
0013
0000
0100
0100
0100
0000
,
2000
0000
3010
0000
0100
0100
0100
0000
,
0101
0011
1100
1010
,
0010
0000
0100
0000
0001
1000
1001
0000
,
2010
0000
3001
0000
0100
0100
0101
0000
,
2010
0000
3010
0000
0100
0001
1000
0000
,
1000
1100
0001
0101
,
1000
0001
0110
1001
,
2000
3001
0002
1003
,
2000
0000
3001
0000
0001
1000
1001
0000
;

//---------------dance-single - ----------------
#NOTES:
     dance-single:
     :
     Easy:
     3:
     0.265,0.306,0.268,0.225,0.000:
0000
0000
0000
0000
,
0000
0000
0000
0000
,
0000
0000
0000
0000
,
0000
0000
0000
0000
,
0000
0000
0000
0000
,
1000
1000
0001
0001
,
0011
1100
2002
3003
,
0001
0001
0100
0200
,
0010
0010
1000
1000
,
0010
0010
0100
0100
,
0011
1100
2002
3003
,
1000
0010
1000
0010
,
0100
0001
0100
0001
,
1001
1001
2000
3100
,
1000
1000
0001
0101
,
1100
1100
0001
0001
,
0200
0310
1001
1001
,
1000
0100
0001
0100
,
1000
0001
2000
3000
,
0001
0010
1000
0010
,
0001
1000
0002
0003
,
0100
0010
1000
0100
,
0010
0001
2002
3003
,
0001
0001
0010
0100
,
0010
0001
2002
3003
,
1000
1000
0001
0001
,
0011
0101
2002
3003
,
1000
0100
1000
0101
,
0001
0010
0001
1100
,
1000
0010
0100
0001
,
0011
1100
2020
3030
,
0001
0001
0010
0100
,
0010
0001
2002
3003
,
1000
0100
1000
0010
,
0100
0100
0020
0030
,
0100
0001
0010
0100
,
1000
0100
1000
0001
,
0100
0010
0100
0010
,
1000
1000
2000
3000
,
0001
0000
0000
0000
,
1000
0000
0000
1001
;
