#TITLE:Come Undone;
#SUBTITLE:;
#ARTIST:Duran Duran;
#TITLETRANSLIT:;
#SUBTITLETRANSLIT:;
#ARTISTTRANSLIT:;
#CREDIT:;
#BANNER:Come Undone.png;
#BACKGROUND:Come Undone-bg.png;
#LYRICSPATH:;
#CDTITLE:;
#MUSIC:Come Undone.mp3;
#OFFSET:-5.540;
#SAMPLESTART:55.210;
#SAMPLELENGTH:16.550;
#SELECTABLE:YES;
#DISPLAYBPM:87.000;
#BPMS:0.000=86.987;
#STOPS:;
#BGCHANGES:;

//---------------dance-single - ----------------
#NOTES:
     dance-single:
     :
     Hard:
     7:
     0.349,0.312,0.235,0.145,0.113: // measure 1
1001
0000
0100
0000
0010
1000
0100
0001
,  // measure 2
0100
0000
0010
0000
0001
1000
0001
0000
,  // measure 3
2200
0000
0300
0000
0010
0001
3010
0000
,  // measure 4
0001
0100
0010
1000
0000
0001
0101
0000
,  // measure 5
0001
0010
0001
1000
0000
0100
0010
0100
,  // measure 6
2000
3020
0230
0302
,  // measure 7
1003
0000
0000
0001
0100
0000
0010
0000
0000
0000
1000
0000
0001
0000
1000
0100
,  // measure 8
1000
0000
0001
0000
0010
0000
0100
0000
0000
0000
0010
0000
0001
0000
0100
0010
,  // measure 9
1000
0010
0100
0001
0000
0100
0001
1000
,  // measure 10
1200
0302
2003
3010
,  // measure 11
0001
1000
0000
1000
0010
0000
0010
0100
0000
0100
0001
0000
1000
0000
0000
0000
,  // measure 12
0100
0010
2002
3003
,  // measure 13
1000
0100
0000
1000
0100
0000
0010
0001
0000
0010
0001
0000
1000
0000
0001
0000
,  // measure 14
0101
1010
1001
0011
,  // measure 15
1001
0000
0000
1000
0100
0000
0010
0000
0000
0000
0001
0000
0010
0000
0001
0000
,  // measure 16
0100
0000
0000
0010
0100
0000
0001
0000
0000
0100
1000
0000
0100
0000
0001
0000
,  // measure 17
0101
0000
0000
0001
1000
0000
0100
0000
0010
0001
0010
0000
0001
0000
0100
0000
,  // measure 18
0110
0010
0000
2020
0000
0000
3030
0000
,  // measure 19
1001
0001
0100
0010
0000
0100
0001
1000
,  // measure 20
0100
0010
0100
1000
0000
0010
0100
0001
,  // measure 21
0010
1000
0010
0001
0000
1000
0010
0100
,  // measure 22
0101
0000
0001
1000
1100
0100
0010
0001
,  // measure 23
0101
0000
0000
0001
1000
0000
0100
0000
0010
0000
0100
0000
1000
0000
0001
0000
,  // measure 24
0101
0000
0000
0100
0001
0000
1000
0000
0100
0000
0001
0000
0100
0000
1000
0000
,  // measure 25
1010
0000
0000
0001
1000
0000
0100
0000
0000
0010
0001
0000
0100
0000
0010
0000
,  // measure 26
0110
0000
1001
1000
0100
0010
0011
0000
,  // measure 27
0001
0100
0000
0100
0001
0000
1000
0100
0000
0100
1000
0000
0010
0000
0100
0000
,  // measure 28
0010
1000
0100
0010
0000
0001
1001
0000
,  // measure 29
1000
0010
0100
0001
0000
1000
1001
0000
,  // measure 30
0001
0100
0010
1000
0100
0001
0100
1000
,  // measure 31
1002
0000
0010
0000
0100
0000
0010
1000
,  // measure 32
0013
0000
1000
0000
0001
0000
0100
0000
0000
0010
0001
0000
1000
0000
0010
0000
,  // measure 33
0100
0001
0100
1000
0000
0100
0010
0100
,  // measure 34
0010
0000
1000
0001
0100
0100
0001
1000
,  // measure 35
2002
0000
3003
0000
;

//---------------dance-single - ----------------
#NOTES:
     dance-single:
     :
     Medium:
     5:
     0.260,0.250,0.154,0.145,0.000: // measure 1
1000
0000
0100
0000
0001
0010
0001
0010
,  // measure 2
0100
0000
0010
0000
0001
1000
0001
0000
,  // measure 3
2002
0000
0000
3003
,  // measure 4
1000
0010
0100
0001
0000
1000
1000
0000
,  // measure 5
0001
0010
0001
0010
0000
0100
0100
0000
,  // measure 6
0011
0100
1010
0100
,  // measure 7
2002
0000
0000
3003
,  // measure 8
1000
0000
0010
0100
0000
0010
0100
0000
,  // measure 9
0010
1000
0001
0100
0000
0001
1000
0000
,  // measure 10
0100
0010
0001
0100
,  // measure 11
0101
0000
1001
0000
1000
0100
0010
0001
,  // measure 12
0100
0010
0220
0330
,  // measure 13
1010
0000
1001
0000
1000
0001
0100
0010
,  // measure 14
0100
1000
0010
0001
,  // measure 15
2002
0000
3003
0000
1000
0010
0100
0000
,  // measure 16
0220
0000
0330
0000
0010
0100
0001
1000
,  // measure 17
0100
0000
0010
0000
0001
1000
0001
0000
,  // measure 18
0220
0000
0000
0330
,  // measure 19
1001
0000
1000
0001
0000
1000
0001
0100
,  // measure 20
0010
0000
0100
0000
0001
1000
0001
1000
,  // measure 21
0100
0000
0010
0001
0000
1000
0100
0010
,  // measure 22
0100
0000
0010
0001
0100
0001
0000
1000
,  // measure 23
1001
0000
0001
0000
0100
0010
0100
0001
,  // measure 24
1000
0000
0001
1000
0000
1000
0100
0000
,  // measure 25
0010
0000
0001
0100
0000
0100
0001
1000
,  // measure 26
0010
0000
0100
0001
1000
0100
0000
0010
,  // measure 27
0011
0000
1001
0000
1000
0010
0100
0000
,  // measure 28
0001
0001
0001
0002
0000
0000
1003
0000
,  // measure 29
1000
1000
1000
2000
0000
0000
3010
0000
,  // measure 30
0010
0000
0100
0100
0001
1000
0000
0001
,  // measure 31
0102
0000
0100
0000
1000
0000
1000
1000
,  // measure 32
1003
0000
0001
0000
0100
0000
0010
0100
,  // measure 33
0010
0000
1000
0000
0100
0000
0010
0001
,  // measure 34
0100
0000
0001
1000
0000
1000
0100
0010
,  // measure 35
0002
0000
0003
0000
;

//---------------dance-single - ----------------
#NOTES:
     dance-single:
     :
     Easy:
     3:
     0.155,0.156,0.072,0.063,0.000: // measure 1
1000
0100
0010
0001
,  // measure 2
0100
0010
1000
0001
,  // measure 3
2002
0000
0000
3003
,  // measure 4
1000
0000
0001
0000
,  // measure 5
0100
0010
0100
0001
,  // measure 6
1000
1000
0100
0100
,  // measure 7
0220
0000
0000
0330
,  // measure 8
0010
0001
1000
0000
,  // measure 9
0001
1000
0010
0100
,  // measure 10
0001
0001
1000
1000
,  // measure 11
1001
0000
0001
0000
,  // measure 12
1000
0001
1000
0000
,  // measure 13
0010
0000
0100
0000
,  // measure 14
0010
0100
0010
0000
,  // measure 15
1001
0000
1000
0100
,  // measure 16
1000
0000
0001
0100
,  // measure 17
0001
1000
0001
1000
,  // measure 18
0220
0000
0000
0330
,  // measure 19
1001
0000
1000
0100
,  // measure 20
0010
0100
1000
0000
,  // measure 21
0001
0100
0010
0000
,  // measure 22
0010
0100
0001
1000
,  // measure 23
0100
0000
0010
0001
,  // measure 24
1000
0010
0100
0000
,  // measure 25
0001
0100
0010
0000
,  // measure 26
0010
1000
0001
1000
,  // measure 27
1001
0000
0001
0000
,  // measure 28
0100
0010
0100
0000
,  // measure 29
0001
1000
0001
0000
,  // measure 30
1000
0100
0010
0001
,  // measure 31
1001
0000
1000
0010
,  // measure 32
0100
0100
0010
0100
,  // measure 33
0001
0000
1000
0100
,  // measure 34
0010
0001
0100
0010
,  // measure 35
0200
0000
0300
0000
;

//---------------dance-single - ----------------
#NOTES:
     dance-single:
     :
     Beginner:
     1:
     0.097,0.123,0.063,0.018,0.000: // measure 1
1000
0000
0001
0001
,  // measure 2
0001
0000
0100
0000
,  // measure 3
0110
0000
0000
0000
,  // measure 4
0010
0000
1000
0000
,  // measure 5
0001
0000
0100
0000
,  // measure 6
0010
0000
0000
0000
,  // measure 7
1001
0000
0000
0000
,  // measure 8
0010
0000
0001
0000
,  // measure 9
1000
1000
1000
0000
,  // measure 10
0001
0000
0100
0000
,  // measure 11
0110
0000
0000
0000
,  // measure 12
0010
0000
1000
0000
,  // measure 13
1001
0000
0000
0000
,  // measure 14
0001
0000
0010
0000
,  // measure 15
0001
0000
0001
0000
,  // measure 16
1000
0000
1000
0000
,  // measure 17
0010
0000
0100
0000
,  // measure 18
2002
0000
3003
0000
,  // measure 19
1001
0000
1000
0000
,  // measure 20
0100
0000
0010
0000
,  // measure 21
0001
0000
0100
0000
,  // measure 22
0010
0000
0100
0100
,  // measure 23
0100
0000
0010
0000
,  // measure 24
1000
0000
0001
0000
,  // measure 25
1000
0000
0100
0000
,  // measure 26
0010
0000
0001
0001
,  // measure 27
0001
0000
1000
0000
,  // measure 28
0010
0000
0000
0000
,  // measure 29
0100
0000
0001
0000
,  // measure 30
1000
0000
0001
0001
,  // measure 31
0001
0000
1000
0000
,  // measure 32
0100
0000
0010
0000
,  // measure 33
0100
0000
0000
0000
,  // measure 34
1000
0000
0001
0000
,  // measure 35
1001
0000
0000
0000
;
