#TITLE:Ojos Así;
#SUBTITLE:;
#ARTIST:Shakira;
#TITLETRANSLIT:Ojos Asi;
#SUBTITLETRANSLIT:;
#ARTISTTRANSLIT:;
#GENRE:;
#CREDIT:;
#BANNER:90's - Ojos Asi.png;
#BACKGROUND:90's - Ojos Asi-BG.png;
#LYRICSPATH:;
#CDTITLE:./CDTitles/SpyHunter29 Originals.png;
#MUSIC:90's - Ojos Asi.mp3;
#OFFSET:-2.425964;
#SAMPLESTART:55.300;
#SAMPLELENGTH:12.000;
#SELECTABLE:YES;
#BPMS:0.000000=127.000;
#STOPS:;
#DELAYS:;
#TIMESIGNATURES:0.000=4=4;
#BGCHANGES:15.750=Text2.avi=1.000=1=0=1,
31.750=Moon1.avi=1.000=0=0=1,
47.750=Text2.avi=1.000=0=1=1,
63.750=Moon1.avi=1.000=0=1=1,
79.750=Text4.avi=1.000=0=0=1,
95.750=Text3.avi=1.000=0=0=1,
111.750=Text1.avi=1.000=0=0=1,
127.750=Text7.avi=1.000=0=0=1,
143.750=Moon1.avi=1.000=0=1=1,
159.750=Text2.avi=1.000=0=1=1,
174.750=90's - Ojos Asi-BG.png;
#KEYSOUNDS:;
#ATTACKS:;

//---------------dance-single - BEGINNER----------------
#NOTES:
     dance-single:
     BEGINNER:
     Beginner:
     2:
     0.135,0.201,0.000,0.034,0.000:
0000
0000
0000
0000
,
0000
0000
0000
0000
,
0000
0000
0000
0000
,
0000
0000
0000
0000
,
0100
0000
1000
0000
,
0010
0000
0001
0000
,
0100
0000
1000
0000
,
0001
0000
1000
0000
,
0010
0000
1000
0000
,
0100
0000
0001
0000
,
0010
0000
1000
0000
,
0200
0000
0300
0000
,
0001
0000
0000
0000
,
1000
0000
0000
0000
,
0001
0000
0000
0000
,
1000
0000
0010
0000
,
0001
0000
0000
0000
,
1000
0000
0000
0000
,
0001
0000
0000
0000
,
1000
0000
0100
0000
,
1000
1000
0000
0000
,
0001
0001
0000
0000
,
0020
0000
0030
0000
,
0100
0000
0100
0000
,
0010
0010
0000
0000
,
0100
0100
0000
0000
,
1000
0000
0001
0000
,
1000
1000
1000
0000
,
0001
0000
0001
0000
,
1000
1000
1000
0000
,
0010
0000
0010
0000
,
0100
0100
0100
0000
,
0001
0000
0010
0000
,
0100
0000
1000
0000
,
0010
0000
0100
0000
,
0010
0010
0010
0000
,
0001
0000
1000
0000
,
0001
0001
0001
0000
,
1000
0000
0001
0000
,
1000
1000
1000
0000
,
0010
0000
0001
0000
,
0010
0000
1000
0000
,
0100
0100
0100
0000
,
0010
0010
0010
0020
,
0000
0000
0030
0000
;

//---------------dance-single - BASIC----------------
#NOTES:
     dance-single:
     BASIC:
     Easy:
     4:
     0.303,0.326,0.237,0.271,0.000: // measure 1
0000
0000
0000
0000
,  // measure 2
0000
0000
0000
0000
,  // measure 3
0000
0000
0000
0000
,  // measure 4
0000
0000
0000
0000
,  // measure 5
0100
1000
0001
1000
,  // measure 6
0010
1000
0001
1000
,  // measure 7
0100
1000
0001
0010
,  // measure 8
0001
0100
0010
1000
,  // measure 9
0001
0100
0001
1000
,  // measure 10
0010
1000
0001
0100
,  // measure 11
0001
0010
0100
1000
,  // measure 12
0002
0000
0000
0003
,  // measure 13
0020
0030
1000
0100
,  // measure 14
0010
0000
0001
0010
,  // measure 15
0200
0300
1000
0100
,  // measure 16
0010
0001
0100
1000
,  // measure 17
0200
0300
0001
0010
,  // measure 18
1000
0000
0010
0001
,  // measure 19
2000
3000
0001
1000
,  // measure 20
0010
0100
0010
1000
,  // measure 21
0100
1100
0000
0011
,  // measure 22
0100
0101
0000
1010
,  // measure 23
0002
0103
1000
0010
,  // measure 24
2000
3001
0010
0100
,  // measure 25
1000
1010
0000
0101
,  // measure 26
0001
0011
0000
1100
,  // measure 27
0020
0030
0200
0300
,  // measure 28
0110
0001
0110
1000
,  // measure 29
0201
1300
0102
1003
,  // measure 30
0100
0000
1000
0000
0010
1000
0100
0000
,  // measure 31
1200
0310
2100
3010
,  // measure 32
1000
0000
0100
0000
0010
0001
1000
0000
,  // measure 33
0002
0003
2000
3000
,  // measure 34
0001
0100
0010
1000
,  // measure 35
0200
0300
0020
0030
,  // measure 36
0001
0100
0010
1001
,  // measure 37
2010
3001
0012
1003
,  // measure 38
0100
0000
0010
0000
0001
0100
0010
0000
,  // measure 39
0201
1300
1200
0301
,  // measure 40
0100
0000
0001
0000
1000
0001
0010
0000
,  // measure 41
0200
1300
0010
0001
,  // measure 42
0020
1030
0100
0001
,  // measure 43
0101
0000
1010
0000
,  // measure 44
0001
0100
0010
2000
,  // measure 45
0000
0000
3000
0000
;

//---------------dance-single - DIFFICULT----------------
#NOTES:
     dance-single:
     DIFFICULT:
     Medium:
     5:
     0.368,0.326,0.158,0.169,0.000:
0000
0000
0000
0000
,
0000
0000
0000
0000
,
0000
0000
0000
0000
,
0000
0000
0000
0000
,
0200
1300
0001
1000
,
0010
0000
1000
0100
0010
0001
0100
0000
,
0020
1030
0001
0100
,
0001
0100
0010
1000
0010
0100
0001
0000
,
0200
0301
1000
0010
,
1000
0000
0100
0010
0001
0010
0100
0000
,
1000
0001
0010
0001
,
0200
0000
0000
0000
0000
0300
0000
0000
,
0020
0000
1030
0000
0001
0100
0010
0000
,
1000
0000
0100
0000
0010
0100
1000
0000
,
0002
0000
0013
0000
0001
0010
0100
0000
,
1000
0000
0001
0000
0010
0001
0100
0000
,
0002
0000
1003
0000
0001
0100
0010
0000
,
1000
0000
0010
0000
1000
0100
0010
0000
,
0002
0000
0013
0000
0100
1000
0010
0000
,
1000
0000
0001
1000
0010
0000
1000
0001
,
0010
0000
0011
0000
0000
1000
0100
0000
,
1000
0000
1010
0000
0000
0001
0100
0010
,
2000
3100
0002
0103
,
0010
1000
0100
0110
,
0001
0000
0101
0000
0000
0010
1000
0000
,
0100
0000
1100
0000
0000
0001
0010
0000
,
0002
0103
2000
3100
,
0001
0100
0001
1000
0100
1000
0001
0000
,
0100
1010
0100
0011
,
1000
0100
0001
0000
1000
0010
0001
0000
,
0001
0101
1000
1100
,
0010
0001
0100
0000
0010
1000
0100
0000
,
2000
0000
3001
0000
1000
0010
0001
0000
,
0020
0000
0130
0000
0010
1000
0100
0000
,
1000
1000
1000
0000
0100
0010
0001
0000
,
0010
0001
0010
0100
1000
0100
0010
0000
,
0001
0110
1000
0110
,
0001
0100
1000
0000
0001
0010
1000
0000
,
0100
1001
0010
1001
,
0010
0001
0100
0000
0010
1000
0100
0000
,
0010
0001
0010
0000
0100
1000
0100
0000
,
1000
0010
1000
0000
0001
0100
0001
0000
,
1010
0000
0100
0000
0001
0100
0010
0000
,
0001
0100
0001
0000
1000
0100
0020
0000
,
0000
0000
0030
0000
;

//---------------dance-single - EXPERT----------------
#NOTES:
     dance-single:
     EXPERT:
     Hard:
     8:
     0.498,0.477,0.124,0.271,0.310:
0000
0000
0000
0000
,
0000
0000
0000
0000
,
0000
0000
0000
0000
,
0000
0000
0000
0000
,
0200
0000
1300
0000
0002
0000
1003
0100
,
0020
0000
0031
0100
0010
1000
0001
0000
,
0200
0000
0301
0000
2000
0000
3010
1000
,
0010
0100
0001
0010
0001
1000
0100
0000
,
2000
0000
3100
0000
0020
0000
0031
0100
,
0020
0000
1030
0001
0100
0001
1000
0000
,
0200
0000
1300
0000
0002
0000
1003
0010
,
2000
0000
0000
3000
,
0120
0000
1030
0000
1000
0100
0010
0002
,
0000
0103
0001
0000
1000
0100
1000
0002
,
0000
1003
0100
0000
0010
0001
0100
0020
,
0000
0000
1030
0000
0001
0000
0100
0000
0010
0100
0010
0000
1000
0001
1000
0000
,
0020
0000
1030
0000
0010
0100
0001
0020
,
0000
0130
1000
0000
0001
0100
0001
0020
,
0000
0031
0100
0000
0010
1000
0001
0200
,
0000
0000
0310
0000
1000
0100
1000
0100
1000
0000
0001
0010
0001
0010
0001
0000
,
0100
0010
1020
0000
0030
0100
0101
0000
,
0001
1000
2100
0000
3000
0100
0011
0000
,
0010
0001
0000
0100
0000
0010
1000
0000
,
0010
0000
0000
0100
0000
0000
0001
0000
1000
0000
0100
0000
0010
0000
0000
0000
,
0001
1000
2010
0000
3000
0100
0101
0000
,
1000
0001
0012
0000
0003
1000
1100
0000
,
0010
0001
0000
0100
0010
1000
0000
1000
,
0010
1000
0100
0010
0001
0100
0010
0000
,
1000
0100
0000
0010
0001
0000
1000
0000
0001
0100
0000
0010
1000
0000
0001
0000
,
0000
0100
0000
0100
0010
0000
0000
0010
1000
0000
0000
1000
0001
0000
0000
0000
,
1000
0100
0000
0001
0010
0000
0001
0000
1000
0010
0000
0001
0100
0000
0010
0000
,
0000
0100
0000
0100
0001
0000
0000
0001
1000
0000
0000
1000
0010
0000
0000
0000
,
0001
0100
0000
0100
0001
0000
0000
0000
1000
0010
0000
0010
1000
0000
0000
0000
,
0010
0100
0000
0100
0010
0000
1000
0000
0001
0100
0000
0100
0001
0000
0000
0000
,
1001
0000
1000
0000
0010
0000
0000
0000
1000
0001
0000
0001
0010
0000
0000
0000
,
0001
0100
0001
1000
0010
1000
0100
0000
,
0010
0001
0000
0100
0010
0000
1000
0000
0010
0100
0000
0001
0010
0000
0100
0000
,
1000
0001
0000
0010
0100
0000
0010
0000
0001
0100
0000
0010
1000
0000
0000
0000
,
0010
0000
1000
0001
1000
0000
0100
0000
0010
0000
0001
1000
0001
0000
0100
0000
,
0001
0000
0100
0010
1000
0000
0001
0000
1000
0000
0100
0010
0001
0000
0000
0000
,
1000
0010
0000
0010
0100
0000
0000
0000
0001
0010
0000
0010
0100
0000
0000
0000
,
1000
0100
0000
0100
1000
0000
0001
0000
1000
0010
0000
0010
0100
0000
0000
0000
,
0110
0000
1000
0000
0001
0000
0000
0000
1000
0100
0000
0001
0100
0000
0000
0000
,
1000
0010
0001
1000
0100
0001
0020
0000
,
0000
0000
0030
0000
;
